<?xml version="1.0" standalone="no"?>
<!DOCTYPE svg PUBLIC "-//W3C//DTD SVG 1.1//EN" "http://www.w3.org/Graphics/SVG/1.1/DTD/svg11.dtd">
<svg xmlns="http://www.w3.org/2000/svg">
<defs >
<font id="PatuaOne" horiz-adv-x="443" ><font-face
    font-family="Patua One"
    units-per-em="1000"
    panose-1="2 0 0 0 0 0 0 0 0 0"
    ascent="972"
    descent="-247"
    alphabetic="0" />
<glyph unicode=" " glyph-name="space" horiz-adv-x="225" />
<glyph unicode="!" glyph-name="exclam" horiz-adv-x="279" d="M62 510Q62 594 69 690H211Q217 601 217 522Q217 335 184 202H94Q62 332 62 510ZM60 -10T60 64T139 138T219 64T140 -10Z" />
<glyph unicode="&quot;" glyph-name="quotedbl" horiz-adv-x="386" d="M358 839T378 823T399 782Q399 716 295 579L244 598Q246 751 283 813Q299 839 328 839ZM152 839T172 823T193 782Q193 716 89 579L38 598Q40 751 77 813Q93 839 122 839Z" />
<glyph unicode="#" glyph-name="numbersign" horiz-adv-x="793" d="M586 86H514L419 -200L353 -189Q346 -178 344 -156T341 -120T349 -89L407 86H261L166 -200L100 -189Q93 -178 91 -156T88 -120T96 -89L154 86H32L22 144Q53 179 112 179H185L248 370H126L116
428Q147 463 206 463H279L365 720L431 709Q438 698 440 676T443 640T435 608L386 463H532L618 720L684 709Q691 698 693 676T696 640T688 608L639 463H762L772 405Q742 370 682 370H608L545 179H666L676 121Q646 86 586 86ZM355 370L292 179H438L501 370H355Z"
/>
<glyph unicode="$" glyph-name="dollar" horiz-adv-x="541" d="M339 581Q305 590 268 590T209 572T186 520T203 467T270 434L359 408Q431 387 473 343T516 210T457 64T306 -5Q330 -82 330 -158Q330 -167 330 -175H210Q209 -164 209 -153Q209 -82 232 -7Q106 0
31 51Q31 57 31 74T38 132T58 199H153Q169 168 172 116Q207 101 253 101T330 123T360 186Q360 205 357 217T339 244T294 268L191 298Q34 343 34 498Q34 578 85 630T222 694Q198 774 198 846Q198 857 198 867H318Q318 858 318 850Q318 775 295 697Q390 692 481 650Q481
644 481 627T474 569T454 502H359Q343 531 339 581Z" />
<glyph unicode="%" glyph-name="percent" horiz-adv-x="846" d="M217 -5Q212 11 212 35T231 94L563 720L626 698Q631 682 631 658T612 598L280 -27L217 -5ZM25 507Q25 604 75 653T207 702T336 659T382 516T332 366T199 315Q25 315 25 507ZM170 617T159 597T147
512T160 423T204 399T248 421T260 508T247 595T202 617ZM464 184Q464 281 514 330T646 379T775 336T821 193T771 43T638 -8Q464 -8 464 184ZM609 294T598 274T586 189T599 100T643 76T687 98T699 185T686 272T641 294Z" />
<glyph unicode="&amp;" glyph-name="ampersand" horiz-adv-x="591" d="M361 698T399 653T437 545T403 443T290 345Q336 277 432 203Q461 233 476 286L566 254Q549 188 506 134Q519 122 548 102T582 77L526 -8Q469 22 425 59Q332 -8 237 -8T86 37T29 166Q29 263
147 351Q72 448 72 528T123 653T267 698ZM329 530Q329 609 269 609Q194 609 194 530Q194 471 237 412Q329 474 329 530ZM205 272Q166 233 166 184Q166 93 274 93Q326 93 350 123Q239 222 205 272Z" />
<glyph unicode="&apos;" glyph-name="quotesingle" horiz-adv-x="180" d="M152 839T172 823T193 782Q193 716 89 579L38 598Q40 751 77 813Q93 839 122 839Z" />
<glyph unicode="(" glyph-name="parenleft" horiz-adv-x="285" d="M191 471T181 405T171 271T180 135T204 20Q232 -72 256 -117L265 -135L214 -174Q204 -167 181 -143T141 -94T102 -31T66 50Q29 151 29 254T48 435T94 559T148 640T195 688L214 702L262 660Q250
642 233 599T203 513Z" />
<glyph unicode=")" glyph-name="parenright" horiz-adv-x="285" d="M216 514T236 436T256 272T237 109T191 -17Q135 -118 90 -158L71 -174L20 -135Q29 -122 49 -73T82 22Q114 137 114 271Q114 408 82 514Q52 609 32 644L23 660L71 702Q79 697 91 688T135 641T191 559Z" />
<glyph unicode="*" glyph-name="asterisk" horiz-adv-x="415" d="M251 643V607L342 660L378 616Q370 576 325 550L294 532L386 480L365 427Q351 422 331 422T281 439L251 456V350L195 342Q163 369 163 421V456L71 403L36 447Q44 488 89 514L120 532L28 586L48
638Q61 643 81 643T132 625L163 607V714L219 722Q251 696 251 643Z" />
<glyph unicode="+" glyph-name="plus" horiz-adv-x="507" d="M305 405V318H473L483 256Q453 221 393 221H305V54L235 44Q200 75 200 134V221H34L24 283Q55 318 114 318H200V485L270 495Q305 465 305 405Z" />
<glyph unicode="," glyph-name="comma" horiz-adv-x="244" d="M36 65Q36 141 121 141T206 65Q206 -2 172 -59T90 -151L48 -125Q81 -70 81 -17Q81 -9 80 -2Q61 4 49 22T36 65Z" />
<glyph unicode="-" glyph-name="hyphen" horiz-adv-x="421" d="M286 220H56L46 284Q77 319 136 319H366L376 255Q346 220 286 220Z" />
<glyph unicode="." glyph-name="period" horiz-adv-x="240" d="M37 -10T37 65T120 141T204 66T121 -10Z" />
<glyph unicode="/" glyph-name="slash" horiz-adv-x="413" d="M41 -189Q29 -168 29 -120Q29 -107 37 -89L306 720L372 709Q379 698 381 676T384 640T376 608L107 -200L41 -189Z" />
<glyph unicode="0" glyph-name="zero" horiz-adv-x="576" d="M148 -8T95 71T41 339T101 613T295 698T482 623T536 359T475 81T281 -8ZM191 497T191 352T211 146T288 85Q336 85 359 124Q386 169 386 329T366 547T287 605T209 551Z" />
<glyph unicode="1" glyph-name="one" horiz-adv-x="347" d="M206 693Q233 693 261 690V689L262 690V116Q302 100 317 83L307 0H47L37 83Q55 105 118 121V559Q62 565 28 580V656Q112 693 206 693Z" />
<glyph unicode="2" glyph-name="two" horiz-adv-x="543" d="M275 698Q491 698 491 523Q491 485 472 443T427 369L282 195Q249 157 204 120L188 106L193 95Q239 104 291 104H370Q377 159 395 190L490 184Q512 146 512 63Q512 28 505 0H46L22 124L271 394Q341 470
341 540Q341 576 323 593T259 610T180 597Q171 523 157 500L68 505Q49 538 47 616Q47 633 48 640Q138 698 275 698Z" />
<glyph unicode="3" glyph-name="three" horiz-adv-x="512" d="M40 644Q40 657 41 666Q66 678 125 688T227 698T307 690T377 664T430 609T450 527T423 442T359 382V373Q477 331 477 218T397 48T190 -8Q150 -8 101 3T24 29L47 115Q114 90 174 90Q321 90 321 196Q321
316 204 316Q157 316 115 312L106 396L195 404Q308 415 308 513Q308 564 284 587T212 610Q194 610 176 607Q169 552 151 523L62 528Q40 563 40 644Z" />
<glyph unicode="4" glyph-name="four" horiz-adv-x="557" d="M459 282H533V182H459V113Q498 98 514 79L504 0H250L240 79Q259 102 321 118V182H32L6 261L219 714L321 670L192 366Q172 320 148 292L139 281L144 270Q178 282 230 282H321V425Q321 552 355 606L459 595V282Z" />
<glyph unicode="5" glyph-name="five" horiz-adv-x="499" d="M263 442Q361 442 416 390T472 233Q472 110 400 51T197 -8Q155 -8 105 4T28 32L60 119Q117 97 183 97T282 124T315 211Q315 292 277 318Q247 339 205 339T96 329L56 403H55V690H424V576H180V436Q212
442 263 442Z" />
<glyph unicode="6" glyph-name="six" horiz-adv-x="524" d="M299 426Q398 426 452 373T506 215T438 51T254 -8T87 59T36 273T117 539T334 702L376 619Q230 556 193 401Q240 426 299 426ZM180 273Q180 176 200 131T263 86Q362 86 362 211Q362 270 345 299T286 329Q225
329 180 300V273Z" />
<glyph unicode="7" glyph-name="seven" horiz-adv-x="502" d="M246 590H158Q151 535 133 504L38 510Q16 548 16 628Q16 662 23 690H483L496 611L241 0H90L287 471Q307 517 338 570L349 588L344 599Q298 590 246 590Z" />
<glyph unicode="8" glyph-name="eight" horiz-adv-x="556" d="M67 516Q67 604 123 651T283 698T438 657T489 527Q489 488 467 447T414 377Q468 341 495 305T522 207Q522 107 456 50T271 -8T93 41T34 192Q34 246 62 291T138 366Q102 398 85 431T67 516ZM180 204Q180
93 278 93T376 187Q376 239 338 268Q308 290 275 303T234 320Q180 274 180 204ZM236 608T215 588T193 539T200 494T224 466T252 448T286 433T317 420Q363 466 363 516T341 587T278 608Z" />
<glyph unicode="9" glyph-name="nine" horiz-adv-x="518" d="M237 282Q145 282 81 335T17 489T78 644T250 699T422 624T483 409T401 153T189 -12L143 71Q282 136 325 299Q292 282 237 282ZM339 417Q339 519 315 562T245 605T180 578T161 495T186 409T250 379Q309
379 338 397Q339 404 339 417Z" />
<glyph unicode=":" glyph-name="colon" horiz-adv-x="255" d="M48 70T48 144T127 219T207 145T128 70ZM48 296T48 370T127 445T207 371T128 296Z" />
<glyph unicode=";" glyph-name="semicolon" horiz-adv-x="271" d="M53 115Q53 188 134 188T215 115Q215 52 183 -3T105 -91L64 -66Q96 -16 96 36Q96 44 95 51Q77 57 65 74T53 115ZM54 293T54 367T133 442T213 368T134 293Z" />
<glyph unicode="&lt;" glyph-name="less" horiz-adv-x="390" d="M351 98L307 60Q250 85 159 173T23 339Q67 416 158 504T307 618L351 581Q309 473 190 339Q311 201 351 98Z" />
<glyph unicode="=" glyph-name="equal" horiz-adv-x="563" d="M421 305H62L52 367Q83 402 142 402H501L511 340Q481 305 421 305ZM421 108H62L52 170Q83 205 142 205H501L511 143Q481 108 421 108Z" />
<glyph unicode="&gt;" glyph-name="greater" horiz-adv-x="391" d="M84 60L40 98Q77 196 200 339Q79 478 40 581L84 618Q141 593 232 505T368 339Q324 262 233 174T84 60Z" />
<glyph unicode="?" glyph-name="question" horiz-adv-x="530" d="M167 193Q157 226 157 247T165 291T203 344T266 396T324 448T349 514Q349 589 247 589Q205 589 167 573Q164 521 148 490H53Q40 516 33 556T26 614T26 637Q69 666 131 682T252 698Q363 698 434
648T505 503Q505 462 488 428T445 372T390 328T335 288Q282 252 282 202Q282 198 283 193H167ZM139 -8T139 67T222 143T306 68T223 -8Z" />
<glyph unicode="@" glyph-name="at" horiz-adv-x="937" d="M422 -187Q36 -187 36 181Q36 439 162 568T522 698Q718 698 814 611T911 341Q911 201 842 109T647 16Q594 16 562 35T522 80Q499 62 465 50T407 38Q331 38 295 76T259 195T279 331T332 416Q394 470 459
470T560 439Q575 464 609 464H663L632 144Q632 141 632 139Q632 106 669 106Q806 106 806 319Q806 486 716 556Q633 621 505 621Q310 621 216 494Q182 448 162 374T141 202Q141 42 223 -29T438 -101Q549 -101 643 -68L660 -137Q552 -187 422 -187ZM379 165T393
145T445 124T517 156L537 371Q506 385 471 385Q379 385 379 212Q379 165 393 145Z" />
<glyph unicode="A" glyph-name="A" horiz-adv-x="645" d="M390 695L589 118Q631 103 648 83L638 0H404L394 83Q406 99 442 113L415 197H215L190 116Q225 102 242 83L232 0H4L-6 83Q12 106 61 121L253 695H390ZM307 555Q307 494 282 413L243 289H386L348 411Q325
481 322 538L321 555H307Z" />
<glyph unicode="B" glyph-name="B" horiz-adv-x="617" d="M269 690Q387 690 440 676T517 641Q568 597 568 506Q568 438 495 377Q588 330 588 202Q588 102 523 54T327 0H42L32 83Q45 100 87 116V573Q46 588 32 607L42 690H269ZM320 299H231V109H300Q368 109 403
129T438 201T411 276T320 299ZM283 581H231V408H313Q364 408 391 434T418 497T399 554T355 577T283 581Z" />
<glyph unicode="C" glyph-name="C" horiz-adv-x="570" d="M404 572Q374 585 314 585T217 533T180 351T215 167T321 112Q428 112 513 144L549 55Q443 -8 300 -8T94 73T30 338T108 610T329 698Q443 698 546 635Q546 629 546 612T539 554T519 487H424Q410 514 404 572Z" />
<glyph unicode="D" glyph-name="D" horiz-adv-x="643" d="M297 0H42L32 83Q45 100 87 116V573Q46 588 32 607L42 690H265Q426 690 520 600T615 336T530 81T297 0ZM231 109H303Q378 109 421 154T465 331Q465 581 276 581H231V109Z" />
<glyph unicode="E" glyph-name="E" horiz-adv-x="539" d="M506 0H42L32 83Q45 100 87 116V573Q46 588 32 607L42 690H498V516L424 507Q401 527 387 581H231V409H370Q382 439 395 451L458 444V266L395 258Q382 268 370 300H231V109H395Q408 161 432 183L506 174V0Z" />
<glyph unicode="F" glyph-name="F" horiz-adv-x="523" d="M498 690V516L424 507Q401 527 387 581H231V399H370Q382 429 395 441L458 434V256L395 248Q382 258 370 290H231V124Q298 109 328 83L318 0H42L32 83Q45 100 87 116V573Q46 588 32 607L42 690H498Z" />
<glyph unicode="G" glyph-name="G" horiz-adv-x="620" d="M323 585Q255 585 218 533T180 352Q180 105 316 105Q370 105 412 122V235Q366 250 349 272L359 351H593L603 272Q590 256 556 241V56Q508 21 451 7T307 -8Q164 -8 97 73T30 338T109 610T327 698T554 635Q554
629 554 612T547 554T527 487H435Q420 515 415 570Q372 585 323 585Z" />
<glyph unicode="H" glyph-name="H" horiz-adv-x="682" d="M451 316H231V116Q271 100 286 83L276 0H42L32 83Q45 100 87 116V573Q46 588 32 607L42 690H276L286 607Q270 588 231 573V416H451V573Q410 588 396 607L406 690H640L650 607Q634 588 595 573V116Q635
100 650 83L640 0H406L396 83Q409 100 451 116V316Z" />
<glyph unicode="I" glyph-name="I" horiz-adv-x="318" d="M276 690L286 607Q270 588 231 573V116Q271 100 286 83L276 0H42L32 83Q45 100 87 116V573Q46 588 32 607L42 690H276Z" />
<glyph unicode="J" glyph-name="J" horiz-adv-x="300" d="M12 -100Q48 -100 63 -82T78 -9V573Q37 588 23 607L33 690H267L277 607Q261 588 222 573L221 0Q221 -115 177 -161T33 -208T-138 -156Q-138 -150 -138 -135T-132 -84T-113 -24H-23Q-9 -46 -3 -99Q2 -100 12 -100Z" />
<glyph unicode="K" glyph-name="K" horiz-adv-x="627" d="M625 0H459L237 360L404 582Q376 595 365 609L375 690H603L613 609Q599 593 561 577L388 364L546 126Q611 112 635 83L625 0ZM276 690L286 607Q270 588 231 573V116Q271 100 286 83L276 0H42L32 83Q45
100 87 116V573Q46 588 32 607L42 690H276Z" />
<glyph unicode="L" glyph-name="L" horiz-adv-x="502" d="M500 0H42L32 83Q45 100 87 116V573Q46 588 32 607L42 690H276L286 607Q270 588 231 573V109H389Q402 161 426 183L500 174V0Z" />
<glyph unicode="M" glyph-name="M" horiz-adv-x="907" d="M681 377Q681 417 688 501L690 525L680 526Q657 441 640 391L507 0H374L234 391Q215 436 200 503L194 526L184 525Q193 436 193 377V114Q230 100 248 77L238 0H42L32 77Q50 100 87 114V576Q46 591 30 613L40
690H268L414 287Q442 221 450 166L453 149H467Q471 210 503 287L642 690H866L876 613Q860 591 819 576V118Q858 103 874 83L864 0H636L626 82Q642 102 681 117V377Z" />
<glyph unicode="N" glyph-name="N" horiz-adv-x="676" d="M193 377V114Q230 100 248 77L238 0H42L32 77Q50 100 87 114V576Q46 591 30 613L40 690H246L445 302Q467 260 488 190L495 166L506 170Q492 257 492 316V575Q456 589 437 613L447 690H643L653 613Q634
589 598 575V0H441L240 391Q218 433 197 504L190 527L179 523Q193 436 193 377Z" />
<glyph unicode="O" glyph-name="O" horiz-adv-x="643" d="M171 -8T101 74T30 339T107 610T328 698T542 620T613 359T534 84T313 -8ZM180 481T180 352T218 164T322 105T426 160T463 345Q463 585 319 585Q252 585 216 533Z" />
<glyph unicode="P" glyph-name="P" horiz-adv-x="606" d="M276 240H231V122Q304 106 322 83L312 0H42L32 83Q45 100 87 116V573Q46 588 32 607L42 690H307Q446 688 514 640T583 467Q583 240 276 240ZM291 581H231V349H298Q366 349 399 376T433 469T397 558T291 581Z" />
<glyph unicode="Q" glyph-name="Q" horiz-adv-x="643" d="M135 16T83 99T30 352T107 610T328 698T542 620T613 356Q613 201 554 111T387 -1Q437 -66 554 -85L544 -176Q540 -176 535 -176Q431 -176 346 -131T240 -2Q135 16 83 99ZM180 481T180 352T218 164T322
105T426 160T463 345Q463 585 319 585Q252 585 216 533Z" />
<glyph unicode="R" glyph-name="R" horiz-adv-x="628" d="M573 488Q573 420 531 374T424 304Q474 283 490 253L563 114Q610 98 627 77L617 0H448L333 245Q317 282 296 282H231V122Q304 106 322 83L312 0H42L32 83Q45 100 87 116V573Q46 588 32 607L42 690H297Q437
688 505 645T573 488ZM290 581H231V391H288Q356 391 389 411T423 485T389 559T290 581Z" />
<glyph unicode="S" glyph-name="S" horiz-adv-x="538" d="M340 581Q306 590 269 590T210 572T187 520T204 467T271 434L360 408Q432 387 474 343T517 212Q517 110 444 51T261 -8Q201 -8 138 7T32 51Q32 57 32 74T39 132T59 199H154Q170 168 173 116Q208 101 254
101T331 123T361 186Q361 205 358 217T340 244T295 268L192 298Q35 343 35 498Q35 589 101 643T273 698T482 650Q482 644 482 627T475 569T455 502H360Q343 526 340 581Z" />
<glyph unicode="T" glyph-name="T" horiz-adv-x="576" d="M568 689V546L505 538Q492 548 480 580H360V116Q400 100 415 83L405 0H171L161 83Q174 100 216 116V580H96Q84 548 71 538L8 546V689H568Z" />
<glyph unicode="U" glyph-name="U" horiz-adv-x="634" d="M563 119T504 56T311 -8T125 54T71 250V573Q33 587 16 607L26 690H260L270 607Q254 588 215 573V246Q215 174 238 140T323 105T409 140T434 246V573Q393 588 379 607L389 690H608L618 607Q602 588 563
573V250Q563 119 504 56Z" />
<glyph unicode="V" glyph-name="V" horiz-adv-x="630" d="M246 -5L56 573Q13 589 0 607L10 690H244L254 607Q240 588 203 575L288 279Q309 210 314 152L315 135H329Q330 196 354 277L443 574Q405 587 390 607L400 690H628L638 607Q620 585 571 569L383 -5H246Z" />
<glyph unicode="W" glyph-name="W" horiz-adv-x="979" d="M456 374L372 -5H218L58 573Q17 588 3 607L13 690H244L254 607Q237 587 200 574L271 279Q287 215 296 152L298 135H312Q313 194 331 277L421 683H574L664 279Q680 206 686 152L688 134H702Q704 195 726
277L805 570Q763 585 747 607L757 690H978L988 607Q969 583 921 568L753 -5H596L515 373Q501 441 494 506L492 526H478Q474 457 456 374Z" />
<glyph unicode="X" glyph-name="X" horiz-adv-x="596" d="M317 423Q323 447 353 503L391 575Q356 590 342 607L352 690H580L590 607Q572 585 523 569L393 359L528 118Q572 103 589 83L579 0H345L335 83Q347 97 377 111L331 209Q306 260 298 291L295 302H280Q271
268 244 211L199 115Q235 99 249 83L239 0H11L1 83Q19 105 68 121L204 360L74 571Q27 587 12 607L22 690H256L266 607Q253 591 226 580L266 505Q292 455 302 423H317Z" />
<glyph unicode="Y" glyph-name="Y" horiz-adv-x="588" d="M412 0H178L168 83Q181 100 223 116V231L60 570Q13 586 -4 607L5 685V686L6 690H240L250 607Q238 590 204 577L238 500Q267 434 288 369L295 349H310Q331 422 365 500L397 573Q357 589 343 607L353 690H581L591
607Q571 584 525 569L367 231V116Q407 100 422 83L412 0Z" />
<glyph unicode="Z" glyph-name="Z" horiz-adv-x="570" d="M269 590H176Q169 535 151 504L56 510Q34 548 34 628Q34 662 41 690H528L538 611L248 176Q221 134 192 110L181 102L186 91Q232 100 284 100H406Q413 155 431 186L526 180Q548 142 548 62Q548 28 541 0H25L15
79L305 514Q332 556 362 580L372 588L367 599Q321 590 269 590Z" />
<glyph unicode="[" glyph-name="bracketleft" horiz-adv-x="327" d="M223 634H168V-114H223Q250 -114 273 -123T307 -140L317 -149L307 -200H67V720H307L317 669Q283 634 223 634Z" />
<glyph unicode="\" glyph-name="backslash" horiz-adv-x="446" d="M151 641L418 -168L359 -199Q344 -193 324 -170T296 -121L28 689L88 719Q105 712 124 689T151 641Z" />
<glyph unicode="]" glyph-name="bracketright" horiz-adv-x="327" d="M159 634H104Q77 634 54 642T20 660L10 669L20 720H260V-200H20L10 -149Q44 -114 104 -114H159V634Z" />
<glyph unicode="^" glyph-name="asciicircum" horiz-adv-x="524" d="M262 695Q209 616 138 569L95 604Q108 649 162 730T262 837Q307 811 361 730T429 604L386 569Q315 616 262 695Z" />
<glyph unicode="_" glyph-name="underscore" horiz-adv-x="633" d="M451 -125H103L93 -65Q124 -30 183 -30H531L541 -90Q511 -125 451 -125Z" />
<glyph unicode="`" glyph-name="grave" horiz-adv-x="833" d="M328 600L274 569Q233 595 190 643T133 732L237 796Q266 767 294 706T328 600Z" />
<glyph unicode="a" glyph-name="a" horiz-adv-x="512" d="M46 426Q46 441 47 458Q140 508 247 508T400 468T447 333V120Q482 113 502 103V16Q451 -8 356 -8Q346 18 339 55Q296 -8 183 -8Q116 -8 69 31T21 137T65 242T198 281H307V329Q307 407 224 407Q193 407
173 401Q171 359 161 336H63Q46 371 46 426ZM226 94Q277 94 307 124V206H237Q165 206 165 151Q165 126 180 110T226 94Z" />
<glyph unicode="b" glyph-name="b" horiz-adv-x="537" d="M5 710Q61 723 109 723T190 720V470Q211 485 246 496T313 508Q422 508 466 452T510 261Q510 186 490 132T434 48Q368 -8 278 -8Q210 -8 144 26Q125 0 100 0H50V599Q15 611 -5 633L5 710ZM270 94Q366 94
366 255Q366 340 350 370T292 401Q230 401 190 368V111Q233 94 270 94Z" />
<glyph unicode="c" glyph-name="c" horiz-adv-x="450" d="M261 406Q169 406 169 248Q169 168 194 137T268 105Q344 105 402 119L432 42Q400 21 346 7T241 -8Q25 -8 25 242Q25 388 100 452Q167 508 263 508T423 472Q424 462 424 453Q424 396 398 345H310Q296 370
293 405Q281 406 261 406Z" />
<glyph unicode="d" glyph-name="d" horiz-adv-x="555" d="M286 710Q343 723 395 723T484 720V120Q514 115 539 103V24Q479 -8 387 -8Q377 -3 368 10T357 35Q335 17 300 5T231 -8Q123 -8 75 50T26 242Q26 393 100 454Q165 508 260 508Q302 508 344 498V597Q298
610 276 633L286 710ZM252 94Q309 94 344 128V396Q303 406 257 406T191 366T170 245T190 129T252 94Z" />
<glyph unicode="e" glyph-name="e" horiz-adv-x="483" d="M266 -8Q146 -8 86 56T25 242Q25 316 46 369T103 452Q173 508 266 508T408 461T458 290Q458 218 387 218H170Q174 155 202 129T293 103Q327 103 358 111T403 127L417 135L447 55Q441 48 430 38T372 10T266
-8ZM329 307Q331 321 331 341T315 383T260 406T199 382T171 301L329 307Z" />
<glyph unicode="f" glyph-name="f" horiz-adv-x="382" d="M81 519Q81 623 126 675T269 728T439 675Q440 668 440 655T433 610T414 560H330Q312 594 311 624Q299 626 291 626Q253 626 237 605T221 529V491H374V399H221V116Q296 101 323 77L313 0H36L26 77Q40 96
81 111V399H37L26 468Q48 488 81 491V519Z" />
<glyph unicode="g" glyph-name="g" horiz-adv-x="535" d="M256 -106Q345 -106 345 1V45Q296 15 222 15Q128 15 78 70T27 253Q27 508 261 508Q321 508 373 482Q383 500 403 500H485V8Q485 -102 431 -155T262 -208Q202 -208 138 -194T41 -159Q40 -150 40 -141Q40
-86 66 -35H154Q165 -56 170 -91Q208 -106 256 -106ZM165 184T185 154T255 124T345 152V389Q305 406 258 406Q165 406 165 259Q165 184 185 154Z" />
<glyph unicode="h" glyph-name="h" horiz-adv-x="583" d="M24 710Q80 723 128 723T209 720V470Q233 486 273 497T344 508Q443 508 481 460T519 314V111Q558 96 574 77L564 0H334L324 77Q338 96 379 111V309Q379 363 362 381T298 400T209 368V111Q248 96 264 77L254
0H24L14 77Q28 96 69 111V599Q34 611 14 633L24 710Z" />
<glyph unicode="i" glyph-name="i" horiz-adv-x="292" d="M38 500Q94 513 142 513T223 510V111Q262 96 278 77L268 0H38L28 77Q42 96 83 111V389Q48 401 28 423L38 500ZM68 569T68 644T151 720T235 645T152 569Z" />
<glyph unicode="j" glyph-name="j" horiz-adv-x="260" d="M25 500Q81 513 129 513T210 510V0Q210 -116 167 -162T21 -208Q-9 -208 -36 -203L-24 -105Q-17 -106 11 -106T54 -85T70 -9V389Q35 401 15 423L25 500ZM55 569T55 644T138 720T222 645T139 569Z" />
<glyph unicode="k" glyph-name="k" horiz-adv-x="567" d="M24 710Q80 723 128 723T209 720V111Q248 96 264 77L254 0H24L14 77Q28 96 69 111V599Q34 611 14 633L24 710ZM395 0L218 259L328 402Q311 412 304 423L314 500H534L544 423Q522 395 461 379L365 269L478
120Q540 106 565 77L555 0H395Z" />
<glyph unicode="l" glyph-name="l" horiz-adv-x="279" d="M24 710Q80 723 128 723T209 720V111Q248 96 264 77L254 0H24L14 77Q28 96 69 111V599Q34 611 14 633L24 710Z" />
<glyph unicode="m" glyph-name="m" horiz-adv-x="876" d="M36 500Q91 512 135 512T208 510V460Q232 480 268 494T333 508Q447 508 485 451Q510 475 551 491T627 508Q737 508 775 459T813 273V111Q852 96 868 77L858 0H628L618 77Q632 96 673 111V309Q673 364 658
382T599 400T514 367Q519 333 519 273V111Q558 96 574 77L564 0H334L324 77Q338 96 379 111V309Q379 364 364 382T305 400T221 368V111Q260 96 276 77L266 0H36L26 77Q40 96 81 111V389Q46 401 26 423L36 500Z" />
<glyph unicode="n" glyph-name="n" horiz-adv-x="595" d="M36 500Q91 512 135 512T208 510V460Q233 481 274 494T354 508Q452 508 491 462T531 303V111Q570 96 586 77L576 0H346L336 77Q350 96 391 111V309Q391 363 374 381T311 400T221 368V111Q260 96 276 77L266
0H36L26 77Q40 96 81 111V389Q46 401 26 423L36 500Z" />
<glyph unicode="o" glyph-name="o" horiz-adv-x="530" d="M139 -8T82 55T25 245T88 440T271 508T447 448T505 261T441 63T258 -8ZM169 254Q169 94 265 94Q314 94 337 130T361 250Q361 406 263 406Q215 406 192 372T169 254Z" />
<glyph unicode="p" glyph-name="p" horiz-adv-x="556" d="M25 500Q80 512 124 512T197 510V461Q264 508 340 508Q440 508 485 451T530 261Q530 190 509 136T452 52Q383 -8 288 -8Q247 -8 210 0V-86Q269 -102 286 -123L276 -200H25L15 -123Q28 -105 70 -89V389Q35
401 15 423L25 500ZM278 94Q328 94 357 138T386 261T370 369T312 398Q248 398 210 368V102Q241 94 278 94Z" />
<glyph unicode="q" glyph-name="q" horiz-adv-x="534" d="M484 500V-94Q513 -107 526 -123L516 -200H284L274 -123Q293 -99 344 -84V29Q288 -8 235 -8Q124 -8 75 50T26 242Q26 393 100 454Q165 508 260 508Q315 508 366 485Q388 500 408 500H484ZM170 164T190
129T257 94T344 132V389Q304 406 258 406T191 366T170 245Z" />
<glyph unicode="r" glyph-name="r" horiz-adv-x="388" d="M326 377Q250 377 221 348V119Q302 104 332 77L322 0H36L26 77Q40 96 81 111V389Q46 401 26 423L36 500Q91 512 135 512T208 510V447Q231 474 267 491T332 509T373 504L370 374Q350 377 326 377Z" />
<glyph unicode="s" glyph-name="s" horiz-adv-x="451" d="M226 418Q160 418 160 379Q160 342 229 324L308 303Q430 271 430 162Q430 87 378 40T211 -8T32 24Q31 35 31 46Q31 101 53 145H136Q149 121 153 95Q173 89 210 89Q298 89 298 139Q298 155 286 165T239
186L160 209Q99 226 65 259T31 358T84 466T235 508T402 479Q403 469 403 459Q403 407 381 363H299Q286 386 282 411Q254 418 226 418Z" />
<glyph unicode="t" glyph-name="t" horiz-adv-x="372" d="M208 626V500H351V416H208V163Q208 131 217 117T260 102T333 117L363 39Q286 0 206 0T97 34T68 135V416H23L12 477Q28 496 78 515Q90 597 135 626H208Z" />
<glyph unicode="u" glyph-name="u" horiz-adv-x="588" d="M395 42Q326 -8 233 -8T102 31T65 158V389Q30 401 10 423L20 500Q76 513 124 513T205 510V191Q205 137 221 120T287 102T378 134V389Q343 401 323 423L333 500Q389 513 437 513T518 510V120Q553 113 573
103V24Q513 -8 422 -8Q397 10 395 42Z" />
<glyph unicode="v" glyph-name="v" horiz-adv-x="586" d="M348 -6H238L74 384Q24 400 7 423L17 500H247L257 423Q244 407 214 394L268 243Q286 196 294 150L296 136H310Q318 186 338 241L391 389Q354 403 339 423L349 500H569L579 423Q561 400 513 384L348 -6Z" />
<glyph unicode="w" glyph-name="w" horiz-adv-x="814" d="M498 -6L447 152Q431 200 422 272L419 296H405Q395 218 375 153L328 -6H186L60 387Q17 402 1 423L11 500H245L255 423Q237 402 194 387L252 132H266Q277 185 292 241L360 498H472L539 243L564 132H578Q615
301 628 359L634 387Q589 403 574 423L584 500H806L816 423Q799 400 753 385L628 -6H498Z" />
<glyph unicode="x" glyph-name="x" horiz-adv-x="554" d="M294 304Q301 331 323 366L341 394Q312 407 300 423L310 500H530L540 423Q520 396 459 380L371 257L465 118Q520 103 541 77L531 0H301L291 77Q301 90 328 103L303 144Q286 172 277 203L274 213H260Q251
178 231 146L207 108Q241 93 253 77L243 0H23L13 77Q32 102 88 118L183 257L95 380Q35 396 14 423L24 500H254L264 423Q250 407 230 398L251 368Q271 338 280 304H294Z" />
<glyph unicode="y" glyph-name="y" horiz-adv-x="568" d="M161 -116Q179 -116 199 -83T228 -3L64 385Q15 401 -2 423L8 500H238L248 423Q235 407 204 394L259 243Q277 196 284 150L287 136H301Q309 186 329 241L382 389Q345 403 330 423L340 500H560L570 423Q552
400 504 384L339 -6Q292 -117 267 -149Q223 -208 145 -208T25 -167Q24 -157 24 -147Q24 -92 47 -43H130Q145 -70 147 -116H161Z" />
<glyph unicode="z" glyph-name="z" horiz-adv-x="479" d="M42 358Q31 408 31 444T32 500H437L447 416L252 167Q225 131 193 105L198 94Q227 103 279 103H334Q349 139 367 156L444 146Q455 96 455 58T454 0H31L21 82L217 334Q244 370 276 396L271 407Q242 398 190
398H151Q136 364 119 348L42 358Z" />
<glyph unicode="{" glyph-name="braceleft" horiz-adv-x="430" d="M2 211V308Q76 308 118 334T160 414Q160 438 151 492T142 572Q142 647 183 687T283 728Q370 728 414 700L404 620Q375 608 325 608Q287 608 287 532Q287 505 294 464T301 402Q301 342 268 307T189
264V256Q234 249 267 213T301 117Q301 97 294 56T287 -13Q287 -89 325 -89Q375 -89 404 -101L414 -181Q370 -209 283 -209Q224 -209 183 -169T142 -53Q142 -28 151 26T160 105Q160 158 118 184T2 211Z" />
<glyph unicode="|" glyph-name="bar" horiz-adv-x="231" d="M166 626V-190L100 -200Q65 -165 65 -106V710L131 720Q166 686 166 626Z" />
<glyph unicode="}" glyph-name="braceright" horiz-adv-x="430" d="M428 308V211Q354 211 312 185T270 105Q270 81 279 27T288 -53Q288 -128 247 -168T147 -209Q60 -209 16 -181L26 -101Q55 -89 105 -89Q143 -89 143 -13Q143 14 136 55T129 117Q129 177 162 213T241
256V264Q196 271 163 306T129 402Q129 422 136 463T143 532Q143 608 105 608Q55 608 26 620L16 700Q60 728 147 728Q206 728 247 688T288 572Q288 547 279 493T270 414Q270 361 312 335T428 308Z" />
<glyph unicode="~" glyph-name="asciitilde" horiz-adv-x="602" d="M105 338T132 346T194 354T288 332T386 309T458 318T509 338L526 348L573 281Q565 272 550 259T487 224T396 202T291 224T198 247Q138 247 90 222L74 213L30 279Q36 288 54 303T88 328Z" />
<glyph unicode="&#xa0;" glyph-name="uni00A0" horiz-adv-x="225" />
<glyph unicode="&#xa1;" glyph-name="exclamdown" horiz-adv-x="278" d="M61 168Q61 355 94 488H184Q216 358 216 180Q216 96 209 0H67Q61 89 61 168ZM218 700T218 626T139 552T59 626T138 700Z" />
<glyph unicode="&#xa2;" glyph-name="cent" horiz-adv-x="459" d="M320 -160Q320 -168 320 -177H200Q199 -164 199 -152Q199 -81 223 -7Q116 -3 71 54T26 239T77 428T211 504Q186 584 186 657Q186 668 187 678H307Q307 670 307 661Q307 584 283 507Q365 504 424
472Q425 462 425 453Q425 396 399 345H311Q297 370 294 405Q282 406 262 406Q211 406 191 366T170 246T195 133T268 99Q339 99 401 119L433 42Q381 9 296 -4Q320 -82 320 -160Z" />
<glyph unicode="&#xa3;" glyph-name="sterling" horiz-adv-x="538" d="M277 327H235V109H393Q406 161 430 183L504 174V0H46L36 83Q49 100 91 116V327H47L37 391Q56 412 91 421V462Q91 608 166 656Q203 680 240 689T327 698Q425 698 489 662Q490 652 490 643Q490
586 464 535H376Q362 560 359 595Q347 596 327 596Q276 596 256 568T235 468V426H357L367 362Q337 327 277 327Z" />
<glyph unicode="&#xa4;" glyph-name="currency" horiz-adv-x="630" d="M107 200Q79 255 79 340T110 481L38 553L73 603Q76 603 79 603Q119 603 155 567L174 548Q232 583 318 583T457 554L527 624L578 589Q578 586 578 583Q578 543 542 507L524 489Q554 435 554
348T521 203L594 131L559 80Q558 80 557 80Q515 80 477 117L458 135Q400 99 313 99T171 132L103 64L52 99Q50 143 88 181L107 200ZM174 345Q174 259 214 220T316 181Q460 181 460 341T315 502Q174 502 174 345Z" />
<glyph unicode="&#xa5;" glyph-name="yen" horiz-adv-x="623" d="M451 155H385V116Q425 100 440 83L430 0H196L186 83Q199 100 241 116V155H95L85 207Q116 242 175 242H241V290H95L85 342Q116 377 175 377H195L95 568Q44 583 25 607L35 690H188L264 528Q299 449
309 412L313 397H328Q338 452 376 528L452 690H588L598 607Q580 583 526 567L429 377H531L541 325Q511 290 451 290H385V242H531L541 190Q511 155 451 155Z" />
<glyph unicode="&#xa6;" glyph-name="brokenbar" horiz-adv-x="231" d="M65 -106V157H166V-190L100 -200Q65 -165 65 -106ZM166 626V380H65V710L131 720Q166 686 166 626Z" />
<glyph unicode="&#xa7;" glyph-name="section" horiz-adv-x="486" d="M240 614Q174 614 174 577Q174 543 243 526L322 506Q444 476 444 374Q444 300 388 257Q445 222 445 152T393 37T225 -8T47 22Q46 32 46 42Q46 94 68 135H151Q165 108 168 88Q189 83 225 83Q313
83 313 130Q313 145 301 155T254 174L175 195Q114 211 80 242T46 339T109 442Q45 481 45 550T98 659T250 698T416 671Q417 661 417 652Q417 603 395 562H313Q300 583 296 607Q268 614 240 614ZM312 352Q312 365 284 376Q257 387 201 406Q175 387 175 354Q175 342
184 336T199 327T216 319T235 312Q267 302 279 298Q312 318 312 352Z" />
<glyph unicode="&#xa8;" glyph-name="dieresis" horiz-adv-x="548" d="M79 699Q79 775 160 775T242 700T160 624Q120 624 100 641T79 699ZM319 699Q319 775 400 775T482 700T400 624Q360 624 340 641T319 699Z" />
<glyph unicode="&#xa9;" glyph-name="copyright" horiz-adv-x="766" d="M532 499Q532 454 514 418H442Q430 435 428 465Q411 473 387 473Q314 473 314 348Q314 278 332 249T387 220Q450 220 509 240L534 185Q466 146 376 146T245 191T204 340T253 493T383 542T532
505Q532 502 532 499ZM37 345Q37 522 127 610T389 698T645 614T729 354T638 85T375 -8Q37 -8 37 345ZM141 208T208 144T382 80Q625 80 625 345T381 610Q277 610 212 558Q141 502 141 355Z" />
<glyph unicode="&#xaa;" glyph-name="ordfeminine" horiz-adv-x="421" d="M50 646Q50 655 51 664Q79 680 124 691T210 702Q283 702 317 675T351 579V412Q379 406 392 400V339Q349 315 278 315Q263 320 251 338Q209 315 153 315T64 341T31 420Q31 486 76 509T228
532Q237 532 246 532V566Q246 600 234 613T193 626T145 620Q142 591 132 573H66Q50 604 50 646ZM140 427Q140 392 176 392T246 409V463Q177 463 159 457T140 427Z" />
<glyph unicode="&#xab;" glyph-name="guillemotleft" horiz-adv-x="538" d="M457 457L504 422Q495 390 467 341T403 247Q482 149 504 73L457 38Q416 55 352 121T254 247Q288 306 352 372T457 457ZM227 457L274 422Q265 390 237 341T173 247Q252 149 274 73L227
38Q186 55 122 121T24 247Q58 306 122 372T227 457Z" />
<glyph unicode="&#xac;" glyph-name="logicalnot" horiz-adv-x="635" d="M468 401H113Q86 401 64 409T32 427L23 436L33 500H567V233Q567 207 559 185T541 152L532 143L468 153V401Z" />
<glyph unicode="&#xad;" glyph-name="uni00AD" horiz-adv-x="421" d="M286 220H56L46 284Q77 319 136 319H366L376 255Q346 220 286 220Z" />
<glyph unicode="&#xae;" glyph-name="registered" horiz-adv-x="766" d="M371 537Q452 537 492 513T533 427T459 332V327Q481 316 491 298L527 230Q549 225 564 210L559 164H453L387 296Q378 313 369 313H344V234Q380 227 394 211L389 164H220L214 212Q224 222
245 230V470Q222 480 214 489L220 537H371ZM367 472H344V379H366Q399 379 415 389T431 423Q431 472 367 472ZM37 345Q37 522 127 610T389 698T645 614T729 354T638 85T375 -8Q37 -8 37 345ZM141 208T208 144T382 80Q625 80 625 345T381 610Q277 610 212 558Q141
502 141 355Z" />
<glyph unicode="&#xaf;" glyph-name="overscore" horiz-adv-x="420" d="M292 585H50L40 645Q71 680 130 680H372L382 620Q352 585 292 585Z" />
<glyph unicode="&#xb0;" glyph-name="degree" horiz-adv-x="375" d="M30 560Q30 705 186 705Q259 705 302 670T345 561T302 452T187 417T72 451T30 560ZM260 637T187 637T114 562T187 487T260 562Z" />
<glyph unicode="&#xb1;" glyph-name="plusminus" horiz-adv-x="531" d="M316 425V374H484L494 312Q464 277 404 277H316V148L246 138Q211 169 211 228V277H45L35 339Q66 374 125 374H211V505L281 515Q316 485 316 425ZM404 0H45L35 62Q66 97 125 97H484L494 35Q464
0 404 0Z" />
<glyph unicode="&#xb2;" glyph-name="twosuperior" horiz-adv-x="402" d="M236 601Q236 628 197 628T142 622Q138 591 123 572L66 576Q47 607 47 652Q47 660 48 668Q74 684 121 694T208 705Q351 705 351 604Q351 560 300 516L205 432Q189 418 163 407L166 401Q196
407 221 407H267Q278 438 287 451L351 446Q362 408 362 379T357 327H54L34 408L195 549Q200 554 210 563T226 578Q236 588 236 601Z" />
<glyph unicode="&#xb3;" glyph-name="threesuperior" horiz-adv-x="379" d="M223 593Q223 631 177 631L139 626Q137 603 126 582L65 583Q42 627 42 667Q42 675 43 683Q106 705 191 705Q332 705 332 613Q332 588 318 566T279 532V527Q308 520 328 497T348 434Q348
375 298 345T165 315T34 340L56 408Q107 394 157 394Q239 394 239 440Q239 483 163 483L88 480L80 542L150 547Q181 549 202 560T223 593Z" />
<glyph unicode="&#xb4;" glyph-name="acute" horiz-adv-x="485" d="M238 569L184 600Q190 644 218 705T275 796L379 732Q365 692 322 644T238 569Z" />
<glyph unicode="&#xb5;" glyph-name="mu" horiz-adv-x="615" d="M88 -179Q88 -64 111 42Q79 85 79 198V389Q44 401 24 423L34 500Q90 513 138 513T219 510V185Q219 131 236 113T293 94Q353 94 396 132V389Q361 401 341 423L351 500Q407 513 455 513T536 510V122Q571
115 591 105V24Q531 -8 439 -8Q414 10 412 42Q389 22 348 7T270 -8T205 -4Q221 -103 221 -145T220 -200Q194 -214 151 -214T88 -200Q88 -190 88 -179Z" />
<glyph unicode="&#xb6;" glyph-name="paragraph" horiz-adv-x="579" d="M184 -101Q221 -114 270 -114T339 -86T359 -7V690H544L554 607Q538 588 499 573V7Q499 -110 435 -159T270 -208Q210 -208 149 -195T55 -161Q55 -154 55 -147Q55 -97 80 -45H168Q179 -66 184
-101ZM267 690H308V271H241Q134 271 81 318T27 477Q27 607 96 651Q131 673 171 681T267 690Z" />
<glyph unicode="&#xb7;" glyph-name="middot" horiz-adv-x="248" d="M41 200T41 275T124 351T208 276T125 200Z" />
<glyph unicode="&#xb8;" glyph-name="cedilla" horiz-adv-x="225" d="M46 -54Q46 -22 63 7H142Q130 -14 130 -35Q195 -42 195 -111Q195 -206 46 -217L30 -163Q63 -151 76 -141T89 -112T77 -83T47 -72Q46 -63 46 -54Z" />
<glyph unicode="&#xb9;" glyph-name="onesuperior" horiz-adv-x="252" d="M158 701Q172 701 187 700V412Q210 402 217 389L212 327H49L41 389Q55 405 82 416V603Q55 608 42 615V678Q98 701 158 701Z" />
<glyph unicode="&#xba;" glyph-name="ordmasculine" horiz-adv-x="422" d="M117 315T74 362T31 505T79 651T216 702T349 657T392 516T344 368T206 315ZM140 511Q140 391 212 391T284 508T210 625Q174 625 157 599T140 511Z" />
<glyph unicode="&#xbb;" glyph-name="guillemotright" horiz-adv-x="538" d="M34 422L81 457Q122 439 186 373T284 247Q250 188 186 122T81 38L34 73Q56 149 135 247Q100 291 72 340T34 422ZM264 422L311 457Q352 439 416 373T514 247Q480 188 416 122T311 38L264
73Q286 149 365 247Q330 291 302 340T264 422Z" />
<glyph unicode="&#xbc;" glyph-name="onequarter" horiz-adv-x="718" d="M130 -1Q125 14 125 38T144 98L474 720L537 698Q542 682 542 658T523 598L193 -23L130 -1ZM500 173H553V226Q553 284 586 333L662 326V173H690V99H662V84Q682 76 692 62L684 0H519L510 60Q524
78 553 84V99H351L332 146L402 282Q435 346 486 374L538 340L477 210Q469 190 451 172L454 166Q476 173 500 173ZM27 678Q81 702 161 702Q177 702 191 700V416Q218 405 232 389L224 327H53L45 389Q59 405 86 416V603Q52 607 27 615V678Z" />
<glyph unicode="&#xbd;" glyph-name="onehalf" horiz-adv-x="765" d="M520 295Q516 264 501 245L444 249Q425 280 425 325Q425 333 426 341Q452 357 499 367T586 378Q729 378 729 277Q729 233 678 189L583 105Q567 91 541 80L544 74L599 80H645Q656 111 665 124L729
119Q740 81 740 52T735 0H432L412 81L573 222Q578 227 596 242Q614 258 614 274Q614 301 575 301T520 295ZM131 -1Q126 14 126 38T145 98L475 720L538 698Q543 682 543 658T524 598L194 -23L131 -1ZM26 678Q80 702 160 702Q176 702 190 700V416Q217 405 231 389L223
327H52L44 389Q58 405 85 416V603Q51 607 26 615V678Z" />
<glyph unicode="&#xbe;" glyph-name="threequarters" horiz-adv-x="786" d="M202 -1Q197 14 197 38T216 98L546 720L609 698Q614 682 614 658T595 598L265 -23L202 -1ZM568 173H621V226Q621 284 654 333L730 326V173H758V99H730V84Q750 76 760 62L752 0H587L578
60Q592 78 621 84V99H419L400 146L470 282Q503 346 554 374L606 340L545 210Q537 190 519 172L522 166Q544 173 568 173ZM155 483Q134 483 80 480L72 542L142 547Q173 549 194 560T215 593Q215 631 169 631Q149 631 131 626Q129 603 118 582L57 583Q34 627 34 667Q34
675 35 683Q98 705 183 705Q324 705 324 613Q324 588 310 566T271 532V527Q300 520 320 497T340 434V433Q340 396 321 371T269 334Q214 315 158 315Q73 315 26 340L48 408Q99 394 149 394Q231 394 231 440Q231 483 155 483Z" />
<glyph unicode="&#xbf;" glyph-name="questiondown" horiz-adv-x="530" d="M363 497Q373 464 373 443T365 399T327 346T264 294T206 242T181 176Q181 101 283 101Q325 101 363 117Q366 169 382 200H477Q490 174 497 134T504 76T504 53Q461 24 399 8T278 -8Q167
-8 96 42T25 187Q25 228 42 262T85 318T140 362T195 402Q248 438 248 488Q248 492 247 497H363ZM391 698T391 623T308 547T224 622T307 698Z" />
<glyph unicode="&#xc0;" glyph-name="Agrave" horiz-adv-x="645" d="M379 787L325 756Q283 782 244 825T191 908L295 972Q324 943 348 887T379 787ZM390 695L589 118Q631 103 648 83L638 0H404L394 83Q406 99 442 113L415 197H215L190 116Q225 102 242 83L232
0H4L-6 83Q12 106 61 121L253 695H390ZM307 555Q307 494 282 413L243 289H386L348 411Q325 481 322 538L321 555H307Z" />
<glyph unicode="&#xc1;" glyph-name="Aacute" horiz-adv-x="645" d="M263 787Q269 831 293 887T347 972L451 908Q437 869 398 826T317 756Q263 785 263 787ZM390 695L589 118Q631 103 648 83L638 0H404L394 83Q406 99 442 113L415 197H215L190 116Q225 102 242
83L232 0H4L-6 83Q12 106 61 121L253 695H390ZM307 555Q307 494 282 413L243 289H386L348 411Q325 481 322 538L321 555H307Z" />
<glyph unicode="&#xc2;" glyph-name="Acircumflex" horiz-adv-x="645" d="M486 797L450 756Q404 769 326 836Q248 769 202 756L166 797Q179 832 230 886T326 971Q371 941 422 887T486 797ZM390 695L589 118Q631 103 648 83L638 0H404L394 83Q406 99 442 113L415
197H215L190 116Q225 102 242 83L232 0H4L-6 83Q12 106 61 121L253 695H390ZM307 555Q307 494 282 413L243 289H386L348 411Q325 481 322 538L321 555H307Z" />
<glyph unicode="&#xc3;" glyph-name="Atilde" horiz-adv-x="645" d="M139 865T170 883T235 901T314 887T390 873Q446 873 482 894L494 901L534 838Q530 832 513 817T480 793Q438 769 401 769T317 783T244 797Q197 797 164 777L153 770L115 836Q120 843 129 854ZM390
695L589 118Q631 103 648 83L638 0H404L394 83Q406 99 442 113L415 197H215L190 116Q225 102 242 83L232 0H4L-6 83Q12 106 61 121L253 695H390ZM307 555Q307 494 282 413L243 289H386L348 411Q325 481 322 538L321 555H307Z" />
<glyph unicode="&#xc4;" glyph-name="Adieresis" horiz-adv-x="645" d="M126 818Q126 894 207 894T289 819T207 743Q167 743 147 760T126 818ZM366 818Q366 894 447 894T529 819T447 743Q407 743 387 760T366 818ZM390 695L589 118Q631 103 648 83L638 0H404L394
83Q406 99 442 113L415 197H215L190 116Q225 102 242 83L232 0H4L-6 83Q12 106 61 121L253 695H390ZM307 555Q307 494 282 413L243 289H386L348 411Q325 481 322 538L321 555H307Z" />
<glyph unicode="&#xc5;" glyph-name="Aring" horiz-adv-x="645" d="M262 736T231 760T199 843T231 926T321 951Q446 951 446 842Q446 736 321 736Q262 736 231 760ZM264 843Q264 792 322 792T381 843Q381 896 323 896T264 843ZM390 695L589 118Q631 103 648 83L638
0H404L394 83Q406 99 442 113L415 197H215L190 116Q225 102 242 83L232 0H4L-6 83Q12 106 61 121L253 695H390ZM307 555Q307 494 282 413L243 289H386L348 411Q325 481 322 538L321 555H307Z" />
<glyph unicode="&#xc6;" glyph-name="AE" horiz-adv-x="906" d="M865 690V516L791 507Q768 527 754 581H598V405H737Q746 433 762 447L825 440V264L762 256Q747 268 737 298H598V109H762Q775 161 799 183L873 174V0H409L399 83Q412 100 454 116V220H248L185 112Q217
98 230 83L220 0H-8L-18 83Q-2 103 43 119L398 690H865ZM454 319V584H445Q427 525 384 452L306 319H454Z" />
<glyph unicode="&#xc7;" glyph-name="Ccedilla" horiz-adv-x="570" d="M261 -72Q260 -64 260 -48T269 -7Q144 0 87 81T30 342T108 610T329 698Q443 698 546 635Q546 629 546 612T539 554T519 487H424Q410 514 404 572Q374 585 314 585T217 533T180 351T215 167T321
112Q428 112 513 144L549 55Q462 3 350 -5Q344 -20 344 -35Q409 -42 409 -111Q409 -206 260 -217L244 -163Q277 -151 290 -141T303 -112T291 -83T261 -72Z" />
<glyph unicode="&#xc8;" glyph-name="Egrave" horiz-adv-x="539" d="M340 787L286 756Q244 782 205 825T152 908L256 972Q285 943 309 887T340 787ZM506 0H42L32 83Q45 100 87 116V573Q46 588 32 607L42 690H498V516L424 507Q401 527 387 581H231V409H370Q382
439 395 451L458 444V266L395 258Q382 268 370 300H231V109H395Q408 161 432 183L506 174V0Z" />
<glyph unicode="&#xc9;" glyph-name="Eacute" horiz-adv-x="539" d="M266 756L212 787Q218 831 242 887T296 972L400 908Q386 869 347 826T266 756ZM506 0H42L32 83Q45 100 87 116V573Q46 588 32 607L42 690H498V516L424 507Q401 527 387 581H231V409H370Q382
439 395 451L458 444V266L395 258Q382 268 370 300H231V109H395Q408 161 432 183L506 174V0Z" />
<glyph unicode="&#xca;" glyph-name="Ecircumflex" horiz-adv-x="539" d="M440 797L404 756Q358 769 280 836Q202 769 156 756L120 797Q133 832 184 886T280 971Q325 941 376 887T440 797ZM506 0H42L32 83Q45 100 87 116V573Q46 588 32 607L42 690H498V516L424
507Q401 527 387 581H231V409H370Q382 439 395 451L458 444V266L395 258Q382 268 370 300H231V109H395Q408 161 432 183L506 174V0Z" />
<glyph unicode="&#xcb;" glyph-name="Edieresis" horiz-adv-x="539" d="M74 818Q74 894 155 894T237 819T155 743Q115 743 95 760T74 818ZM314 818Q314 894 395 894T477 819T395 743Q355 743 335 760T314 818ZM506 0H42L32 83Q45 100 87 116V573Q46 588 32 607L42
690H498V516L424 507Q401 527 387 581H231V409H370Q382 439 395 451L458 444V266L395 258Q382 268 370 300H231V109H395Q408 161 432 183L506 174V0Z" />
<glyph unicode="&#xcc;" glyph-name="Igrave" horiz-adv-x="318" d="M235 787L181 756Q139 782 100 825T47 908L151 972Q180 943 204 887T235 787ZM276 690L286 607Q270 588 231 573V116Q271 100 286 83L276 0H42L32 83Q45 100 87 116V573Q46 588 32 607L42 690H276Z" />
<glyph unicode="&#xcd;" glyph-name="Iacute" horiz-adv-x="318" d="M158 756L104 787Q110 831 134 887T188 972L292 908Q278 869 239 826T158 756ZM276 690L286 607Q270 588 231 573V116Q271 100 286 83L276 0H42L32 83Q45 100 87 116V573Q46 588 32 607L42 690H276Z" />
<glyph unicode="&#xce;" glyph-name="Icircumflex" horiz-adv-x="318" d="M321 797L285 756Q239 769 161 836Q83 769 37 756L1 797Q14 832 65 886T161 971Q206 941 257 887T321 797ZM276 690L286 607Q270 588 231 573V116Q271 100 286 83L276 0H42L32 83Q45 100
87 116V573Q46 588 32 607L42 690H276Z" />
<glyph unicode="&#xcf;" glyph-name="Idieresis" horiz-adv-x="318" d="M-27 818Q-27 894 54 894T136 819T54 743Q14 743 -6 760T-27 818ZM193 818Q193 894 274 894T356 819T274 743Q234 743 214 760T193 818ZM276 690L286 607Q270 588 231 573V116Q271 100 286
83L276 0H42L32 83Q45 100 87 116V573Q46 588 32 607L42 690H276Z" />
<glyph unicode="&#xd0;" glyph-name="Eth" horiz-adv-x="659" d="M313 0H58L48 83Q61 100 103 116V316H23L13 380Q44 415 103 415V573Q62 588 48 607L58 690H281Q442 690 536 600T631 336T546 81T313 0ZM247 109H319Q394 109 437 154T481 331Q481 581 292 581H247V415H397L407
351Q377 316 317 316H247V109Z" />
<glyph unicode="&#xd1;" glyph-name="Ntilde" horiz-adv-x="676" d="M155 865T186 883T251 901T330 887T406 873Q462 873 498 894L510 901L550 838Q546 832 529 817T496 793Q454 769 417 769T333 783T260 797Q213 797 180 777L169 770L131 836Q136 843 145 854ZM193
377V114Q230 100 248 77L238 0H42L32 77Q50 100 87 114V576Q46 591 30 613L40 690H246L445 302Q467 260 488 190L495 166L506 170Q492 257 492 316V575Q456 589 437 613L447 690H643L653 613Q634 589 598 575V0H441L240 391Q218 433 197 504L190 527L179 523Q193
436 193 377Z" />
<glyph unicode="&#xd2;" glyph-name="Ograve" horiz-adv-x="643" d="M390 787L336 756Q294 782 255 825T202 908L306 972Q335 943 359 887T390 787ZM171 -8T101 74T30 339T107 610T328 698T542 620T613 359T534 84T313 -8ZM180 481T180 352T218 164T322 105T426
160T463 345Q463 585 319 585Q252 585 216 533Z" />
<glyph unicode="&#xd3;" glyph-name="Oacute" horiz-adv-x="643" d="M300 756L246 787Q252 831 276 887T330 972L434 908Q420 869 381 826T300 756ZM171 -8T101 74T30 339T107 610T328 698T542 620T613 359T534 84T313 -8ZM180 481T180 352T218 164T322 105T426
160T463 345Q463 585 319 585Q252 585 216 533Z" />
<glyph unicode="&#xd4;" glyph-name="Ocircumflex" horiz-adv-x="643" d="M482 797L446 756Q400 769 322 836Q244 769 198 756L162 797Q175 832 226 886T322 971Q367 941 418 887T482 797ZM171 -8T101 74T30 339T107 610T328 698T542 620T613 359T534 84T313 -8ZM180
481T180 352T218 164T322 105T426 160T463 345Q463 585 319 585Q252 585 216 533Z" />
<glyph unicode="&#xd5;" glyph-name="Otilde" horiz-adv-x="643" d="M138 865T169 883T234 901T313 887T388 873Q445 873 481 894L493 901L533 838Q529 832 512 817T478 793Q437 769 400 769T316 783T243 797Q196 797 164 777L152 770L114 836Q119 843 128 854ZM171
-8T101 74T30 339T107 610T328 698T542 620T613 359T534 84T313 -8ZM180 481T180 352T218 164T322 105T426 160T463 345Q463 585 319 585Q252 585 216 533Z" />
<glyph unicode="&#xd6;" glyph-name="Odieresis" horiz-adv-x="643" d="M128 818Q128 894 209 894T291 819T209 743Q169 743 149 760T128 818ZM368 818Q368 894 449 894T531 819T449 743Q409 743 389 760T368 818ZM171 -8T101 74T30 339T107 610T328 698T542 620T613
359T534 84T313 -8ZM180 481T180 352T218 164T322 105T426 160T463 345Q463 585 319 585Q252 585 216 533Z" />
<glyph unicode="&#xd7;" glyph-name="multiply" horiz-adv-x="543" d="M477 55Q432 55 393 94L271 215L96 39L42 76Q40 123 81 164L201 285L26 460L63 514Q66 514 69 514Q112 514 151 475L271 355L447 531L501 494Q501 491 501 488Q501 445 462 406L341 285L518
109L481 55Q479 55 477 55Z" />
<glyph unicode="&#xd8;" glyph-name="Oslash" horiz-adv-x="663" d="M54 343Q54 698 337 698Q487 698 548 616L631 696L666 672Q666 623 623 581L584 544Q609 467 609 356Q609 174 536 83T319 -8T111 83L32 6L-4 30Q-3 80 39 121L76 157Q54 229 54 343ZM459 345Q459
385 456 418L223 192Q252 105 331 105Q397 105 428 159T459 345ZM204 352Q204 325 206 283L437 508Q408 585 329 585Q264 585 234 535T204 352Z" />
<glyph unicode="&#xd9;" glyph-name="Ugrave" horiz-adv-x="634" d="M384 787L330 756Q288 782 249 825T196 908L300 972Q329 943 353 887T384 787ZM563 119T504 56T311 -8T125 54T71 250V573Q33 587 16 607L26 690H260L270 607Q254 588 215 573V246Q215 174 238
140T323 105T409 140T434 246V573Q393 588 379 607L389 690H608L618 607Q602 588 563 573V250Q563 119 504 56Z" />
<glyph unicode="&#xda;" glyph-name="Uacute" horiz-adv-x="634" d="M254 787Q260 831 284 887T338 972L442 908Q428 869 389 826T308 756Q254 785 254 787ZM563 119T504 56T311 -8T125 54T71 250V573Q33 587 16 607L26 690H260L270 607Q254 588 215 573V246Q215
174 238 140T323 105T409 140T434 246V573Q393 588 379 607L389 690H608L618 607Q602 588 563 573V250Q563 119 504 56Z" />
<glyph unicode="&#xdb;" glyph-name="Ucircumflex" horiz-adv-x="634" d="M482 797L446 756Q400 769 322 836Q244 769 198 756L162 797Q175 832 226 886T322 971Q367 941 418 887T482 797ZM563 119T504 56T311 -8T125 54T71 250V573Q33 587 16 607L26 690H260L270
607Q254 588 215 573V246Q215 174 238 140T323 105T409 140T434 246V573Q393 588 379 607L389 690H608L618 607Q602 588 563 573V250Q563 119 504 56Z" />
<glyph unicode="&#xdc;" glyph-name="Udieresis" horiz-adv-x="634" d="M123 818Q123 894 204 894T286 819T204 743Q164 743 144 760T123 818ZM363 818Q363 894 444 894T526 819T444 743Q404 743 384 760T363 818ZM563 119T504 56T311 -8T125 54T71 250V573Q33
587 16 607L26 690H260L270 607Q254 588 215 573V246Q215 174 238 140T323 105T409 140T434 246V573Q393 588 379 607L389 690H608L618 607Q602 588 563 573V250Q563 119 504 56Z" />
<glyph unicode="&#xdd;" glyph-name="Yacute" horiz-adv-x="588" d="M288 756L234 787Q240 831 264 887T318 972L422 908Q408 869 369 826T288 756ZM412 0H178L168 83Q181 100 223 116V231L60 570Q13 586 -4 607L5 685V686L6 690H240L250 607Q238 590 204 577L238
500Q267 434 288 369L295 349H310Q331 422 365 500L397 573Q357 589 343 607L353 690H581L591 607Q571 584 525 569L367 231V116Q407 100 422 83L412 0Z" />
<glyph unicode="&#xde;" glyph-name="Thorn" horiz-adv-x="611" d="M231 536H331Q460 536 521 494T583 349Q583 158 321 158H231V122Q304 106 322 83L312 0H42L32 83Q45 100 87 116V573Q46 588 32 607L42 690H312L322 607Q303 583 231 567V536ZM291 435H231V259H298Q367
259 400 278T433 351Q433 406 390 422Q356 435 291 435Z" />
<glyph unicode="&#xdf;" glyph-name="germandbls" horiz-adv-x="575" d="M209 0H24L14 77Q28 96 69 111V519Q69 623 114 675T256 728T416 685T478 570Q478 511 412 424Q389 394 389 378T417 338T478 289T539 225T567 143Q567 71 516 32T377 -8Q315 -8 261 0L276
98Q307 89 349 89T413 101T435 137T408 186T348 232T288 285T260 350T275 407T309 453T342 502T358 560T336 607T277 626T225 605T209 529V0Z" />
<glyph unicode="&#xe0;" glyph-name="agrave" horiz-adv-x="512" d="M46 426Q46 441 47 458Q140 508 247 508T400 468T447 333V120Q482 113 502 103V16Q451 -8 356 -8Q346 18 339 55Q296 -8 183 -8Q116 -8 69 31T21 137T65 242T198 281H307V329Q307 407 224 407Q193
407 173 401Q171 359 161 336H63Q46 371 46 426ZM226 94Q277 94 307 124V206H237Q165 206 165 151Q165 126 180 110T226 94ZM313 600L259 569Q218 595 175 643T118 732L222 796Q251 767 279 706T313 600Z" />
<glyph unicode="&#xe1;" glyph-name="aacute" horiz-adv-x="512" d="M46 426Q46 441 47 458Q140 508 247 508T400 468T447 333V120Q482 113 502 103V16Q451 -8 356 -8Q346 18 339 55Q296 -8 183 -8Q116 -8 69 31T21 137T65 242T198 281H307V329Q307 407 224 407Q193
407 173 401Q171 359 161 336H63Q46 371 46 426ZM226 94Q277 94 307 124V206H237Q165 206 165 151Q165 126 180 110T226 94ZM223 569L169 600Q175 644 203 705T260 796L364 732Q350 692 307 644T223 569Z" />
<glyph unicode="&#xe2;" glyph-name="acircumflex" horiz-adv-x="512" d="M46 426Q46 441 47 458Q140 508 247 508T400 468T447 333V120Q482 113 502 103V16Q451 -8 356 -8Q346 18 339 55Q296 -8 183 -8Q116 -8 69 31T21 137T65 242T198 281H307V329Q307 407 224
407Q193 407 173 401Q171 359 161 336H63Q46 371 46 426ZM226 94Q277 94 307 124V206H237Q165 206 165 151Q165 126 180 110T226 94ZM427 610L391 569Q345 582 267 649Q189 582 143 569L107 610Q120 645 171 699T267 784Q312 754 363 700T427 610Z" />
<glyph unicode="&#xe3;" glyph-name="atilde" horiz-adv-x="512" d="M46 426Q46 441 47 458Q140 508 247 508T400 468T447 333V120Q482 113 502 103V16Q451 -8 356 -8Q346 18 339 55Q296 -8 183 -8Q116 -8 69 31T21 137T65 242T198 281H307V329Q307 407 224 407Q193
407 173 401Q171 359 161 336H63Q46 371 46 426ZM226 94Q277 94 307 124V206H237Q165 206 165 151Q165 126 180 110T226 94ZM68 678T99 696T164 714T243 700T318 686Q375 686 411 707L423 714L463 651Q459 645 442 630T408 606Q367 582 330 582T246 596T173 610Q130
610 94 590L82 583L44 649Q49 656 58 667Z" />
<glyph unicode="&#xe4;" glyph-name="adieresis" horiz-adv-x="512" d="M46 426Q46 441 47 458Q140 508 247 508T400 468T447 333V120Q482 113 502 103V16Q451 -8 356 -8Q346 18 339 55Q296 -8 183 -8Q116 -8 69 31T21 137T65 242T198 281H307V329Q307 407 224
407Q193 407 173 401Q171 359 161 336H63Q46 371 46 426ZM226 94Q277 94 307 124V206H237Q165 206 165 151Q165 126 180 110T226 94ZM47 699Q47 775 128 775T210 700T128 624Q88 624 68 641T47 699ZM287 699Q287 775 368 775T450 700T368 624Q328 624 308 641T287
699Z" />
<glyph unicode="&#xe5;" glyph-name="aring" horiz-adv-x="512" d="M46 426Q46 441 47 458Q140 508 247 508T400 468T447 333V120Q482 113 502 103V16Q451 -8 356 -8Q346 18 339 55Q296 -8 183 -8Q116 -8 69 31T21 137T65 242T198 281H307V329Q307 407 224 407Q193
407 173 401Q171 359 161 336H63Q46 371 46 426ZM226 94Q277 94 307 124V206H237Q165 206 165 151Q165 126 180 110T226 94ZM192 581T161 605T129 688T161 771T251 796Q376 796 376 687Q376 581 251 581Q192 581 161 605ZM194 688Q194 637 252 637T311 688Q311
741 253 741T194 688Z" />
<glyph unicode="&#xe6;" glyph-name="ae" horiz-adv-x="767" d="M47 435Q47 446 48 458Q87 479 147 493T260 508Q357 508 403 466Q463 508 554 508T692 463T739 290V266Q739 245 728 233T697 220H453Q462 99 558 99Q635 99 701 125L735 52Q654 -8 541 -8T369 50Q293
-8 175 -8Q110 -8 66 27T22 132Q22 219 82 246T287 274Q297 274 308 274V296Q308 361 289 384T225 407Q200 407 173 399Q170 362 156 336H68Q47 378 47 435ZM166 142Q166 95 216 95T308 118V192Q300 192 292 192Q216 192 191 183T166 142ZM548 406Q468 406 456
303L601 312Q601 406 548 406Z" />
<glyph unicode="&#xe7;" glyph-name="ccedilla" horiz-adv-x="451" d="M262 406Q170 406 170 248Q170 168 195 137T269 105Q345 105 403 119L433 42Q372 4 275 -6Q270 -23 270 -35Q335 -42 335 -111Q335 -206 186 -217L170 -163Q203 -151 216 -141T229 -112T217
-83T187 -72Q185 -63 185 -46T197 -4Q26 20 26 242Q26 388 101 452Q168 508 264 508T424 472Q425 462 425 453Q425 396 399 345H311Q297 370 294 405Q282 406 262 406Z" />
<glyph unicode="&#xe8;" glyph-name="egrave" horiz-adv-x="483" d="M266 -8Q146 -8 86 56T25 242Q25 316 46 369T103 452Q173 508 266 508T408 461T458 290Q458 218 387 218H170Q174 155 202 129T293 103Q327 103 358 111T403 127L417 135L447 55Q441 48 430
38T372 10T266 -8ZM329 307Q331 321 331 341T315 383T260 406T199 382T171 301L329 307ZM322 600L268 569Q227 595 184 643T127 732L231 796Q260 767 288 706T322 600Z" />
<glyph unicode="&#xe9;" glyph-name="eacute" horiz-adv-x="483" d="M266 -8Q146 -8 86 56T25 242Q25 316 46 369T103 452Q173 508 266 508T408 461T458 290Q458 218 387 218H170Q174 155 202 129T293 103Q327 103 358 111T403 127L417 135L447 55Q441 48 430
38T372 10T266 -8ZM329 307Q331 321 331 341T315 383T260 406T199 382T171 301L329 307ZM267 569L213 600Q219 644 247 705T304 796L408 732Q394 692 351 644T267 569Z" />
<glyph unicode="&#xea;" glyph-name="ecircumflex" horiz-adv-x="483" d="M266 -8Q146 -8 86 56T25 242Q25 316 46 369T103 452Q173 508 266 508T408 461T458 290Q458 218 387 218H170Q174 155 202 129T293 103Q327 103 358 111T403 127L417 135L447 55Q441 48
430 38T372 10T266 -8ZM329 307Q331 321 331 341T315 383T260 406T199 382T171 301L329 307ZM412 610L376 569Q330 582 252 649Q174 582 128 569L92 610Q105 645 156 699T252 784Q297 754 348 700T412 610Z" />
<glyph unicode="&#xeb;" glyph-name="edieresis" horiz-adv-x="483" d="M266 -8Q146 -8 86 56T25 242Q25 316 46 369T103 452Q173 508 266 508T408 461T458 290Q458 218 387 218H170Q174 155 202 129T293 103Q327 103 358 111T403 127L417 135L447 55Q441 48 430
38T372 10T266 -8ZM329 307Q331 321 331 341T315 383T260 406T199 382T171 301L329 307ZM48 699Q48 775 129 775T211 700T129 624Q89 624 69 641T48 699ZM258 699Q258 775 339 775T421 700T339 624Q299 624 279 641T258 699Z" />
<glyph unicode="&#xec;" glyph-name="igrave" horiz-adv-x="292" d="M38 500Q94 513 142 513T223 510V111Q262 96 278 77L268 0H38L28 77Q42 96 83 111V389Q48 401 28 423L38 500ZM217 600L163 569Q122 595 79 643T22 732L126 796Q155 767 183 706T217 600Z" />
<glyph unicode="&#xed;" glyph-name="iacute" horiz-adv-x="292" d="M115 569L61 600Q67 644 95 705T152 796L256 732Q242 692 199 644T115 569ZM38 500Q94 513 142 513T223 510V111Q262 96 278 77L268 0H38L28 77Q42 96 83 111V389Q48 401 28 423L38 500Z" />
<glyph unicode="&#xee;" glyph-name="icircumflex" horiz-adv-x="292" d="M38 500Q94 513 142 513T223 510V111Q262 96 278 77L268 0H38L28 77Q42 96 83 111V389Q48 401 28 423L38 500ZM307 610L271 569Q225 582 147 649Q69 582 23 569L-13 610Q0 645 51 699T147
784Q192 754 243 700T307 610Z" />
<glyph unicode="&#xef;" glyph-name="idieresis" horiz-adv-x="292" d="M-27 699Q-27 771 50 771T128 700T50 628Q12 628 -7 644T-27 699ZM163 628T163 699T240 771T318 700T241 628ZM38 500Q94 513 142 513T223 510V111Q262 96 278 77L268 0H38L28 77Q42 96 83
111V389Q48 401 28 423L38 500Z" />
<glyph unicode="&#xf0;" glyph-name="eth" horiz-adv-x="525" d="M497 286Q497 156 437 74T271 -8Q145 -8 86 45T27 214T85 394T237 458Q291 458 337 441Q324 492 299 533L255 494L201 530Q203 562 232 587L247 600Q241 607 198 644L265 728Q298 708 335 678L384
722L438 686Q437 655 407 629L394 617Q497 487 497 286ZM353 292Q353 311 351 343Q314 360 255 360Q171 360 171 231Q171 162 192 125T264 88T334 138T353 292Z" />
<glyph unicode="&#xf1;" glyph-name="ntilde" horiz-adv-x="595" d="M36 500Q91 512 135 512T208 510V460Q233 481 274 494T354 508Q452 508 491 462T531 303V111Q570 96 586 77L576 0H346L336 77Q350 96 391 111V309Q391 363 374 381T311 400T221 368V111Q260
96 276 77L266 0H36L26 77Q40 96 81 111V389Q46 401 26 423L36 500ZM105 678T136 696T201 714T280 700T356 686Q412 686 448 707L460 714L500 651Q496 645 479 630T446 606Q404 582 367 582T283 596T210 610Q167 610 130 590L119 583L81 649Q86 656 95 667Z" />
<glyph unicode="&#xf2;" glyph-name="ograve" horiz-adv-x="530" d="M139 -8T82 55T25 245T88 440T271 508T447 448T505 261T441 63T258 -8ZM169 254Q169 94 265 94Q314 94 337 130T361 250Q361 406 263 406Q215 406 192 372T169 254ZM325 600L271 569Q230 595
187 643T130 732L234 796Q263 767 291 706T325 600Z" />
<glyph unicode="&#xf3;" glyph-name="oacute" horiz-adv-x="530" d="M139 -8T82 55T25 245T88 440T271 508T447 448T505 261T441 63T258 -8ZM169 254Q169 94 265 94Q314 94 337 130T361 250Q361 406 263 406Q215 406 192 372T169 254ZM216 600Q222 644 250 705T307
796L411 732Q397 692 354 644T270 569Q216 598 216 600Z" />
<glyph unicode="&#xf4;" glyph-name="ocircumflex" horiz-adv-x="530" d="M139 -8T82 55T25 245T88 440T271 508T447 448T505 261T441 63T258 -8ZM169 254Q169 94 265 94Q314 94 337 130T361 250Q361 406 263 406Q215 406 192 372T169 254ZM425 610L389 569Q343
582 265 649Q187 582 141 569L105 610Q118 645 169 699T265 784Q310 754 361 700T425 610Z" />
<glyph unicode="&#xf5;" glyph-name="otilde" horiz-adv-x="530" d="M139 -8T82 55T25 245T88 440T271 508T447 448T505 261T441 63T258 -8ZM169 254Q169 94 265 94Q314 94 337 130T361 250Q361 406 263 406Q215 406 192 372T169 254ZM78 678T109 696T174 714T253
700T328 686Q385 686 421 707L433 714L473 651Q469 645 452 630T418 606Q377 582 340 582T256 596T183 610Q140 610 104 590L92 583L54 649Q59 656 68 667Z" />
<glyph unicode="&#xf6;" glyph-name="odieresis" horiz-adv-x="530" d="M139 -8T82 55T25 245T88 440T271 508T447 448T505 261T441 63T258 -8ZM169 254Q169 94 265 94Q314 94 337 130T361 250Q361 406 263 406Q215 406 192 372T169 254ZM65 699Q65 775 146 775T228
700T146 624Q106 624 86 641T65 699ZM305 699Q305 775 386 775T468 700T386 624Q346 624 326 641T305 699Z" />
<glyph unicode="&#xf7;" glyph-name="divide" horiz-adv-x="509" d="M394 208H35L25 266Q56 301 115 301H474L484 243Q454 208 394 208ZM177 86Q177 158 254 158T332 86Q332 47 312 31T254 14T197 30T177 86ZM177 422Q177 495 254 495T332 422Q332 351 254 351Q216
351 197 367T177 422Z" />
<glyph unicode="&#xf8;" glyph-name="oslash" horiz-adv-x="563" d="M42 248Q42 373 105 440T280 508T447 464L534 549L569 525Q569 476 526 434L495 404Q522 347 522 258Q522 133 458 63T284 -8T117 37L31 -47L-5 -23Q-4 27 38 68L70 99Q42 155 42 248ZM378 250Q378
265 376 289L213 130Q236 94 283 94T354 130T378 250ZM186 254Q186 225 187 213L351 372Q327 406 280 406T209 372T186 254Z" />
<glyph unicode="&#xf9;" glyph-name="ugrave" horiz-adv-x="588" d="M395 42Q326 -8 233 -8T102 31T65 158V389Q30 401 10 423L20 500Q76 513 124 513T205 510V191Q205 137 221 120T287 102T378 134V389Q343 401 323 423L333 500Q389 513 437 513T518 510V120Q553
113 573 103V24Q513 -8 422 -8Q397 10 395 42ZM347 600L293 569Q252 595 209 643T152 732L256 796Q285 767 313 706T347 600Z" />
<glyph unicode="&#xfa;" glyph-name="uacute" horiz-adv-x="588" d="M395 42Q326 -8 233 -8T102 31T65 158V389Q30 401 10 423L20 500Q76 513 124 513T205 510V191Q205 137 221 120T287 102T378 134V389Q343 401 323 423L333 500Q389 513 437 513T518 510V120Q553
113 573 103V24Q513 -8 422 -8Q397 10 395 42ZM263 569L209 600Q215 644 243 705T300 796L404 732Q390 692 347 644T263 569Z" />
<glyph unicode="&#xfb;" glyph-name="ucircumflex" horiz-adv-x="588" d="M395 42Q326 -8 233 -8T102 31T65 158V389Q30 401 10 423L20 500Q76 513 124 513T205 510V191Q205 137 221 120T287 102T378 134V389Q343 401 323 423L333 500Q389 513 437 513T518 510V120Q553
113 573 103V24Q513 -8 422 -8Q397 10 395 42ZM454 610L418 569Q372 582 294 649Q216 582 170 569L134 610Q147 645 198 699T294 784Q339 754 390 700T454 610Z" />
<glyph unicode="&#xfc;" glyph-name="udieresis" horiz-adv-x="588" d="M395 42Q326 -8 233 -8T102 31T65 158V389Q30 401 10 423L20 500Q76 513 124 513T205 510V191Q205 137 221 120T287 102T378 134V389Q343 401 323 423L333 500Q389 513 437 513T518 510V120Q553
113 573 103V24Q513 -8 422 -8Q397 10 395 42ZM73 699Q73 775 154 775T236 700T154 624Q114 624 94 641T73 699ZM313 699Q313 775 394 775T476 700T394 624Q354 624 334 641T313 699Z" />
<glyph unicode="&#xfd;" glyph-name="yacute" horiz-adv-x="568" d="M161 -116Q179 -116 199 -83T228 -3L64 385Q15 401 -2 423L8 500H238L248 423Q235 407 204 394L259 243Q277 196 284 150L287 136H301Q309 186 329 241L382 389Q345 403 330 423L340 500H560L570
423Q552 400 504 384L339 -6Q292 -117 267 -149Q223 -208 145 -208T25 -167Q24 -157 24 -147Q24 -92 47 -43H130Q145 -70 147 -116H161ZM275 569L221 600Q227 644 255 705T312 796L416 732Q402 692 359 644T275 569Z" />
<glyph unicode="&#xfe;" glyph-name="thorn" horiz-adv-x="536" d="M5 710Q61 723 109 723T190 720V470Q213 486 247 497T309 508Q419 508 464 452T510 257T442 55T272 -8Q224 -8 190 1V-86Q249 -102 266 -123L256 -200H5L-5 -123Q8 -105 50 -89V599Q15 611 -5
633L5 710ZM270 94Q366 94 366 255Q366 341 350 373T292 406Q233 406 190 368V103Q226 94 270 94Z" />
<glyph unicode="&#xff;" glyph-name="ydieresis" horiz-adv-x="568" d="M161 -116Q179 -116 199 -83T228 -3L64 385Q15 401 -2 423L8 500H238L248 423Q235 407 204 394L259 243Q277 196 284 150L287 136H301Q309 186 329 241L382 389Q345 403 330 423L340 500H560L570
423Q552 400 504 384L339 -6Q292 -117 267 -149Q223 -208 145 -208T25 -167Q24 -157 24 -147Q24 -92 47 -43H130Q145 -70 147 -116H161ZM92 699Q92 775 173 775T255 700T173 624Q133 624 113 641T92 699ZM332 699Q332 775 413 775T495 700T413 624Q373 624 353
641T332 699Z" />
<glyph unicode="&#x2013;" glyph-name="endash" horiz-adv-x="528" d="M393 220H56L46 284Q77 319 136 319H473L483 255Q453 220 393 220Z" />
<glyph unicode="&#x2014;" glyph-name="emdash" horiz-adv-x="754" d="M619 220H56L46 284Q77 319 136 319H699L709 255Q679 220 619 220Z" />
<glyph unicode="&#x2018;" glyph-name="quoteleft" horiz-adv-x="233" d="M200 483Q200 407 115 407T30 483Q30 550 64 607T146 699L188 673Q155 618 155 565Q155 557 156 550Q175 544 187 526T200 483Z" />
<glyph unicode="&#x2019;" glyph-name="quoteright" horiz-adv-x="231" d="M34 623Q34 699 119 699T204 623Q204 556 170 499T88 407L46 433Q79 488 79 541Q79 549 78 556Q59 562 47 580T34 623Z" />
<glyph unicode="&#x201a;" glyph-name="quotesinglbase" horiz-adv-x="244" d="M36 65Q36 141 121 141T206 65Q206 -2 172 -59T90 -151L48 -125Q81 -70 81 -17Q81 -9 80 -2Q61 4 49 22T36 65Z" />
<glyph unicode="&#x201c;" glyph-name="quotedblleft" horiz-adv-x="450" d="M200 483Q200 407 115 407T30 483Q30 550 64 607T146 699L188 673Q155 618 155 565Q155 557 156 550Q175 544 187 526T200 483ZM417 483Q417 407 332 407T247 483Q247 550 281 607T363
699L405 673Q372 618 372 565Q372 557 373 550Q392 544 404 526T417 483Z" />
<glyph unicode="&#x201d;" glyph-name="quotedblright" horiz-adv-x="448" d="M251 623Q251 699 336 699T421 623Q421 556 387 499T305 407L263 433Q296 488 296 541Q296 549 295 556Q276 562 264 580T251 623ZM34 623Q34 699 119 699T204 623Q204 556 170 499T88
407L46 433Q79 488 79 541Q79 549 78 556Q59 562 47 580T34 623Z" />
<glyph unicode="&#x201e;" glyph-name="quotedblbase" horiz-adv-x="478" d="M270 65Q270 141 355 141T440 65Q440 -2 406 -59T324 -151L282 -125Q315 -70 315 -17Q315 -9 314 -2Q295 4 283 22T270 65ZM36 65Q36 141 121 141T206 65Q206 -2 172 -59T90 -151L48
-125Q81 -70 81 -17Q81 -9 80 -2Q61 4 49 22T36 65Z" />
<glyph unicode="&#x2022;" glyph-name="bullet" horiz-adv-x="361" d="M122 157T92 181T62 263T92 346T180 371Q299 371 299 263Q299 157 180 157Q122 157 92 181Z" />
<glyph unicode="&#x2039;" glyph-name="guilsinglleft" horiz-adv-x="308" d="M227 457L274 422Q265 390 237 341T173 247Q252 149 274 73L227 38Q186 55 122 121T24 247Q58 306 122 372T227 457Z" />
<glyph unicode="&#x203a;" glyph-name="guilsinglright" horiz-adv-x="308" d="M34 422L81 457Q122 439 186 373T284 247Q250 188 186 122T81 38L34 73Q56 149 135 247Q100 291 72 340T34 422Z" />
</font>
</defs>
</svg>
