<?xml version="1.0" standalone="no"?>
<!DOCTYPE svg PUBLIC "-//W3C//DTD SVG 1.1//EN" "http://www.w3.org/Graphics/SVG/1.1/DTD/svg11.dtd" >
<svg xmlns="http://www.w3.org/2000/svg" xmlns:xlink="http://www.w3.org/1999/xlink" version="1.1">
<metadata></metadata>
<defs>
<font id="roboto_monothin_italic" horiz-adv-x="1202" >
<font-face units-per-em="2048" ascent="1536" descent="-512" />
<missing-glyph horiz-adv-x="500" />
<glyph horiz-adv-x="0" />
<glyph horiz-adv-x="0" />
<glyph />
<glyph unicode="&#x9;" />
<glyph unicode=" " />
<glyph unicode="!" d="M568 401h-55l181 1055h55zM431 51q1 10 7.5 19.5t15 17t19 12.5t20.5 5q22 0 37.5 -18t12.5 -40q-2 -10 -8 -19.5t-15 -17t-20 -12t-21 -4.5q-22 1 -37 18t-11 39z" />
<glyph unicode="&#x22;" d="M623 1388l-52 -266h-53l49 273l20 141h60zM864 1388l-51 -266h-53l50 273l20 141h59z" />
<glyph unicode="#" d="M695 410h-349l-143 -410h-57l142 410h-261l7 52h272l183 524h-289l8 54h300l145 415h57l-145 -415h350l146 415h57l-144 -415h244l-7 -54h-256l-184 -524h274l-7 -52h-285l-144 -410h-56zM364 462h348l185 524h-350z" />
<glyph unicode="$" d="M944 344q14 76 -8 132.5t-66 98.5t-103 72.5t-119 54.5q-70 28 -136 62.5t-114.5 82.5t-72.5 112t-11 151q12 81 50.5 146t95.5 111.5t129 74.5t150 34l31 187h56l-31 -187q88 -8 150 -45.5t98.5 -95t50 -132t6.5 -156.5h-54q8 73 -4.5 140.5t-47 120t-92 84.5t-138.5 32 q-70 0 -135.5 -22.5t-119.5 -63.5t-91 -98.5t-50 -127.5q-10 -52 -3 -94t26.5 -76.5t49 -62t65.5 -50t76.5 -41t81.5 -34.5q70 -27 135.5 -62t114 -83.5t73 -113t12.5 -149.5q-12 -81 -50.5 -145t-95 -110.5t-127.5 -74t-148 -35.5l-31 -189h-56l31 187q-94 5 -165.5 38 t-119 89.5t-68.5 133t-13 169.5h55q-9 -83 10 -152.5t62.5 -119.5t109.5 -78t151 -27q69 1 135 23.5t121 63.5t93 98t51 127z" />
<glyph unicode="%" d="M141 1176q10 52 33 105t58.5 96.5t83.5 71.5t107 28q60 0 98.5 -29t60 -73t27.5 -97.5t-1 -101.5l-13 -77q-9 -51 -32 -104t-58 -96.5t-82.5 -71t-105.5 -27.5q-60 0 -99.5 28.5t-61.5 72t-28 96.5t1 102zM183 1099q-6 -38 -4 -80.5t16.5 -79t44 -60.5t77.5 -24t85.5 23 t65.5 58.5t46 78.5t26 84l15 77q6 37 4 80t-16 79.5t-43 61.5t-77 25t-86 -23t-66.5 -59t-46.5 -79.5t-27 -84.5zM638 357q10 51 33 104.5t58 96.5t82.5 71t106.5 28q60 0 99 -28.5t61 -72.5t28 -97t-1 -102l-12 -78q-10 -51 -33 -104.5t-58.5 -96.5t-83 -71t-106.5 -28 t-98.5 28.5t-61 72.5t-28 97t0.5 102zM679 279q-6 -38 -4 -80.5t16.5 -79t43.5 -61t77 -24.5t86 23t66 58.5t46 79t27 84.5l14 78q6 38 4.5 81t-16 79t-43.5 60.5t-78 24.5q-48 0 -86 -22.5t-66 -58t-45.5 -79t-26.5 -85.5zM228 132l-40 32l799 1135l40 -32z" />
<glyph unicode="&#x26;" d="M469 803q-23 42 -43.5 85.5t-34 89t-18.5 93t3 96.5q9 61 36 117t69 99t97 68.5t120 25.5q55 0 98.5 -21.5t72 -58t41 -84.5t4.5 -100q-7 -47 -29 -88.5t-52 -78t-66 -68.5t-71 -60l-160 -124l338 -531q63 83 103.5 175.5t62.5 193.5h54q-19 -117 -65 -221.5t-121 -195.5 l140 -215h-62l-112 174q-43 -38 -90.5 -73t-99 -62t-107 -43t-115.5 -16q-80 0 -148 27t-115.5 76.5t-69 117.5t-9.5 151q9 64 38 122t69.5 109t89 96t97.5 83zM461 34q57 0 109 14t99.5 39t90.5 59t82 74l-323 505l-23 37l-51 -39q-44 -35 -88.5 -75.5t-82 -87t-64.5 -98.5 t-36 -110q-12 -70 6 -128.5t58 -100.5t97.5 -65.5t125.5 -23.5zM431 1169q-8 -44 -5 -87.5t14.5 -85.5t29 -82t38.5 -78l162 124q31 24 61.5 51.5t56 59t44 67t26.5 75.5q7 40 -1 78t-29 67t-53.5 46.5t-75.5 18.5q-53 0 -98.5 -21t-80 -56.5t-57.5 -81.5t-32 -95z" />
<glyph unicode="'" d="M705 1362l-52 -240h-50l48 248l25 166h55z" />
<glyph unicode="(" d="M391 586q15 95 39 194t58 196.5t79 191t102.5 177t128 154.5t156.5 124l14 -45q-119 -80 -207 -193.5t-150.5 -245t-102.5 -273t-62 -276.5l-4 -26q-12 -79 -20 -168t-7 -180.5t13 -182.5t39.5 -175t73.5 -157t114 -129l-24 -41q-74 58 -124.5 134t-81.5 162.5t-45.5 181 t-17 190t5 189t20.5 178.5z" />
<glyph unicode=")" d="M770 566q-23 -143 -65 -293t-109.5 -288.5t-163 -256.5t-225.5 -198l-14 45q118 80 206.5 193.5t151 245.5t102.5 273.5t62 276.5l4 26q12 79 20 167.5t7 180t-13 182.5t-39.5 175t-73.5 157t-114 129l24 41q73 -58 123 -134t81 -163t46 -182t17.5 -190.5t-5 -189 t-19.5 -177.5z" />
<glyph unicode="*" d="M650 1019l-364 123l25 52l363 -133l64 395h59l-69 -393l391 141l16 -54l-404 -138l225 -317l-51 -31l-216 321l-301 -323l-45 33z" />
<glyph unicode="+" d="M636 702h465l-7 -53h-467l-87 -503h-55l87 503h-448l8 53h448l87 504h55z" />
<glyph unicode="," d="M444 27q-30 -163 -150 -282l-34 34q48 55 81.5 114.5t47.5 131.5l23 134h54z" />
<glyph unicode="-" horiz-adv-x="1203" d="M938 639h-698l7 54h698z" />
<glyph unicode="." d="M476 54q1 10 7.5 20.5t15.5 19t20 13.5t22 5q12 0 22 -5.5t17 -14.5t10.5 -20t1.5 -22q-4 -21 -24.5 -38.5t-42.5 -17.5q-23 1 -38 19.5t-11 40.5z" />
<glyph unicode="/" d="M231 -124h-60l862 1579h60z" />
<glyph unicode="0" d="M1031 594q-12 -69 -33.5 -141.5t-54 -141t-75.5 -128.5t-98 -105.5t-123 -71.5t-149 -26q-82 0 -141.5 28t-100 74.5t-63.5 108.5t-33 130.5t-7.5 138.5t12.5 134l46 268q12 69 34 141.5t54.5 140.5t75.5 129t98.5 106t123 71.5t149.5 26.5t142 -28t100 -75t63 -109 t32.5 -130.5t7 -138.5t-12.5 -134zM220 596q-10 -53 -14 -105.5t-4 -106.5l832 731q-6 63 -26 119t-55.5 98t-86.5 66.5t-120 24.5q-73 0 -134 -24.5t-110.5 -66t-88.5 -97t-67.5 -118t-48.5 -128t-31 -127.5zM1024 862q8 49 12 97.5t6 98.5l-831 -730q8 -61 29 -114.5 t56 -93.5t85.5 -63t116.5 -23q73 0 134 24.5t110.5 66.5t88 98t67.5 118t48.5 127.5t30.5 127.5z" />
<glyph unicode="1" d="M587 0h-54l239 1383l-446 -195l8 59l482 208l21 1z" />
<glyph unicode="2" d="M897 0h-846l6 54l546 550q50 50 103.5 104t100 113.5t81.5 125t47 138.5t-3.5 135t-54 107t-97 70t-132.5 25q-81 -1 -149.5 -32t-122 -82.5t-90.5 -119.5t-54 -143l-54 1q17 85 58.5 162.5t102 137t139 94.5t170.5 36q85 0 154 -29t115 -81.5t66 -124t7 -156.5 q-13 -83 -52 -156.5t-91.5 -139.5t-113 -126.5l-116.5 -116.5l-486 -492h772z" />
<glyph unicode="3" d="M430 770h105q72 2 144 23t132.5 60.5t104 97.5t58.5 134q14 72 -1 134t-53 107t-96.5 70.5t-131.5 25.5q-79 0 -148.5 -26.5t-125.5 -73t-96 -110t-59 -137.5h-54q19 85 63 158.5t107.5 127.5t142.5 84.5t169 30.5q84 0 152.5 -30.5t114.5 -83.5t65 -125t5 -156 q-11 -66 -42 -120t-76 -96t-100.5 -72.5t-116.5 -49.5q64 -18 114 -51t83 -78t46 -102.5t2 -125.5q-14 -89 -58.5 -163.5t-110 -128.5t-147.5 -84t-171 -30q-93 0 -168.5 32t-127.5 88.5t-77 134.5t-16 170h54q-9 -80 11.5 -148t65.5 -117.5t110.5 -77.5t146.5 -28 q79 0 151 25t129.5 70.5t97.5 109.5t55 143q16 87 -8 149t-74.5 102t-120.5 59.5t-146 21.5h-112z" />
<glyph unicode="4" d="M803 451h243l-7 -54h-245l-69 -397h-54l68 397l-683 1l4 29l850 1028l65 1zM149 451h599l163 932l-103 -133z" />
<glyph unicode="5" d="M301 763l185 693h690l-8 -53h-641l-163 -584q69 47 148 72t163 25q95 0 166 -38t115 -100.5t60.5 -144t2.5 -169.5q-15 -93 -53 -180t-98 -154.5t-142 -108.5t-184 -41q-89 0 -156.5 31.5t-112.5 86t-67 128t-19 157.5h54q-3 -74 14 -137.5t54.5 -110.5t95.5 -74t136 -27 q91 0 163 36.5t125 96t87 136.5t48 159q13 76 1.5 148t-47.5 127.5t-97 89.5t-145 35q-94 1 -177 -30t-158 -85z" />
<glyph unicode="6" d="M981 1476l-7 -54h-17q-101 -2 -188 -29t-160.5 -74t-133.5 -111t-108 -140t-83.5 -162t-59.5 -175q38 51 86 92.5t103.5 71t116.5 46t125 16.5q98 0 168.5 -42t112.5 -109.5t56.5 -153t1.5 -172.5q-9 -59 -29 -119t-50.5 -115.5t-71.5 -103.5t-90.5 -84t-107.5 -57 t-124 -21q-106 -1 -184.5 43t-127.5 116.5t-67.5 164.5t-5.5 188l26 168q17 104 51 204.5t84.5 191t117.5 167t150 132t182 87.5t213 34h21zM649 903q-64 0 -133.5 -21t-131 -59t-108.5 -91.5t-66 -117.5l-20 -121q-12 -84 2 -167t55 -148.5t109 -105.5t164 -39 q87 1 158.5 42t125.5 105t88.5 143t47.5 157q13 77 2 152.5t-47 135.5t-97 97.5t-149 37.5z" />
<glyph unicode="7" d="M1165 1422l-842 -1422h-56l832 1402h-840l7 54h903z" />
<glyph unicode="8" d="M1116 1086q-11 -65 -41.5 -119.5t-74 -97t-98 -74t-114.5 -51.5q61 -20 110.5 -55t83 -81.5t48 -104.5t4.5 -124q-15 -93 -63.5 -167t-118.5 -125.5t-156 -79t-176 -27.5q-87 0 -164 27.5t-132 79.5t-80.5 125.5t-10.5 166.5q12 72 45.5 131t83 105t111 78.5t128.5 52.5 q-54 21 -96.5 54.5t-70 77.5t-38 96.5t-1.5 111.5q13 86 56 157.5t106.5 123.5t142.5 80.5t165 28.5q83 0 153.5 -29t119 -81t70.5 -123.5t8 -156.5zM978 374q15 79 -8 142.5t-70.5 108.5t-114 69t-139.5 24q-77 0 -153 -24t-139 -69t-108 -108.5t-60 -142.5 q-15 -80 7 -143.5t70 -107t115 -66.5t141 -23q78 0 153.5 23t138.5 66.5t107.5 107t59.5 143.5zM1062 1091q13 71 -5.5 131.5t-60.5 105t-101.5 69.5t-128.5 25q-73 0 -142 -24.5t-125.5 -68t-96 -104.5t-52.5 -134q-14 -72 5 -130.5t60.5 -100.5t101.5 -65t128 -23 q71 0 140 22.5t126 64.5t97 101t54 131z" />
<glyph unicode="9" d="M288 34q100 2 185.5 28t157 71.5t129 108.5t102 138t76 160.5t50.5 176.5l4 18q-36 -58 -83.5 -107t-104 -85t-121 -55.5t-134.5 -19.5q-97 1 -166.5 45.5t-111.5 115t-56.5 157.5t-2.5 172q9 61 30.5 123.5t53.5 119.5t74.5 107t94.5 87t112 58.5t128 22.5 q80 1 141 -22.5t105 -65t71 -97.5t41 -120t14.5 -133t-8.5 -135l-25 -163q-25 -152 -85 -288.5t-155 -240.5t-224.5 -166.5t-294.5 -64.5h-35l8 54h30zM548 522q69 0 141 24.5t135.5 68t111.5 102t69 126.5l9 59q9 57 10 118t-9 119t-32 110t-59 90.5t-90 61t-125 21.5 q-90 -1 -165.5 -43.5t-132.5 -109t-94.5 -148.5t-50.5 -163q-12 -73 -1.5 -150t45 -140.5t93.5 -104t145 -41.5z" />
<glyph unicode=":" d="M532 54q1 10 7.5 20.5t15.5 19t20 13.5t22 5q12 0 22 -5.5t17 -14.5t10.5 -20t1.5 -22q-4 -21 -24.5 -38.5t-42.5 -17.5q-23 1 -38 19.5t-11 40.5zM684 930q1 10 7.5 20.5t15.5 19t20 13.5t22 5q12 0 22 -5.5t17 -14.5t10.5 -20t1.5 -22q-4 -21 -24.5 -38.5t-42.5 -17.5 q-23 1 -38 19.5t-11 40.5z" />
<glyph unicode=";" d="M685 930q1 10 7.5 20.5t15.5 19t20 13.5t22 5q12 0 22 -5.5t17 -14.5t10.5 -20t1.5 -22q-4 -21 -24.5 -38.5t-42.5 -17.5q-23 1 -38 19.5t-11 40.5zM593 27q-30 -163 -150 -282l-34 34q48 55 81.5 114.5t47.5 131.5l23 134h54z" />
<glyph unicode="&#x3c;" d="M241 664l709 -343l-9 -59l-776 379l7 50l906 377l-8 -57z" />
<glyph unicode="=" d="M1078 843h-866l8 54h865zM1008 436h-866l7 54h866z" />
<glyph unicode="&#x3e;" d="M956 670l-701 343l7 59l776 -378l-7 -50l-906 -378l10 58z" />
<glyph unicode="?" d="M517 401q25 107 79 188.5t139 150.5q46 37 89.5 77.5t79.5 85.5t62 96.5t37 112.5q11 63 0 119.5t-41.5 99t-80.5 67.5t-117 25q-71 0 -132 -23t-109.5 -64t-83.5 -97t-53 -122h-55q19 76 58.5 141.5t95.5 114t126.5 76t151.5 27.5q78 0 138 -29.5t98.5 -79.5t54 -116.5 t3.5 -140.5q-11 -67 -38.5 -125t-67.5 -108.5t-88.5 -94.5t-99.5 -84q-76 -58 -123.5 -131t-67.5 -167zM432 51q1 10 7.5 20t15.5 17.5t19.5 12t20.5 4.5q22 -1 37.5 -18.5t12.5 -39.5q-2 -10 -8 -19.5t-15 -17t-20 -12t-21 -4.5q-22 1 -37.5 18t-11.5 39z" />
<glyph unicode="@" d="M1166 762q-8 -40 -20.5 -91.5t-31 -105.5t-43.5 -105.5t-58.5 -92t-76 -65t-95.5 -23.5q-44 0 -70 20t-39.5 50.5t-16 67t0.5 71.5q-21 -33 -47 -69.5t-57.5 -67.5t-69 -51.5t-80.5 -20.5q-48 0 -77.5 22.5t-45 59t-19 82.5t-0.5 92t11 88.5t15 71.5q12 48 30.5 102 t44 107t59 101.5t75 84.5t91.5 57t110 20q26 -1 48 -8.5t41 -19.5t36 -28t35 -34l-2 -2l-136 -503q-4 -18 -9 -42t-7 -50.5t-0.5 -52t10 -46t25.5 -33.5t46 -13q44 -1 79 21.5t62.5 59.5t48 83.5t36 94.5t25.5 92t17 76q13 65 21.5 138.5t6 146t-19.5 138.5t-54.5 117 t-98 81t-150.5 30q-97 0 -181 -31.5t-155.5 -85.5t-129.5 -126t-103.5 -154t-77 -169t-49.5 -170q-17 -79 -21 -157t7 -148.5t39.5 -131.5t77 -105.5t119 -69.5t166.5 -24q74 1 145.5 24t136.5 56l16 -48q-66 -40 -144.5 -63t-156.5 -24q-105 -1 -183.5 25.5t-133 74 t-87 113t-46.5 142t-10.5 162.5t21.5 174q18 94 51.5 189t81 183.5t110.5 165t140.5 133.5t169.5 89.5t200 32.5q101 0 170 -31.5t112.5 -85t65 -124.5t26 -149.5t-3.5 -160.5t-23 -157zM400 695q-5 -21 -13 -55.5t-13.5 -74t-6.5 -80.5t7 -74.5t28.5 -55t57.5 -22.5 q32 -1 62.5 14t58.5 40t52 57t44.5 65.5t36 65.5t26.5 58l121 420q-23 26 -47.5 41.5t-60.5 17.5q-52 1 -95 -17.5t-78.5 -51.5t-64 -76t-50.5 -90t-38 -94t-27 -88z" />
<glyph unicode="A" d="M883 435h-598l-214 -435h-57l713 1456h61l213 -1456h-54zM310 489h566l-127 890z" />
<glyph unicode="B" d="M106 0l252 1456h347q82 -2 157.5 -26t129.5 -71t81 -116t12 -160q-10 -63 -35.5 -113.5t-64.5 -90.5t-88.5 -69t-107.5 -49v-8q61 -16 109 -49t80 -79.5t45 -103.5t4 -120q-13 -88 -57 -160.5t-109 -125.5t-145.5 -83t-167.5 -32h-442zM284 719l-116 -665h380 q75 2 146 28t128 71t97 107.5t54 138.5q13 71 -6 129t-60 100t-99.5 65.5t-125.5 25.5h-398zM293 773h313q73 1 143.5 21.5t128 60t98 97.5t55.5 135q15 79 -7.5 138t-70 97.5t-112.5 58t-135 21.5h-304z" />
<glyph unicode="C" d="M1024 445q-26 -91 -74 -175t-115 -149t-152.5 -103.5t-187.5 -37.5q-83 1 -144.5 30.5t-104 78.5t-68 113.5t-37 135.5t-10.5 143.5t11 137.5l37 218q13 71 37 145.5t59.5 145.5t82.5 133.5t105.5 110t129 75.5t152.5 29q99 1 172 -38t119.5 -103.5t67.5 -148.5t18 -174 h-52q0 78 -17.5 152t-56 131.5t-100.5 92.5t-151 34q-74 -1 -137.5 -26.5t-116.5 -69.5t-95 -101.5t-74 -122t-54 -132.5t-34 -131l-39 -220q-9 -57 -11.5 -122t6 -130t29 -124.5t57 -105.5t90.5 -74t129 -29q92 -1 167 33.5t134 92t102 132t72 153.5h54z" />
<glyph unicode="D" d="M89 0l253 1456h351q84 -2 151 -30t118 -74.5t85.5 -108.5t53.5 -132t22 -145.5t-8 -148.5l-30 -178q-14 -77 -43 -154t-71.5 -147.5t-97 -131t-120.5 -105.5t-142 -72t-161 -29h-361zM385 1402l-234 -1348h299q77 2 146 27t129 66.5t110 97t89 120t65.5 134.5t40.5 140 l32 181q10 65 8 133t-17.5 132t-45 120.5t-74 99.5t-104.5 69t-136 28h-308z" />
<glyph unicode="E" d="M945 722h-658l-116 -668h748l-7 -54h-803l252 1456h801l-7 -54h-750l-109 -626h656z" />
<glyph unicode="F" d="M957 716h-662l-124 -716h-52l252 1456h803l-8 -54h-752l-110 -630h661z" />
<glyph unicode="G" d="M972 156q-91 -91 -210.5 -134.5t-247.5 -41.5q-84 1 -147.5 30t-109.5 77.5t-75 112t-43 134t-15 144t10 142.5l41 238q13 70 38 143.5t62 142t85.5 129t107.5 105.5t129 71.5t151 26.5q90 0 160.5 -32.5t119 -89t74 -132t24.5 -160.5h-52q-4 73 -25.5 138.5t-61.5 115 t-99 78t-139 28.5q-73 -1 -136.5 -25t-117 -65t-97 -96.5t-77 -117.5t-56.5 -128.5t-35 -129.5l-42 -240q-10 -61 -11 -127.5t10 -131t34.5 -123t63 -103.5t96 -72t132.5 -29q114 -2 219.5 33t188.5 114l75 424h-382l8 55h436z" />
<glyph unicode="H" d="M918 0h-51l125 722h-747l-125 -722h-51l251 1456h51l-117 -680h747l117 680h51z" />
<glyph unicode="I" d="M353 1456h783l-8 -56h-370l-234 -1346h369l-8 -54h-783l8 54h356l234 1346h-355z" />
<glyph unicode="J" d="M1066 1456h54l-174 -1014q-17 -91 -61.5 -174.5t-109.5 -147t-149 -101.5t-181 -39q-94 -1 -164.5 31.5t-116 89.5t-65.5 134t-13 166h54q-8 -77 7.5 -144.5t54 -117t99.5 -78t143 -27.5q85 1 159.5 35t133 90t98.5 129.5t56 153.5z" />
<glyph unicode="K" d="M511 763l-246 -213l-95 -550h-51l250 1456h52l-144 -833l247 226l644 606l76 -1l-693 -656l487 -798h-64z" />
<glyph unicode="L" d="M195 54h745l-7 -54h-803l252 1456h55z" />
<glyph unicode="M" d="M405 1456l179 -912l516 912h85l-252 -1456h-54l123 713l117 660l-519 -903h-50l-182 903l-116 -670l-121 -703h-54l251 1456h77z" />
<glyph unicode="N" d="M918 0h-49l-513 1365l-234 -1365h-51l250 1456h49l512 -1362l234 1362h52z" />
<glyph unicode="O" d="M1058 619q-13 -70 -36.5 -145t-59 -146t-82 -134t-104.5 -110.5t-128.5 -75.5t-152.5 -28q-83 0 -144 29.5t-104 79t-68.5 114t-37.5 135.5t-11 143.5t11 137.5l37 218q13 70 37 145t59 146t82 134t105.5 111t128.5 75.5t153 27.5t144.5 -29.5t104 -79t68 -114t37 -135.5 t10 -143.5t-11.5 -137.5zM1043 839q9 57 11.5 122.5t-5.5 130t-28.5 124.5t-57 105.5t-91 73t-129.5 27.5q-74 0 -137.5 -25.5t-116 -69.5t-94.5 -102t-74 -122.5t-53.5 -132.5t-33.5 -131l-39 -220q-9 -57 -11.5 -122.5t5.5 -130.5t28.5 -125t57 -106t90.5 -73.5t130 -27.5 q75 0 138.5 25.5t116 69.5t94.5 102t73.5 123t53 133t33.5 132z" />
<glyph unicode="P" d="M291 615l-106 -615h-54l252 1456h426q90 -2 162.5 -35.5t120.5 -90t68.5 -133.5t5.5 -166q-15 -91 -59.5 -166.5t-110.5 -130.5t-149 -86t-174 -33h-382zM300 669h373q79 2 151.5 29t131.5 74t100 112.5t56 144.5q15 78 -1.5 145t-57 117t-103 79.5t-140.5 31.5h-382z " />
<glyph unicode="Q" d="M1092 619q-16 -87 -47 -173t-78 -162.5t-110 -141t-142 -108.5l194 -264l-40 -33l-205 272q-40 -13 -81 -21t-83 -8q-84 0 -148 28.5t-110 77t-75.5 112t-43.5 134.5t-15 145t10 142l38 218q13 73 39 149t63.5 147t87 133.5t111 109t134 73.5t156.5 27t148 -28.5 t110 -76.5t75.5 -112t43.5 -135t15 -145t-10 -142zM1076 839q10 61 11 127.5t-10 131t-35 123.5t-63.5 103.5t-96.5 71t-134 26.5q-76 0 -142 -25t-121.5 -67.5t-100.5 -100t-79 -122t-58 -133.5t-36 -135l-39 -220q-10 -61 -11 -127.5t10 -131.5t35 -124t63.5 -104 t96.5 -71.5t134 -26.5q76 0 142.5 25t122 68t100 100.5t79 122.5t57.5 134t36 135z" />
<glyph unicode="R" d="M692 623h-416l-108 -623h-51l251 1456h379q87 -2 159.5 -35t121.5 -89.5t70.5 -132t6.5 -163.5q-12 -75 -45 -136t-81 -110.5t-108.5 -87t-127.5 -64.5l238 -624l-1 -14h-54zM285 677h370q73 3 139 33t118.5 78.5t88.5 112.5t50 135q14 77 -3 143t-58.5 114.5t-104 77.5 t-138.5 31h-336z" />
<glyph unicode="S" d="M973 349q9 54 0.5 98.5t-31.5 81t-56.5 65t-73.5 51t-84 40.5t-87 33q-71 24 -142 57t-125.5 80t-84 112t-16.5 153q13 85 60 151t113.5 112t147 69.5t160.5 23.5q90 0 161.5 -31.5t120.5 -86t73 -129.5t17 -163h-53q3 75 -17 139.5t-61 112.5t-101.5 76t-138.5 28 q-69 0 -139.5 -19t-130 -57t-102.5 -94.5t-56 -129.5q-10 -52 -1 -95t32 -77.5t57 -62t73.5 -49t82.5 -38.5t84 -30q73 -24 145.5 -58.5t127.5 -84.5t84 -118t16 -158t-60 -159t-114.5 -116t-150 -71.5t-167.5 -24.5q-93 0 -172.5 28t-136.5 81.5t-86.5 129.5t-22.5 172h52 q-3 -84 23 -150.5t74.5 -112.5t117 -70t150.5 -24q74 0 146.5 20t132.5 59.5t102.5 98.5t56.5 137z" />
<glyph unicode="T" d="M1230 1402h-465l-242 -1402h-54l244 1402h-465l8 54h982z" />
<glyph unicode="U" d="M1171 1456l-169 -987q-17 -93 -60.5 -181.5t-108.5 -156.5t-150.5 -109.5t-187.5 -41.5q-101 0 -172.5 43t-115 112.5t-58.5 157t-1 176.5l171 987h51l-170 -987q-12 -77 -1 -155t47 -140t98 -101t151 -39t165 37.5t134.5 98.5t97.5 139.5t55 159.5l172 987h52z" />
<glyph unicode="V" d="M499 142l8 -75l34 79l617 1309h58l-685 -1455h-61l-235 1457l55 -1z" />
<glyph unicode="W" d="M278 325l-3 -173l58 182l392 1119v3h51l-2 -3l43 -1128l-2 -175l57 180l352 1125h49l-452 -1455h-49v3l-40 1216l-2 96l-35 -105l-419 -1207l1 -3h-50v1456h49z" />
<glyph unicode="X" d="M641 786l515 669h67l-554 -716l344 -739h-61l-320 700l-538 -700h-64l575 747l-332 710h62z" />
<glyph unicode="Y" d="M577 604l581 851h64l-625 -906l-94 -549h-52l95 558l-311 899h64z" />
<glyph unicode="Z" d="M123 54h802l-7 -54h-871l5 44l986 1359h-740l7 53h812l-4 -38z" />
<glyph unicode="[" d="M910 1610h-234l-292 -1868h233l-7 -54h-290l309 1976h288z" />
<glyph unicode="\" d="M421 1457h56l318 -1583h-56z" />
<glyph unicode="]" d="M606 1664h289l-309 -1976h-287l7 54h233l291 1868h-231z" />
<glyph unicode="^" d="M734 1380l-412 -720h-60l455 796h51l185 -798h-59z" />
<glyph unicode="_" d="M895 -54h-822l7 54h822z" />
<glyph unicode="`" d="M818 1249h-55l-144 268h62z" />
<glyph unicode="a" d="M856 0q-2 52 3 101.5t15 100.5q-43 -52 -95.5 -93.5t-112 -70t-124.5 -44t-133 -14.5q-63 1 -120 21.5t-97.5 58.5t-61 92t-9.5 122q10 65 39.5 114.5t73 86t97 61t111.5 39.5t118 21.5t116 7.5h263l28 158q10 69 -7.5 122t-55.5 89.5t-93.5 55.5t-120.5 19t-127.5 -17 t-116 -50.5t-93.5 -82.5t-59 -113l-54 2q19 75 63.5 133.5t105.5 98.5t133 61.5t147 21.5q76 0 141.5 -23t111.5 -67.5t67.5 -108t10.5 -143.5l-94 -542q-8 -53 -7.5 -104.5t0.5 -104.5l-1 -9h-62zM408 33q73 -2 141.5 16.5t129 53t112.5 83t93 107.5l46 256h-251 q-48 0 -101 -5.5t-106 -17.5t-102 -32t-89.5 -51t-68.5 -73.5t-38 -99.5q-10 -55 7 -98.5t50.5 -74t80 -47t96.5 -17.5z" />
<glyph unicode="b" d="M1011 531q-12 -64 -33 -130t-52.5 -127t-73 -114.5t-94 -93.5t-115.5 -63t-137 -23q-48 0 -94 12t-86.5 35t-73.5 56.5t-55 76.5l-30 -160h-53l264 1536h54l-114 -638q33 43 74 80t88.5 64.5t99.5 43.5t108 16q76 0 132 -24t95.5 -64.5t63.5 -95t35 -116t10 -125.5 t-10 -125zM958 552q9 52 11 109t-5 112t-25.5 105t-51 87.5t-81.5 60t-116 22.5q-57 0 -117 -20.5t-113.5 -56t-95 -83.5t-60.5 -103l-94 -524q11 -53 39 -95.5t67 -71.5t88 -44.5t102 -15.5q67 0 123 21.5t102 57.5t83 84t64.5 103t46 114t29.5 117z" />
<glyph unicode="c" d="M508 34q71 0 134 21t114.5 59.5t90 92.5t60.5 120h54q-22 -77 -65 -141t-102 -109.5t-131.5 -71t-153.5 -25.5q-74 0 -131.5 22.5t-100 61.5t-69.5 91.5t-41.5 112.5t-16 124.5t8.5 127.5l7 42q18 99 61 195.5t109 173t155 124t200 47.5q83 0 148 -29t109.5 -79.5 t65.5 -119.5t17 -149h-53q4 69 -13 128t-54 102.5t-92.5 68t-126.5 24.5q-67 0 -124.5 -19.5t-106 -54t-88 -81t-69.5 -100.5t-51 -113t-32 -118l-8 -42q-9 -55 -9.5 -112.5t10 -111.5t32.5 -101.5t58 -83t86.5 -56.5t117.5 -21z" />
<glyph unicode="d" d="M162 552q11 65 32.5 131t53 127t73 114.5t94 93t115.5 62t138 22.5q51 0 97.5 -15t85.5 -42t69.5 -65t50.5 -84l112 640h54l-264 -1536h-54l31 162q-34 -40 -75.5 -73.5t-89 -57.5t-98.5 -37.5t-105 -13.5q-75 0 -130.5 24t-94.5 65.5t-63 96t-35 116t-10.5 125.5 t9.5 124zM214 531q-9 -52 -11.5 -109t5 -112t25.5 -104.5t50.5 -87.5t81 -60.5t115.5 -23.5q58 0 113.5 16t105 45.5t91 70t71.5 89.5l95 535q-9 55 -33.5 102.5t-62 82t-86 54t-106.5 19.5q-100 0 -176.5 -45t-132 -116.5t-90.5 -160t-51 -174.5z" />
<glyph unicode="e" d="M536 -20q-72 0 -132 22t-107 60t-80 89.5t-52.5 111t-25 125t4.5 130.5l8 44q12 66 37 131.5t62 125.5t84.5 112t104.5 90t122 59.5t138 21.5q96 0 166 -39.5t113.5 -104.5t59 -148t3.5 -170l-10 -63h-821l-3 -15l-9 -44q-15 -86 -1 -172.5t57 -155.5t113.5 -112.5 t166.5 -44.5q103 -1 191 39t162 109l37 -29q-78 -81 -176.5 -126.5t-212.5 -45.5zM701 1048q-90 0 -166 -36t-136.5 -94.5t-105 -133.5t-72.5 -153h762l3 13q15 73 2.5 145.5t-49 129.5t-97 93t-141.5 36z" />
<glyph unicode="f" horiz-adv-x="1203" d="M1050 1027h-432l-174 -1027h-63l180 1027h-283l8 55h285l17 95q18 94 59 165t101.5 118.5t139 72t172.5 24.5q92 0 182 -18l-15 -50q-41 8 -82 11t-83 3q-82 -1 -151 -21t-123 -60.5t-90.5 -101.5t-53.5 -143l-17 -95h430z" />
<glyph unicode="g" d="M164 552q11 65 32.5 131t53 127t73 114.5t94 93t115.5 62t138 22.5q51 0 97 -14.5t85 -41.5t69.5 -65t50.5 -84l34 185h55l-184 -1067q-17 -89 -56.5 -170.5t-99.5 -143.5t-139.5 -99.5t-175.5 -37.5q-103 0 -183 49.5t-135 134.5l41 34q48 -74 115.5 -119.5t158.5 -45.5 q86 0 156 33t123 88t88.5 127t51.5 150l29 145q-34 -40 -75.5 -73t-88.5 -57t-98.5 -37t-104.5 -13q-75 0 -130.5 24t-94.5 65.5t-63 96t-35 116t-10.5 125.5t9.5 124zM215 531q-9 -52 -11 -109t5 -112t25.5 -104.5t51 -87.5t81 -60.5t115.5 -23.5q59 0 115 16.5t105.5 47 t90.5 72.5t70 92l93 521q-8 56 -32 104.5t-60.5 84t-85.5 56t-108 20.5q-100 0 -177 -45t-132.5 -116.5t-90.5 -160t-51 -174.5z" />
<glyph unicode="h" d="M295 821q36 58 82.5 109t102 89t119.5 60.5t135 22.5q89 0 149.5 -33t95 -88.5t44 -128.5t-2.5 -152l-120 -700h-55l121 700q11 67 5.5 130.5t-32.5 112t-77.5 78t-129.5 28.5q-71 -1 -142.5 -29.5t-134 -76.5t-109 -110.5t-67.5 -130.5l-121 -702h-55l265 1536h54z" />
<glyph unicode="i" d="M314 1082h440l-178 -1028h371l-7 -54h-812l8 54h385l170 974h-384zM709 1391q4 32 25 52.5t53 20.5q34 0 49.5 -22t10.5 -53q-5 -30 -26.5 -50.5t-53.5 -19.5q-32 2 -47.5 21.5t-10.5 50.5z" />
<glyph unicode="j" d="M376 1082h463l-187 -1076q-16 -89 -53 -168.5t-94.5 -140t-134.5 -97t-173 -37.5q-51 -1 -100.5 4t-99.5 13l11 47q46 -6 92 -9t93 -2q86 1 154 32.5t119 84.5t84 123t48 150l177 1022h-406zM786 1392q5 32 26.5 52.5t53.5 20.5q34 0 49.5 -22t10.5 -53t-26.5 -50 t-53.5 -20q-32 0 -48.5 20t-11.5 52z" />
<glyph unicode="k" d="M471 585l-5 -3l-189 -138l-77 -444h-54l264 1536h55l-177 -1026l150 118l586 454h86l-597 -463l438 -619h-68z" />
<glyph unicode="l" d="M393 1536h444l-257 -1482h367l-7 -54h-812l8 54h389l248 1428h-388z" />
<glyph unicode="m" d="M215 1082l-27 -142q48 73 116.5 117t159.5 45q83 1 135.5 -41.5t61.5 -125.5q51 74 125.5 120t166.5 47q68 0 110 -26t63.5 -68.5t25 -97t-5.5 -110.5l-140 -800h-49l137 800q7 44 7 88.5t-14.5 80.5t-46.5 58t-88 21q-53 0 -96.5 -17t-79 -45.5t-64 -67t-50.5 -82.5 q0 -4 -0.5 -8t-0.5 -8l-145 -820h-49l140 820q7 43 5 84.5t-17.5 74t-47.5 51.5t-85 19q-56 -1 -103.5 -22.5t-85 -57.5t-64.5 -83t-42 -98l-139 -788h-49l187 1082h49z" />
<glyph unicode="n" d="M294 822q36 58 82.5 108.5t102 88.5t119 60.5t134.5 22.5q89 0 149.5 -33t94.5 -89t43 -128.5t-3 -151.5l-119 -700h-55l121 700q11 67 5.5 130.5t-32.5 112t-77.5 78t-128.5 28.5q-71 -1 -142.5 -29.5t-133.5 -76.5t-108.5 -110.5t-67.5 -130.5l-121 -702h-55l186 1082 h55l-49 -260v0z" />
<glyph unicode="o" d="M129 562q19 101 65.5 198t117 173t163 122.5t203.5 46.5q74 0 133 -22t103.5 -60.5t75 -91t47 -112.5t20 -125t-6.5 -129l-7 -42q-18 -101 -64.5 -198t-117 -173t-163 -122.5t-203.5 -46.5q-74 0 -133 22t-103.5 60.5t-75 91t-47.5 112.5t-20.5 125t6.5 129zM176 520 q-14 -84 -2.5 -170.5t50 -156.5t105.5 -114.5t166 -44.5t181.5 42.5t146 111.5t105.5 156t60 176l8 42q9 56 7 113.5t-15.5 111.5t-39 101.5t-64 83t-90 56t-116.5 20.5q-98 0 -181 -42.5t-146.5 -111.5t-106 -156t-60.5 -176z" />
<glyph unicode="p" d="M1007 531q-12 -64 -33 -130t-52.5 -127t-73 -114.5t-94 -93.5t-115.5 -63t-137 -23q-48 0 -94 12t-86.5 34.5t-74 55.5t-55.5 76l-101 -574h-53l258 1498h54l-35 -180q33 42 74 78.5t88.5 63.5t99.5 42.5t108 15.5q75 0 131.5 -24t95.5 -64.5t63 -95t35 -116t10 -125.5 t-10 -125zM955 552q9 52 11 109t-5.5 112t-26 105t-51 87.5t-81.5 60t-116 22.5q-63 0 -120 -20.5t-106.5 -55.5t-89.5 -82t-69 -100l-95 -534q12 -53 40 -94t67.5 -69.5t88 -43.5t101.5 -15q66 0 122.5 21.5t102.5 57.5t82.5 84t64.5 103t47 114t30 117z" />
<glyph unicode="q" d="M163 552q12 65 33 131t52.5 127t73 114.5t94 93t115.5 62t138 22.5q51 0 97 -14t85 -40.5t70 -63.5t52 -82l33 180h54l-258 -1498h-54l102 573q-35 -39 -76.5 -71.5t-88.5 -56t-98 -36.5t-104 -13q-75 0 -130.5 24.5t-94.5 65.5t-63 96t-35 116t-10.5 125t9.5 124z M215 531q-9 -52 -11.5 -109t5 -112t25.5 -104.5t50.5 -87.5t81 -60.5t115.5 -23.5q58 0 113.5 16t105 45.5t91 70t71.5 89.5l95 536q-10 54 -34.5 101t-62 81.5t-86 54.5t-105.5 20q-67 0 -123 -21t-102.5 -57t-83 -84.5t-64.5 -103.5t-47 -114t-30 -116z" />
<glyph unicode="r" d="M990 1102q35 0 69.5 -5t68.5 -11l-12 -50q-32 5 -63.5 9t-63.5 4q-84 0 -169 -23.5t-158 -69.5t-128.5 -112.5t-80.5 -152.5l-117 -691h-61l186 1082h53l-28 -188l-15 -69q44 67 100.5 119t122.5 87t141 53t155 18z" />
<glyph unicode="s" d="M920 265q8 44 -2 78.5t-33 61.5t-56 47.5t-69.5 35.5t-74.5 25.5t-70 18.5q-39 9 -82 20.5t-83.5 27t-76.5 37.5t-61 52t-37 69.5t-4 90.5q10 72 53 124t102.5 85t129 48.5t134.5 15.5q73 0 140.5 -18t118.5 -56t80.5 -96t26.5 -139h-55q5 67 -20.5 115.5t-70 79.5 t-102.5 45.5t-117 14.5q-53 0 -112.5 -11.5t-112 -37t-91 -67t-50.5 -101.5q-8 -45 2 -78.5t33 -59t56 -43.5t70 -31.5t74.5 -22.5t69.5 -17q40 -10 83.5 -22.5t84 -30t76.5 -41.5t60.5 -56t36 -72.5t3.5 -92.5q-11 -77 -56 -130.5t-108 -88t-136.5 -50t-140.5 -15.5 q-71 0 -140.5 15.5t-125 51t-89.5 91.5t-32 137h54q0 -69 29.5 -115.5t77 -74.5t106.5 -39.5t119 -11.5q56 0 119 12.5t119 40t97 71.5t53 107z" />
<glyph unicode="t" d="M690 1374l-51 -292h378l-8 -55h-379l-134 -768q-9 -58 4 -100t42.5 -69.5t73.5 -41t98 -14.5q41 -1 80.5 2t79.5 7l4 -52q-40 -7 -79.5 -9.5t-79.5 -1.5q-67 1 -122.5 17.5t-93.5 50.5t-55.5 86.5t-7.5 124.5l133 768h-307l7 55h309l51 292h57z" />
<glyph unicode="u" d="M831 0l38 193q-72 -102 -176.5 -157.5t-231.5 -55.5q-90 0 -151 35t-95.5 93t-43.5 132.5t3 154.5l118 687h54l-119 -689q-11 -66 -5.5 -130.5t32.5 -115t77 -81.5t128 -32q69 0 137 20.5t126.5 59.5t102.5 94.5t64 124.5l128 749h56l-186 -1082h-56z" />
<glyph unicode="v" d="M511 81l578 1000h62l-622 -1081h-54l-288 1083h59z" />
<glyph unicode="w" d="M251 308l3 -203l89 212l318 765h50l56 -774l12 -204l79 214l302 763h58l-427 -1081h-49l-67 818l-3 162l-67 -171l-343 -809h-49l-56 1082h56z" />
<glyph unicode="x" d="M607 603l446 478l74 -1l-492 -528l345 -552h-67l-316 507l-473 -507h-73l518 558l-328 525h69z" />
<glyph unicode="y" d="M510 74l18 31l597 976h66l-768 -1261q-31 -51 -68.5 -97.5t-82.5 -81.5t-98.5 -56.5t-117.5 -21.5q-23 0 -44.5 3t-44.5 8l5 51l38 -6t39 -3q53 0 99.5 17t85.5 46.5t72 68.5t59 82l106 177l-307 1076h61z" />
<glyph unicode="z" d="M129 54h863l-6 -54h-946l7 44l951 983h-763l7 55l845 -1l-8 -47z" />
<glyph unicode="{" d="M782 -440q-78 28 -134.5 73t-91.5 103.5t-47 130t-1 153.5l39 245q17 127 -42.5 197t-184.5 81l2 23l3 20l3 23q126 11 208.5 80.5t106.5 195.5l38 247q15 88 50 161t88.5 131.5t123 101.5t152.5 71l10 -46q-146 -51 -243.5 -158t-125.5 -261l-38 -247 q-21 -123 -95.5 -202t-194.5 -108q55 -15 95 -44.5t64 -69.5t32 -90t1 -106l-38 -245q-21 -149 43 -255t201 -161z" />
<glyph unicode="|" d="M489 -270h-54l268 1726h54z" />
<glyph unicode="}" d="M172 -394q72 26 133.5 65.5t110 91t81.5 116t47 141.5l38 245q21 124 95.5 203t195.5 109q-56 15 -96 44t-64 69t-32.5 89.5t-1.5 105.5l39 247q21 147 -39 257t-199 164l21 43q155 -59 224.5 -179t46.5 -285l-39 -247q-18 -126 41.5 -195.5t184.5 -80.5l-3 -23h1l-1 -10 v-10h-1l-2 -23q-127 -10 -209.5 -80.5t-106.5 -197.5l-38 -245q-15 -88 -50 -160.5t-88.5 -130.5t-123 -100.5t-152.5 -69.5z" />
<glyph unicode="~" d="M1147 751q-12 -58 -36.5 -113t-62.5 -98t-89.5 -69.5t-117.5 -27.5q-42 0 -78.5 12.5t-69.5 33.5t-62.5 48t-56.5 56q-23 24 -47 47t-51 41t-57.5 28.5t-66.5 10.5q-55 -1 -97 -23t-72 -58t-50 -82t-31 -94h-55q12 58 36.5 114t62 99.5t89 70t117.5 27.5q42 0 79 -12 t70 -33t63 -48.5t57 -56.5q22 -24 46 -47t51 -41t57.5 -29t65.5 -11q55 1 96.5 23t72 58t50.5 81.5t31 93.5z" />
<glyph unicode="&#xa0;" />
<glyph unicode="&#xa1;" d="M592 696h54l-181 -1055h-55zM729 1046q-2 -10 -8 -20t-15 -17.5t-20 -12t-21 -4.5q-21 1 -36.5 18.5t-12.5 39.5q4 20 23.5 36.5t40.5 16.5q21 -1 36.5 -18t12.5 -39z" />
<glyph unicode="&#xa2;" d="M513 34q71 0 134 21t114.5 59.5t90 92.5t60.5 120h54q-21 -73 -60.5 -134t-94 -106t-121.5 -72.5t-142 -33.5l-38 -226h-56l38 226q-70 3 -124 27.5t-94 64t-65.5 91t-38.5 110.5t-14.5 122t8.5 124l7 42q18 98 60 193.5t107 172t152.5 124.5t196.5 50l37 216h56 l-37 -219q72 -8 128.5 -39.5t94.5 -81.5t56 -114.5t14 -138.5h-53q4 69 -13 128t-54 102.5t-92.5 68t-126.5 24.5q-67 0 -124.5 -19.5t-106 -54t-88 -81t-69.5 -100.5t-51 -113t-32 -118l-8 -42q-9 -55 -9.5 -112.5t10 -111.5t32.5 -101.5t58 -83t86.5 -56.5t117.5 -21z" />
<glyph unicode="&#xa3;" d="M419 667l-47 -331q-12 -79 -37.5 -151t-80.5 -132l736 1l-7 -54h-932l7 54h114q38 21 63 53t41.5 69.5t25.5 78.5t15 81l48 331h-202l7 54h203l45 318q13 81 48 159.5t89.5 140t127 99.5t162.5 38q85 0 145.5 -31.5t98 -85t52 -123.5t5.5 -147h-53q8 66 -2 126t-40 106.5 t-80.5 73.5t-124.5 27q-78 -1 -141.5 -34t-111 -87t-78 -122.5t-42.5 -139.5l-47 -318h358l-7 -54h-358z" />
<glyph unicode="&#xa4;" d="M880 151q-38 -37 -79.5 -68t-87.5 -54t-96 -36t-104 -13q-98 0 -176.5 44.5t-132.5 125.5l-177 -176l-34 41l182 181q-43 97 -55 202t5 210q20 118 72.5 226t130.5 199l-124 194l41 37l120 -188q37 34 78 63t85.5 50t92.5 33t99 12q94 0 170.5 -41.5t130.5 -117.5 l192 190l35 -42l-195 -195q47 -98 59.5 -205.5t-4.5 -214.5q-20 -114 -69 -218t-123 -193l121 -186l-42 -38zM180 608q-11 -58 -10.5 -123.5t13.5 -129.5t38.5 -122t66 -102.5t96 -71t128.5 -26.5q72 0 137.5 25t121.5 67.5t103 99t83 120.5t60 131.5t36 131.5q10 58 10 123 t-13 129t-38.5 122t-66 102t-96.5 70.5t-128 26.5q-73 0 -138 -24.5t-121 -67t-103 -99t-83 -120t-60.5 -131t-35.5 -131.5z" />
<glyph unicode="&#xa5;" d="M1204 1455l67 -1l-605 -778h406l-7 -55h-438l-42 -240h436l-7 -55h-438l-56 -326h-54l55 326h-433l7 55h435l43 240h-434l8 55h410l-339 781h62l313 -719l13 -51h4l33 51z" />
<glyph unicode="&#xa6;" d="M408 -270l129 752h54l-129 -752h-54zM630 698h-54l130 758h54z" />
<glyph unicode="&#xa7;" d="M1041 431q-11 -65 -44.5 -111.5t-80.5 -78.5t-104 -51t-115 -28q49 -23 89.5 -52.5t68.5 -68t40 -85.5t3 -105q-14 -88 -62.5 -153t-117 -108t-150.5 -64t-163 -21q-98 0 -176.5 30.5t-132 86.5t-78.5 135.5t-14 178.5l54 2q-10 -87 10.5 -157t66.5 -119.5t114.5 -76 t155.5 -26.5q69 0 140.5 17t132.5 53t105 90.5t59 129.5q10 50 1.5 90.5t-30.5 72t-55 55.5t-71.5 42.5t-80 32t-80.5 24.5q-47 13 -99 29.5t-101 39t-91.5 51t-72.5 67t-43 87.5t-2 111q10 62 40 109t73.5 80t97 54.5t110.5 32.5q-46 23 -82.5 53t-60.5 67.5t-33.5 82.5 t-0.5 99q14 87 62.5 152.5t117 108.5t150.5 64.5t163 21.5q97 0 171.5 -32t122.5 -89.5t68.5 -136.5t9.5 -173h-53q9 80 -8.5 148.5t-58.5 119t-104.5 79.5t-146.5 30q-71 1 -142.5 -16t-132.5 -53t-105.5 -91t-59.5 -130q-15 -77 10.5 -131.5t75 -92t112.5 -62t123 -42.5 q46 -14 97 -29.5t99.5 -36.5t91 -48.5t72.5 -64.5t43 -84.5t2 -109.5zM614 766q-24 7 -47.5 14.5t-47.5 15.5q-57 -5 -113.5 -20.5t-104.5 -44t-82.5 -72.5t-47.5 -106q-12 -57 -0.5 -100.5t39 -76.5t67.5 -58t85.5 -43.5t92 -33t87.5 -26.5l60 -19q57 3 119 15.5t116 39 t94.5 69.5t54.5 108q12 55 0.5 98.5t-39.5 77t-68.5 58.5t-86 44.5t-92 33.5t-86.5 26z" />
<glyph unicode="&#xa8;" d="M451 1422q3 20 22 37.5t39 17.5q11 0 20.5 -5t16.5 -13.5t10 -18.5t2 -20q-3 -20 -22.5 -37t-39.5 -17q-21 1 -35.5 18.5t-12.5 37.5zM883 1422q3 20 22 37.5t39 17.5q21 0 36 -18.5t13 -38.5q-3 -20 -22.5 -37t-39.5 -17q-21 1 -36 18.5t-12 37.5z" />
<glyph unicode="&#xa9;" d="M798 455q-8 -49 -29 -92t-54 -74.5t-76 -49t-95 -17.5q-62 0 -102.5 29t-63.5 73.5t-29.5 98.5t-0.5 106l7 48q9 54 31.5 107.5t58 95.5t83.5 68t109 27q51 0 89.5 -16.5t64 -46.5t35.5 -71.5t4 -89.5h-47q0 37 -7 68.5t-24 54t-45 35.5t-69 13q-50 0 -88.5 -22t-67 -57 t-46.5 -78.5t-26 -86.5l-8 -49q-6 -40 -3.5 -84t18 -80.5t46 -61t81.5 -25.5q43 -1 76 12.5t58 37.5t42.5 57t29.5 70h48zM128 551q-16 -97 2 -190t67.5 -165.5t128.5 -117t186 -44.5t200.5 42.5t166 114t120.5 165t65 195.5q16 96 -3.5 186.5t-69.5 160t-129.5 111.5 t-182.5 42q-105 0 -197.5 -40.5t-165.5 -109t-122 -159.5t-66 -191zM73 551q17 112 70 213t133 177t183 120.5t220 44.5q115 0 204.5 -46t147.5 -123t81.5 -177t7.5 -209q-17 -114 -69.5 -217.5t-132.5 -182t-183.5 -125.5t-222.5 -47q-79 0 -145 22t-118.5 61.5t-90.5 93 t-60.5 117t-29 134.5t4.5 144z" />
<glyph unicode="&#xaa;" d="M846 704q-2 32 -2 62t5 62q-51 -59 -119 -97t-148 -40q-47 0 -90 13.5t-74.5 40t-47 65.5t-7.5 90q10 64 45.5 107.5t86 71t109.5 40t115 13.5h174l14 69q7 44 1.5 83.5t-24.5 69.5t-52.5 48.5t-81.5 19.5q-47 1 -90 -9.5t-79 -33t-63 -56t-42 -79.5h-55q16 56 47.5 99.5 t75 73t96 44.5t109.5 15q60 0 103.5 -22.5t70.5 -60.5t36.5 -88t2.5 -105l-54 -314q-15 -89 -4 -181zM582 746q41 1 81.5 12.5t76.5 32.5t65.5 50t49.5 65l32 172h-166q-46 -1 -95 -8.5t-92 -27t-75 -53t-42 -85.5q-8 -41 3 -70.5t35 -49t57.5 -29t69.5 -9.5z" />
<glyph unicode="&#xab;" d="M323 521l221 -376h-66l-226 371l3 19l348 369l72 -1zM647 521l221 -376h-66l-226 371l3 19l348 369l72 -1z" />
<glyph unicode="&#xac;" d="M936 396h-53l52 304h-716l7 53h770z" />
<glyph unicode="&#xad;" horiz-adv-x="1203" d="M938 639h-698l7 54h698z" />
<glyph unicode="&#xae;" d="M68 539q17 113 69.5 214.5t132.5 177.5t183.5 120.5t221.5 44.5q116 0 205.5 -46t147 -123t80.5 -177.5t7 -210.5q-17 -113 -69.5 -215t-132.5 -178.5t-183 -121.5t-221 -45q-117 0 -206.5 46.5t-147 124t-80.5 178.5t-7 211zM123 539q-16 -98 3 -189t69 -161 t129.5 -112.5t184.5 -42.5q106 0 199 41t165.5 110.5t121 161t65.5 192.5q16 97 -3 188t-69 160.5t-129 111.5t-184 42q-106 0 -199.5 -40.5t-166 -109t-121.5 -159.5t-65 -193zM452 498l-41 -262h-53l95 610h192q39 -2 75 -13.5t61.5 -33.5t38 -55t5.5 -76 q-5 -33 -19.5 -58t-36 -43.5t-48 -31.5t-55.5 -21l111 -279h-56l-104 263h-165zM460 550h149q28 1 54.5 9t48.5 22.5t37.5 36t21.5 51.5q6 31 -2.5 53.5t-27 37.5t-44 22t-52.5 9h-147z" />
<glyph unicode="&#xaf;" d="M1027 1403h-609l6 53h610z" />
<glyph unicode="&#xb0;" d="M478 1236q7 47 31.5 90t60.5 76.5t81 53.5t94 20q47 0 85 -21t63.5 -54.5t36.5 -76.5t4 -88q-7 -47 -31 -89.5t-59 -75t-79.5 -52.5t-92.5 -20t-87 20t-65 53t-37.5 75.5t-4.5 88.5zM533 1236q-7 -35 0 -67.5t25.5 -57.5t47.5 -40.5t66 -15.5t71.5 15t62 39.5t46.5 57.5 t26 69q7 34 1 67t-23.5 59t-45.5 42t-65 16q-38 0 -73.5 -15t-64 -40.5t-48 -59t-26.5 -69.5z" />
<glyph unicode="&#xb1;" d="M666 805h406l-7 -54h-407l-72 -462h-53l71 462h-429l7 54h430l72 462h54zM926 -1h-812l8 54h811z" />
<glyph unicode="&#xb2;" d="M897 667h-528l7 44l329 295q28 25 59 51.5t58.5 56.5t48 63.5t28.5 72.5t-1.5 70t-31 52.5t-53.5 33.5t-69 12q-92 0 -155 -52t-90 -136h-55q14 52 41.5 95.5t66.5 75t87.5 49t103.5 17.5q47 0 88.5 -15t71.5 -43t44 -68t6 -90q-8 -45 -31 -85t-54.5 -75.5t-67 -67 t-67.5 -59.5l-287 -248h458z" />
<glyph unicode="&#xb3;" d="M609 1092h67q38 1 78 10.5t74.5 28.5t60 48.5t34.5 71.5q8 40 -2.5 70.5t-34 51.5t-56.5 32.5t-69 11.5q-85 0 -147.5 -45t-90.5 -123h-54q14 50 42 90t65.5 68t84 43.5t98.5 15.5q47 0 90.5 -15t74.5 -43t46 -68.5t6 -91.5q-6 -37 -24 -65.5t-43.5 -50.5t-57 -37.5 t-64.5 -26.5q34 -10 63 -27t49 -40.5t28.5 -54.5t2.5 -69q-8 -53 -36.5 -94.5t-69.5 -69.5t-90.5 -43t-99.5 -15q-53 0 -98.5 15t-78.5 44t-51.5 71.5t-17.5 97.5h53q-2 -44 12 -77.5t39.5 -56t61.5 -34.5t78 -12q40 0 80.5 11t74 32.5t57.5 54t32 75.5q9 48 -7 79.5 t-46.5 50.5t-70.5 27.5t-78 9.5h-72z" />
<glyph unicode="&#xb4;" d="M794 1515l68 -1l-225 -263l-61 1z" />
<glyph unicode="&#xb5;" d="M351 1082l-110 -642q-7 -44 -9 -91t3.5 -92t20.5 -85.5t42 -70.5t67 -48.5t97 -18.5q88 0 160 32t126.5 87t91 127.5t54.5 153.5l112 648h54l-186 -1082h-52l39 220q-32 -53 -73 -97.5t-90 -76t-106 -49t-121 -17.5q-96 0 -168 50t-107 138l-103 -584h-51l258 1498h51z " />
<glyph unicode="&#xb6;" d="M741 0l90 520h-116q-100 2 -181.5 37.5t-135.5 97.5t-77.5 147t-6.5 186q17 103 67 188t123.5 146.5t166.5 96.5t196 37h180l-252 -1456h-54z" />
<glyph unicode="&#xb7;" d="M566 708q1 10 7 19.5t14.5 17t19 12.5t20.5 5q22 -1 36.5 -19t11.5 -39q-2 -10 -8 -19.5t-14.5 -17t-19 -12t-20.5 -4.5q-21 1 -35.5 18.5t-11.5 38.5z" />
<glyph unicode="&#xb8;" d="M496 0l-26 -77q34 -6 63 -19t49 -33.5t29.5 -49.5t3.5 -67q-8 -54 -40 -89.5t-76.5 -56.5t-96 -30.5t-97.5 -12.5l1 49q35 2 76 9t77.5 22.5t64.5 42t37 67.5q8 37 -6.5 60t-40 36t-57 19t-58.5 10l44 120h53z" />
<glyph unicode="&#xb9;" d="M718 665h-53l124 720l-253 -78l7 52l299 97h11z" />
<glyph unicode="&#xba;" d="M393 1141q12 64 42 124.5t75 107t103.5 75t129.5 28.5q70 0 120 -29t80.5 -76t41 -107t1.5 -123l-19 -117q-12 -65 -42 -125t-74.5 -106.5t-103.5 -74.5t-129 -28t-120 28.5t-80.5 75.5t-41.5 107t-2 123zM427 1024q-8 -52 -2 -102.5t29 -90t63.5 -63.5t100.5 -24 q59 0 108 23.5t86.5 62.5t63 89.5t36.5 104.5l22 117q8 51 1.5 101.5t-29.5 90t-63.5 64.5t-99.5 25t-108.5 -23.5t-87 -63t-63 -90t-36.5 -104.5z" />
<glyph unicode="&#xbb;" d="M366 941l223 -381l-2 -19l-348 -369l-72 1l351 381l-218 387h66zM700 941l223 -381l-2 -19l-348 -369l-72 1l351 381l-218 387h66z" />
<glyph unicode="&#xbc;" d="M360.514 751h-47.7012l111.603 648.018l-227.706 -70.2021l6.30078 46.8018l269.106 87.3018h9.90039zM244 140l-47 32l713 1135l48 -32zM927.317 227.706h127.803l-7.2002 -44.1006h-128.703l-31.501 -183.605h-47.7012l31.501 183.605l-368.11 0.899414 l3.60059 27.9014l447.312 496.812l54.9014 0.900391zM574.508 227.706h304.208l73.8018 419.411l-46.8008 -58.501z" />
<glyph unicode="&#xbd;" d="M220 140l-47 32l713 1135l48 -32zM367.514 747h-47.7012l111.603 648.018l-227.706 -70.2021l6.30078 46.8018l269.106 87.3018h9.90039zM1028.22 0h-475.213l6.2998 39.6016l296.108 265.507q25.2012 22.501 53.1016 46.3516t52.6514 50.8506 q24.751 27.001 43.2012 57.1523q18.4502 30.1504 25.6504 65.251q7.2002 35.1016 -1.34961 63.002q-8.55078 27.9014 -27.9014 47.251q-19.3496 19.3506 -48.1504 30.1514q-28.8008 10.7998 -62.1025 10.7998q-82.8018 0 -139.503 -46.8008 q-56.7021 -46.8018 -81.0029 -122.403h-49.501q12.6006 46.8008 37.3506 85.9521q24.751 39.1514 59.8516 67.502q35.1016 28.3506 78.7529 44.1016q43.6504 15.75 93.1523 15.75q42.3008 0 79.6523 -13.5q37.3506 -13.501 64.3516 -38.7012q27 -25.2012 39.6006 -61.2021 t5.40039 -81.002q-7.2002 -40.501 -27.9004 -76.502q-20.7012 -36.001 -49.0518 -67.9521t-60.3018 -60.3018q-31.9502 -28.3506 -60.751 -53.5508l-258.308 -223.206h412.211z" />
<glyph unicode="&#xbe;" d="M318 132l-47 32l713 1135l48 -32zM950.317 228.706h127.803l-7.2002 -44.1006h-128.703l-31.501 -183.605h-47.7012l31.501 183.605l-368.11 0.899414l3.60059 27.9014l447.312 496.812l54.9014 0.900391zM597.508 228.706h304.208l73.8018 419.411l-46.8008 -58.501z M326.111 1127.41h60.3018q34.2012 0.900391 70.2021 9.4502q36.001 8.55078 67.0518 25.6514q31.0508 17.0996 54.002 43.6504q22.9502 26.5508 31.0508 64.3525q7.2002 36.001 -2.25 63.4512q-9.4502 27.4512 -30.6016 46.3516q-21.1504 18.9004 -50.8506 29.251 q-29.7012 10.3496 -62.1025 10.3496q-76.502 0 -132.753 -40.501q-56.252 -40.501 -81.4521 -110.703h-48.6016q12.6006 45.002 37.8008 81.0029q25.2012 36.001 58.9521 61.2012q33.75 25.2012 75.6016 39.1514t88.6523 13.9502q42.3008 0 81.4521 -13.5 q39.1514 -13.501 67.0518 -38.7012q27.9014 -25.2012 41.4014 -61.6523q13.5 -36.4502 5.40039 -82.3516q-5.40039 -33.3008 -21.6006 -58.9521q-16.2012 -25.6504 -39.1514 -45.4512q-22.9502 -19.7998 -51.3018 -33.751q-28.3506 -13.9502 -58.0508 -23.8506 q30.6006 -9 56.7012 -24.3008q26.1006 -15.2998 44.1016 -36.4502q18 -21.1514 25.6504 -49.0518t2.25 -62.1016q-7.2002 -47.7012 -32.8506 -85.0527q-25.6514 -37.3506 -62.5518 -62.5518q-36.9014 -25.2002 -81.4521 -38.7012q-44.5518 -13.5 -89.5527 -13.5 q-47.7012 0 -88.6523 13.5q-40.9512 13.501 -70.6523 39.6016q-29.7002 26.1006 -46.3506 64.3516t-15.751 87.7529h47.7012q-1.7998 -39.6016 10.8008 -69.752q12.6006 -30.1514 35.5508 -50.4014q22.9502 -20.251 55.3516 -31.0508q32.4014 -10.8008 70.2021 -10.8008 q36.001 0 72.4521 9.90039q36.4502 9.90039 66.6016 29.251q30.1504 19.3506 51.751 48.6016q21.6006 29.25 28.8008 67.9512q8.10059 43.2012 -6.2998 71.5518q-14.4004 28.3516 -41.8516 45.4512q-27.4502 17.1006 -63.4512 24.751t-70.2021 8.55078h-64.8018z" />
<glyph unicode="&#xbf;" d="M664 694q-9 -46 -23 -85.5t-34.5 -75t-47.5 -67.5t-63 -63q-50 -43 -98 -88.5t-88 -96.5t-69 -109t-41 -126q-11 -62 -2 -118.5t38.5 -99t78 -68t115.5 -25.5q69 0 125.5 24.5t100.5 66.5t75 97.5t48 117.5h54q-17 -74 -52 -139t-86 -114t-117.5 -77.5t-146.5 -28.5 q-78 0 -136.5 30t-95.5 80.5t-51 116.5t-2 139q12 74 43 138t74.5 120.5t96 106.5t108.5 95q62 51 94 111t48 139zM639 1048q1 10 7.5 19.5t15.5 17t19.5 12t20.5 4.5q21 -1 35.5 -18.5t11.5 -38.5q-2 -10 -8 -19.5t-14.5 -17t-19 -12.5t-20.5 -5q-21 1 -36 19t-12 39z" />
<glyph unicode="&#xc0;" d="M883 435h-598l-214 -435h-57l713 1456h61l213 -1456h-54zM310 489h566l-127 890zM821 1568h-55l-144 268h62z" />
<glyph unicode="&#xc1;" d="M883 435h-598l-214 -435h-57l713 1456h61l213 -1456h-54zM310 489h566l-127 890zM962 1834l68 -1l-225 -263l-61 1z" />
<glyph unicode="&#xc2;" d="M883 435h-598l-214 -435h-57l713 1456h61l213 -1456h-54zM310 489h566l-127 890zM1033 1593l-2 -10l-65 -1l-146 196l-214 -194h-65l1 14l261 238h40z" />
<glyph unicode="&#xc3;" d="M883 435h-598l-214 -435h-57l713 1456h61l213 -1456h-54zM310 489h566l-127 890zM1115 1805q-9 -35 -25 -68t-40 -59t-55.5 -42t-71.5 -16q-39 0 -68.5 20t-57 43.5t-57 42.5t-67.5 18q-29 0 -50.5 -10.5t-38 -27.5t-28 -39t-20.5 -46h-55q9 35 25 67t40 57t55.5 39.5 t70.5 14.5t68.5 -19.5t57.5 -43t57.5 -42.5t67.5 -18q28 0 50 11.5t38.5 29.5t28.5 41t20 47h55z" />
<glyph unicode="&#xc4;" d="M883 435h-598l-214 -435h-57l713 1456h61l213 -1456h-54zM310 489h566l-127 890zM527 1741q3 20 22 37.5t39 17.5q11 0 20.5 -5t16.5 -13.5t10 -18.5t2 -20q-3 -20 -22.5 -37t-39.5 -17q-21 1 -35.5 18.5t-12.5 37.5zM959 1741q3 20 22 37.5t39 17.5q21 0 36 -18.5 t13 -38.5q-3 -20 -22.5 -37t-39.5 -17q-21 1 -36 18.5t-12 37.5z" />
<glyph unicode="&#xc5;" d="M883 435h-598l-214 -435h-57l713 1456h61l213 -1456h-54zM310 489h566l-127 890zM641 1701q5 33 21.5 64.5t41.5 55.5t56 39t66 15q34 0 61.5 -15t45.5 -40t25.5 -56t2.5 -63q-5 -33 -22 -64t-42 -54t-56.5 -37.5t-65.5 -14.5t-61 14.5t-45 38.5t-25.5 54.5t-2.5 62.5z M695 1701q-4 -21 -0.5 -41.5t14 -37t27.5 -26.5t40 -10q24 0 46 9.5t39 25.5t29 37t17 43q4 21 1 42.5t-13.5 38.5t-28 27.5t-41.5 10.5t-45.5 -10t-39 -26.5t-29.5 -38.5t-16 -44z" />
<glyph unicode="&#xc6;" d="M1012 0h-465l64 425h-358l-227 -425h-55l779 1456h475l-7 -54h-415l-92 -616h349l-7 -54h-349l-101 -678h416zM281 478h337l130 871z" />
<glyph unicode="&#xc7;" d="M1024 445q-26 -91 -74 -175t-115 -149t-152.5 -103.5t-187.5 -37.5q-83 1 -144.5 30.5t-104 78.5t-68 113.5t-37 135.5t-10.5 143.5t11 137.5l37 218q13 71 37 145.5t59.5 145.5t82.5 133.5t105.5 110t129 75.5t152.5 29q99 1 172 -38t119.5 -103.5t67.5 -148.5t18 -174 h-52q0 78 -17.5 152t-56 131.5t-100.5 92.5t-151 34q-74 -1 -137.5 -26.5t-116.5 -69.5t-95 -101.5t-74 -122t-54 -132.5t-34 -131l-39 -220q-9 -57 -11.5 -122t6 -130t29 -124.5t57 -105.5t90.5 -74t129 -29q92 -1 167 33.5t134 92t102 132t72 153.5h54zM512 -9l-26 -77 q34 -6 63 -19t49 -33.5t29.5 -49.5t3.5 -67q-8 -54 -40 -89.5t-76.5 -56.5t-96 -30.5t-97.5 -12.5l1 49q35 2 76 9t77.5 22.5t64.5 42t37 67.5q8 37 -6.5 60t-40 36t-57 19t-58.5 10l44 120h53z" />
<glyph unicode="&#xc8;" d="M945 722h-658l-116 -668h748l-7 -54h-803l252 1456h801l-7 -54h-750l-109 -626h656zM722 1568h-55l-144 268h62z" />
<glyph unicode="&#xc9;" d="M945 722h-658l-116 -668h748l-7 -54h-803l252 1456h801l-7 -54h-750l-109 -626h656zM862 1834l68 -1l-225 -263l-61 1z" />
<glyph unicode="&#xca;" d="M945 722h-658l-116 -668h748l-7 -54h-803l252 1456h801l-7 -54h-750l-109 -626h656zM934 1593l-2 -10l-65 -1l-146 196l-214 -194h-65l1 14l261 238h40z" />
<glyph unicode="&#xcb;" d="M945 722h-658l-116 -668h748l-7 -54h-803l252 1456h801l-7 -54h-750l-109 -626h656zM428 1741q3 20 22 37.5t39 17.5q11 0 20.5 -5t16.5 -13.5t10 -18.5t2 -20q-3 -20 -22.5 -37t-39.5 -17q-21 1 -35.5 18.5t-12.5 37.5zM860 1741q3 20 22 37.5t39 17.5q21 0 36 -18.5 t13 -38.5q-3 -20 -22.5 -37t-39.5 -17q-21 1 -36 18.5t-12 37.5z" />
<glyph unicode="&#xcc;" d="M353 1456h783l-8 -56h-370l-234 -1346h369l-8 -54h-783l8 54h356l234 1346h-355zM824 1568h-55l-144 268h62z" />
<glyph unicode="&#xcd;" d="M353 1456h783l-8 -56h-370l-234 -1346h369l-8 -54h-783l8 54h356l234 1346h-355zM965 1834l68 -1l-225 -263l-61 1z" />
<glyph unicode="&#xce;" d="M353 1456h783l-8 -56h-370l-234 -1346h369l-8 -54h-783l8 54h356l234 1346h-355zM1036 1593l-2 -10l-65 -1l-146 196l-214 -194h-65l1 14l261 238h40z" />
<glyph unicode="&#xcf;" d="M353 1456h783l-8 -56h-370l-234 -1346h369l-8 -54h-783l8 54h356l234 1346h-355zM530 1741q3 20 22 37.5t39 17.5q11 0 20.5 -5t16.5 -13.5t10 -18.5t2 -20q-3 -20 -22.5 -37t-39.5 -17q-21 1 -35.5 18.5t-12.5 37.5zM962 1741q3 20 22 37.5t39 17.5q21 0 36 -18.5 t13 -38.5q-3 -20 -22.5 -37t-39.5 -17q-21 1 -36 18.5t-12 37.5z" />
<glyph unicode="&#xd0;" horiz-adv-x="1232" d="M119 0l124 713h-266l8 54h267l120 689h351q84 -2 151 -30t118 -74.5t85.5 -108.5t53.5 -132t22 -145.5t-8 -148.5l-30 -178q-14 -77 -43 -154t-71.5 -147.5t-97 -131t-120.5 -105.5t-142 -72t-161 -29h-361zM548 713h-253l-114 -659h299q77 2 146 27t129 66.5t110 97 t89 120t65.5 134.5t40.5 140l32 181q10 65 8 133t-17.5 132t-45 120.5t-74 99.5t-104.5 69t-136 28h-308l-110 -635h251z" />
<glyph unicode="&#xd1;" d="M918 0h-49l-513 1365l-234 -1365h-51l250 1456h49l512 -1362l234 1362h52zM1117 1805q-9 -35 -25 -68t-40 -59t-55.5 -42t-71.5 -16q-39 0 -68.5 20t-57 43.5t-57 42.5t-67.5 18q-29 0 -50.5 -10.5t-38 -27.5t-28 -39t-20.5 -46h-55q9 35 25 67t40 57t55.5 39.5 t70.5 14.5t68.5 -19.5t57.5 -43t57.5 -42.5t67.5 -18q28 0 50 11.5t38.5 29.5t28.5 41t20 47h55z" />
<glyph unicode="&#xd2;" d="M1058 619q-13 -70 -36.5 -145t-59 -146t-82 -134t-104.5 -110.5t-128.5 -75.5t-152.5 -28q-83 0 -144 29.5t-104 79t-68.5 114t-37.5 135.5t-11 143.5t11 137.5l37 218q13 70 37 145t59 146t82 134t105.5 111t128.5 75.5t153 27.5t144.5 -29.5t104 -79t68 -114t37 -135.5 t10 -143.5t-11.5 -137.5zM1043 839q9 57 11.5 122.5t-5.5 130t-28.5 124.5t-57 105.5t-91 73t-129.5 27.5q-74 0 -137.5 -25.5t-116 -69.5t-94.5 -102t-74 -122.5t-53.5 -132.5t-33.5 -131l-39 -220q-9 -57 -11.5 -122.5t5.5 -130.5t28.5 -125t57 -106t90.5 -73.5t130 -27.5 q75 0 138.5 25.5t116 69.5t94.5 102t73.5 123t53 133t33.5 132zM817 1589h-55l-144 268h62z" />
<glyph unicode="&#xd3;" d="M1058 619q-13 -70 -36.5 -145t-59 -146t-82 -134t-104.5 -110.5t-128.5 -75.5t-152.5 -28q-83 0 -144 29.5t-104 79t-68.5 114t-37.5 135.5t-11 143.5t11 137.5l37 218q13 70 37 145t59 146t82 134t105.5 111t128.5 75.5t153 27.5t144.5 -29.5t104 -79t68 -114t37 -135.5 t10 -143.5t-11.5 -137.5zM1043 839q9 57 11.5 122.5t-5.5 130t-28.5 124.5t-57 105.5t-91 73t-129.5 27.5q-74 0 -137.5 -25.5t-116 -69.5t-94.5 -102t-74 -122.5t-53.5 -132.5t-33.5 -131l-39 -220q-9 -57 -11.5 -122.5t5.5 -130.5t28.5 -125t57 -106t90.5 -73.5t130 -27.5 q75 0 138.5 25.5t116 69.5t94.5 102t73.5 123t53 133t33.5 132zM957 1855l68 -1l-225 -263l-61 1z" />
<glyph unicode="&#xd4;" d="M1058 619q-13 -70 -36.5 -145t-59 -146t-82 -134t-104.5 -110.5t-128.5 -75.5t-152.5 -28q-83 0 -144 29.5t-104 79t-68.5 114t-37.5 135.5t-11 143.5t11 137.5l37 218q13 70 37 145t59 146t82 134t105.5 111t128.5 75.5t153 27.5t144.5 -29.5t104 -79t68 -114t37 -135.5 t10 -143.5t-11.5 -137.5zM1043 839q9 57 11.5 122.5t-5.5 130t-28.5 124.5t-57 105.5t-91 73t-129.5 27.5q-74 0 -137.5 -25.5t-116 -69.5t-94.5 -102t-74 -122.5t-53.5 -132.5t-33.5 -131l-39 -220q-9 -57 -11.5 -122.5t5.5 -130.5t28.5 -125t57 -106t90.5 -73.5t130 -27.5 q75 0 138.5 25.5t116 69.5t94.5 102t73.5 123t53 133t33.5 132zM1028 1614l-2 -10l-65 -1l-146 196l-214 -194h-65l1 14l261 238h40z" />
<glyph unicode="&#xd5;" d="M1058 619q-13 -70 -36.5 -145t-59 -146t-82 -134t-104.5 -110.5t-128.5 -75.5t-152.5 -28q-83 0 -144 29.5t-104 79t-68.5 114t-37.5 135.5t-11 143.5t11 137.5l37 218q13 70 37 145t59 146t82 134t105.5 111t128.5 75.5t153 27.5t144.5 -29.5t104 -79t68 -114t37 -135.5 t10 -143.5t-11.5 -137.5zM1043 839q9 57 11.5 122.5t-5.5 130t-28.5 124.5t-57 105.5t-91 73t-129.5 27.5q-74 0 -137.5 -25.5t-116 -69.5t-94.5 -102t-74 -122.5t-53.5 -132.5t-33.5 -131l-39 -220q-9 -57 -11.5 -122.5t5.5 -130.5t28.5 -125t57 -106t90.5 -73.5t130 -27.5 q75 0 138.5 25.5t116 69.5t94.5 102t73.5 123t53 133t33.5 132zM1110 1826q-9 -35 -25 -68t-40 -59t-55.5 -42t-71.5 -16q-39 0 -68.5 20t-57 43.5t-57 42.5t-67.5 18q-29 0 -50.5 -10.5t-38 -27.5t-28 -39t-20.5 -46h-55q9 35 25 67t40 57t55.5 39.5t70.5 14.5t68.5 -19.5 t57.5 -43t57.5 -42.5t67.5 -18q28 0 50 11.5t38.5 29.5t28.5 41t20 47h55z" />
<glyph unicode="&#xd6;" d="M1058 619q-13 -70 -36.5 -145t-59 -146t-82 -134t-104.5 -110.5t-128.5 -75.5t-152.5 -28q-83 0 -144 29.5t-104 79t-68.5 114t-37.5 135.5t-11 143.5t11 137.5l37 218q13 70 37 145t59 146t82 134t105.5 111t128.5 75.5t153 27.5t144.5 -29.5t104 -79t68 -114t37 -135.5 t10 -143.5t-11.5 -137.5zM1043 839q9 57 11.5 122.5t-5.5 130t-28.5 124.5t-57 105.5t-91 73t-129.5 27.5q-74 0 -137.5 -25.5t-116 -69.5t-94.5 -102t-74 -122.5t-53.5 -132.5t-33.5 -131l-39 -220q-9 -57 -11.5 -122.5t5.5 -130.5t28.5 -125t57 -106t90.5 -73.5t130 -27.5 q75 0 138.5 25.5t116 69.5t94.5 102t73.5 123t53 133t33.5 132zM522 1762q3 20 22 37.5t39 17.5q11 0 20.5 -5t16.5 -13.5t10 -18.5t2 -20q-3 -20 -22.5 -37t-39.5 -17q-21 1 -35.5 18.5t-12.5 37.5zM954 1762q3 20 22 37.5t39 17.5q21 0 36 -18.5t13 -38.5 q-3 -20 -22.5 -37t-39.5 -17q-21 1 -36 18.5t-12 37.5z" />
<glyph unicode="&#xd7;" d="M107 38l442 395l-284 362l42 37l282 -363l410 363l35 -41l-411 -365l307 -392l-42 -35l-305 390l-440 -390z" />
<glyph unicode="&#xd8;" d="M1046 619q-13 -70 -36.5 -145t-59 -146t-82 -134t-104.5 -110.5t-128.5 -75.5t-152.5 -28q-89 0 -152.5 33t-107.5 89l-130 -176l-66 1l165 222q-29 50 -45.5 109t-23.5 120.5t-5 123t11 117.5l37 218q13 70 37 145t59 146t82 134t105.5 111t128.5 75.5t153 27.5 q57 0 103.5 -14.5t84 -40t66 -60.5t48.5 -77l156 210l66 -1l-198 -266q16 -46 24.5 -96t11.5 -100t0 -99.5t-10 -94.5zM183 619q-8 -49 -11 -104t1 -111t16.5 -110t35.5 -100l774 1044q-17 40 -41 73.5t-57 58t-75 38.5t-95 14q-74 0 -137.5 -25.5t-116 -69.5t-94.5 -102 t-74 -122.5t-53.5 -132.5t-33.5 -131zM1031 839q13 76 12 165.5t-23 172.5l-765 -1033q36 -50 92 -80t136 -30q75 0 138.5 25.5t116 69.5t94.5 102t73.5 123t53 133t33.5 132z" />
<glyph unicode="&#xd9;" d="M1171 1456l-169 -987q-17 -93 -60.5 -181.5t-108.5 -156.5t-150.5 -109.5t-187.5 -41.5q-101 0 -172.5 43t-115 112.5t-58.5 157t-1 176.5l171 987h51l-170 -987q-12 -77 -1 -155t47 -140t98 -101t151 -39t165 37.5t134.5 98.5t97.5 139.5t55 159.5l172 987h52zM806 1568 h-55l-144 268h62z" />
<glyph unicode="&#xda;" d="M1171 1456l-169 -987q-17 -93 -60.5 -181.5t-108.5 -156.5t-150.5 -109.5t-187.5 -41.5q-101 0 -172.5 43t-115 112.5t-58.5 157t-1 176.5l171 987h51l-170 -987q-12 -77 -1 -155t47 -140t98 -101t151 -39t165 37.5t134.5 98.5t97.5 139.5t55 159.5l172 987h52zM946 1834 l68 -1l-225 -263l-61 1z" />
<glyph unicode="&#xdb;" d="M1171 1456l-169 -987q-17 -93 -60.5 -181.5t-108.5 -156.5t-150.5 -109.5t-187.5 -41.5q-101 0 -172.5 43t-115 112.5t-58.5 157t-1 176.5l171 987h51l-170 -987q-12 -77 -1 -155t47 -140t98 -101t151 -39t165 37.5t134.5 98.5t97.5 139.5t55 159.5l172 987h52z M1017 1593l-2 -10l-65 -1l-146 196l-214 -194h-65l1 14l261 238h40z" />
<glyph unicode="&#xdc;" d="M1171 1456l-169 -987q-17 -93 -60.5 -181.5t-108.5 -156.5t-150.5 -109.5t-187.5 -41.5q-101 0 -172.5 43t-115 112.5t-58.5 157t-1 176.5l171 987h51l-170 -987q-12 -77 -1 -155t47 -140t98 -101t151 -39t165 37.5t134.5 98.5t97.5 139.5t55 159.5l172 987h52zM511 1741 q3 20 22 37.5t39 17.5q11 0 20.5 -5t16.5 -13.5t10 -18.5t2 -20q-3 -20 -22.5 -37t-39.5 -17q-21 1 -35.5 18.5t-12.5 37.5zM943 1741q3 20 22 37.5t39 17.5q21 0 36 -18.5t13 -38.5q-3 -20 -22.5 -37t-39.5 -17q-21 1 -36 18.5t-12 37.5z" />
<glyph unicode="&#xdd;" d="M577 604l581 851h64l-625 -906l-94 -549h-52l95 558l-311 899h64zM925 1823l68 -1l-225 -263l-61 1z" />
<glyph unicode="&#xde;" d="M409 1456l-54 -313h354q87 -2 162 -31t126.5 -81.5t75.5 -127t9 -165.5q-15 -93 -62 -167t-114.5 -126t-152 -80.5t-174.5 -30.5h-364l-57 -334h-54l251 1456h54zM346 1089l-122 -701h354q78 2 152.5 26.5t135 69.5t103.5 108.5t58 143.5q15 79 -4.5 143.5t-63.5 110.5 t-109 71.5t-140 27.5h-364z" />
<glyph unicode="&#xdf;" d="M161 0h-53l196 1143q14 75 44.5 145.5t78.5 125.5t113 88t149 33q57 0 108.5 -21t88.5 -58t55.5 -88t9.5 -111q-9 -59 -35 -111.5t-55.5 -103.5t-56 -103t-36.5 -110q-9 -52 6 -97t42 -85.5t59.5 -80.5t59 -82.5t40.5 -90.5t5 -106q-11 -67 -46.5 -123t-86.5 -97 t-114 -64t-129 -24q-77 -1 -151.5 20.5t-134.5 69.5l30 47q54 -40 117.5 -62.5t130.5 -21.5q58 1 113 20.5t100 54t76.5 83t42.5 106.5q10 55 -3.5 101t-40 87t-59 79.5t-59.5 79.5t-42.5 87t-7.5 101q8 59 33 111.5t54 103.5t55 103t35 110q7 46 -5.5 86t-39.5 70 t-65.5 47.5t-83.5 18.5q-73 1 -130.5 -27t-100 -75.5t-70 -109t-40.5 -126.5z" />
<glyph unicode="&#xe0;" d="M856 0q-2 52 3 101.5t15 100.5q-43 -52 -95.5 -93.5t-112 -70t-124.5 -44t-133 -14.5q-63 1 -120 21.5t-97.5 58.5t-61 92t-9.5 122q10 65 39.5 114.5t73 86t97 61t111.5 39.5t118 21.5t116 7.5h263l28 158q10 69 -7.5 122t-55.5 89.5t-93.5 55.5t-120.5 19t-127.5 -17 t-116 -50.5t-93.5 -82.5t-59 -113l-54 2q19 75 63.5 133.5t105.5 98.5t133 61.5t147 21.5q76 0 141.5 -23t111.5 -67.5t67.5 -108t10.5 -143.5l-94 -542q-8 -53 -7.5 -104.5t0.5 -104.5l-1 -9h-62zM408 33q73 -2 141.5 16.5t129 53t112.5 83t93 107.5l46 256h-251 q-48 0 -101 -5.5t-106 -17.5t-102 -32t-89.5 -51t-68.5 -73.5t-38 -99.5q-10 -55 7 -98.5t50.5 -74t80 -47t96.5 -17.5zM780 1249h-55l-144 268h62z" />
<glyph unicode="&#xe1;" d="M856 0q-2 52 3 101.5t15 100.5q-43 -52 -95.5 -93.5t-112 -70t-124.5 -44t-133 -14.5q-63 1 -120 21.5t-97.5 58.5t-61 92t-9.5 122q10 65 39.5 114.5t73 86t97 61t111.5 39.5t118 21.5t116 7.5h263l28 158q10 69 -7.5 122t-55.5 89.5t-93.5 55.5t-120.5 19t-127.5 -17 t-116 -50.5t-93.5 -82.5t-59 -113l-54 2q19 75 63.5 133.5t105.5 98.5t133 61.5t147 21.5q76 0 141.5 -23t111.5 -67.5t67.5 -108t10.5 -143.5l-94 -542q-8 -53 -7.5 -104.5t0.5 -104.5l-1 -9h-62zM408 33q73 -2 141.5 16.5t129 53t112.5 83t93 107.5l46 256h-251 q-48 0 -101 -5.5t-106 -17.5t-102 -32t-89.5 -51t-68.5 -73.5t-38 -99.5q-10 -55 7 -98.5t50.5 -74t80 -47t96.5 -17.5zM920 1515l68 -1l-225 -263l-61 1z" />
<glyph unicode="&#xe2;" d="M856 0q-2 52 3 101.5t15 100.5q-43 -52 -95.5 -93.5t-112 -70t-124.5 -44t-133 -14.5q-63 1 -120 21.5t-97.5 58.5t-61 92t-9.5 122q10 65 39.5 114.5t73 86t97 61t111.5 39.5t118 21.5t116 7.5h263l28 158q10 69 -7.5 122t-55.5 89.5t-93.5 55.5t-120.5 19t-127.5 -17 t-116 -50.5t-93.5 -82.5t-59 -113l-54 2q19 75 63.5 133.5t105.5 98.5t133 61.5t147 21.5q76 0 141.5 -23t111.5 -67.5t67.5 -108t10.5 -143.5l-94 -542q-8 -53 -7.5 -104.5t0.5 -104.5l-1 -9h-62zM408 33q73 -2 141.5 16.5t129 53t112.5 83t93 107.5l46 256h-251 q-48 0 -101 -5.5t-106 -17.5t-102 -32t-89.5 -51t-68.5 -73.5t-38 -99.5q-10 -55 7 -98.5t50.5 -74t80 -47t96.5 -17.5zM991 1274l-2 -10l-65 -1l-146 196l-214 -194h-65l1 14l261 238h40z" />
<glyph unicode="&#xe3;" d="M856 0q-2 52 3 101.5t15 100.5q-43 -52 -95.5 -93.5t-112 -70t-124.5 -44t-133 -14.5q-63 1 -120 21.5t-97.5 58.5t-61 92t-9.5 122q10 65 39.5 114.5t73 86t97 61t111.5 39.5t118 21.5t116 7.5h263l28 158q10 69 -7.5 122t-55.5 89.5t-93.5 55.5t-120.5 19t-127.5 -17 t-116 -50.5t-93.5 -82.5t-59 -113l-54 2q19 75 63.5 133.5t105.5 98.5t133 61.5t147 21.5q76 0 141.5 -23t111.5 -67.5t67.5 -108t10.5 -143.5l-94 -542q-8 -53 -7.5 -104.5t0.5 -104.5l-1 -9h-62zM408 33q73 -2 141.5 16.5t129 53t112.5 83t93 107.5l46 256h-251 q-48 0 -101 -5.5t-106 -17.5t-102 -32t-89.5 -51t-68.5 -73.5t-38 -99.5q-10 -55 7 -98.5t50.5 -74t80 -47t96.5 -17.5zM1073 1485q-9 -35 -25 -68t-40 -59t-55.5 -42t-71.5 -16q-39 0 -68.5 20t-57 43.5t-57 42.5t-67.5 18q-29 0 -50.5 -10.5t-38 -27.5t-28 -39t-20.5 -46 h-55q9 35 25 67t40 57t55.5 39.5t70.5 14.5t68.5 -19.5t57.5 -43t57.5 -42.5t67.5 -18q28 0 50 11.5t38.5 29.5t28.5 41t20 47h55z" />
<glyph unicode="&#xe4;" d="M856 0q-2 52 3 101.5t15 100.5q-43 -52 -95.5 -93.5t-112 -70t-124.5 -44t-133 -14.5q-63 1 -120 21.5t-97.5 58.5t-61 92t-9.5 122q10 65 39.5 114.5t73 86t97 61t111.5 39.5t118 21.5t116 7.5h263l28 158q10 69 -7.5 122t-55.5 89.5t-93.5 55.5t-120.5 19t-127.5 -17 t-116 -50.5t-93.5 -82.5t-59 -113l-54 2q19 75 63.5 133.5t105.5 98.5t133 61.5t147 21.5q76 0 141.5 -23t111.5 -67.5t67.5 -108t10.5 -143.5l-94 -542q-8 -53 -7.5 -104.5t0.5 -104.5l-1 -9h-62zM408 33q73 -2 141.5 16.5t129 53t112.5 83t93 107.5l46 256h-251 q-48 0 -101 -5.5t-106 -17.5t-102 -32t-89.5 -51t-68.5 -73.5t-38 -99.5q-10 -55 7 -98.5t50.5 -74t80 -47t96.5 -17.5zM485 1422q3 20 22 37.5t39 17.5q11 0 20.5 -5t16.5 -13.5t10 -18.5t2 -20q-3 -20 -22.5 -37t-39.5 -17q-21 1 -35.5 18.5t-12.5 37.5zM917 1422 q3 20 22 37.5t39 17.5q21 0 36 -18.5t13 -38.5q-3 -20 -22.5 -37t-39.5 -17q-21 1 -36 18.5t-12 37.5z" />
<glyph unicode="&#xe5;" d="M856 0q-2 52 3 101.5t15 100.5q-43 -52 -95.5 -93.5t-112 -70t-124.5 -44t-133 -14.5q-63 1 -120 21.5t-97.5 58.5t-61 92t-9.5 122q10 65 39.5 114.5t73 86t97 61t111.5 39.5t118 21.5t116 7.5h263l28 158q10 69 -7.5 122t-55.5 89.5t-93.5 55.5t-120.5 19t-127.5 -17 t-116 -50.5t-93.5 -82.5t-59 -113l-54 2q19 75 63.5 133.5t105.5 98.5t133 61.5t147 21.5q76 0 141.5 -23t111.5 -67.5t67.5 -108t10.5 -143.5l-94 -542q-8 -53 -7.5 -104.5t0.5 -104.5l-1 -9h-62zM408 33q73 -2 141.5 16.5t129 53t112.5 83t93 107.5l46 256h-251 q-48 0 -101 -5.5t-106 -17.5t-102 -32t-89.5 -51t-68.5 -73.5t-38 -99.5q-10 -55 7 -98.5t50.5 -74t80 -47t96.5 -17.5zM599 1382q5 33 21.5 64.5t41.5 55.5t56 39t66 15q34 0 61.5 -15t45.5 -40t25.5 -56t2.5 -63q-5 -33 -22 -64t-42 -54t-56.5 -37.5t-65.5 -14.5t-61 14.5 t-45 38.5t-25.5 54.5t-2.5 62.5zM653 1382q-4 -21 -0.5 -41.5t14 -37t27.5 -26.5t40 -10q24 0 46 9.5t39 25.5t29 37t17 43q4 21 1 42.5t-13.5 38.5t-28 27.5t-41.5 10.5t-45.5 -10t-39 -26.5t-29.5 -38.5t-16 -44z" />
<glyph unicode="&#xe6;" d="M764 -20q-99 0 -163 55t-84 149q-27 -41 -60.5 -77.5t-73.5 -65t-86 -45t-97 -16.5q-63 0 -106 27t-68 70.5t-32.5 97.5t1.5 109q11 69 41 131t76.5 109t107.5 75.5t134 30.5h197l33 190q8 47 4.5 88.5t-21.5 72t-53 48.5t-89 18q-50 1 -94 -14.5t-79 -44t-58.5 -68.5 t-33.5 -89l-52 1q10 60 38 109.5t69.5 85t94.5 55.5t115 20q100 0 157.5 -53t57.5 -153q24 42 54.5 79t67.5 65t81 45t95 17q79 0 128.5 -35.5t74 -91.5t28.5 -123.5t-6 -131.5l-27 -143h-539l-31 -177q-10 -59 -8.5 -123t22 -118t64.5 -89t120 -35q38 0 72.5 10.5t66 28.5 t60.5 41t55 49l23 -44q-56 -60 -124 -100t-153 -40zM199 32q46 0 88 16.5t78 43t65.5 61.5t50.5 73l1 4q0 -1 1 -1l22 127l2 22t3 22l31 175h-185q-62 -2 -113.5 -26.5t-91 -65t-66 -93t-37.5 -110.5q-8 -43 -4.5 -87t20.5 -80t50 -58.5t85 -22.5zM603 632h493l15 92 q7 51 6 108t-18.5 105t-55.5 79.5t-105 31.5q-78 0 -134 -39.5t-95 -99.5t-63.5 -130.5t-39.5 -133.5z" />
<glyph unicode="&#xe7;" d="M508 34q71 0 134 21t114.5 59.5t90 92.5t60.5 120h54q-22 -77 -65 -141t-102 -109.5t-131.5 -71t-153.5 -25.5q-74 0 -131.5 22.5t-100 61.5t-69.5 91.5t-41.5 112.5t-16 124.5t8.5 127.5l7 42q18 99 61 195.5t109 173t155 124t200 47.5q83 0 148 -29t109.5 -79.5 t65.5 -119.5t17 -149h-53q4 69 -13 128t-54 102.5t-92.5 68t-126.5 24.5q-67 0 -124.5 -19.5t-106 -54t-88 -81t-69.5 -100.5t-51 -113t-32 -118l-8 -42q-9 -55 -9.5 -112.5t10 -111.5t32.5 -101.5t58 -83t86.5 -56.5t117.5 -21zM528 -9l-26 -77q34 -6 63 -19t49 -33.5 t29.5 -49.5t3.5 -67q-8 -54 -40 -89.5t-76.5 -56.5t-96 -30.5t-97.5 -12.5l1 49q35 2 76 9t77.5 22.5t64.5 42t37 67.5q8 37 -6.5 60t-40 36t-57 19t-58.5 10l44 120h53z" />
<glyph unicode="&#xe8;" d="M536 -20q-72 0 -132 22t-107 60t-80 89.5t-52.5 111t-25 125t4.5 130.5l8 44q12 66 37 131.5t62 125.5t84.5 112t104.5 90t122 59.5t138 21.5q96 0 166 -39.5t113.5 -104.5t59 -148t3.5 -170l-10 -63h-821l-3 -15l-9 -44q-15 -86 -1 -172.5t57 -155.5t113.5 -112.5 t166.5 -44.5q103 -1 191 39t162 109l37 -29q-78 -81 -176.5 -126.5t-212.5 -45.5zM701 1048q-90 0 -166 -36t-136.5 -94.5t-105 -133.5t-72.5 -153h762l3 13q15 73 2.5 145.5t-49 129.5t-97 93t-141.5 36zM768 1248h-55l-144 268h62z" />
<glyph unicode="&#xe9;" d="M536 -20q-72 0 -132 22t-107 60t-80 89.5t-52.5 111t-25 125t4.5 130.5l8 44q12 66 37 131.5t62 125.5t84.5 112t104.5 90t122 59.5t138 21.5q96 0 166 -39.5t113.5 -104.5t59 -148t3.5 -170l-10 -63h-821l-3 -15l-9 -44q-15 -86 -1 -172.5t57 -155.5t113.5 -112.5 t166.5 -44.5q103 -1 191 39t162 109l37 -29q-78 -81 -176.5 -126.5t-212.5 -45.5zM701 1048q-90 0 -166 -36t-136.5 -94.5t-105 -133.5t-72.5 -153h762l3 13q15 73 2.5 145.5t-49 129.5t-97 93t-141.5 36zM908 1514l68 -1l-225 -263l-61 1z" />
<glyph unicode="&#xea;" d="M536 -20q-72 0 -132 22t-107 60t-80 89.5t-52.5 111t-25 125t4.5 130.5l8 44q12 66 37 131.5t62 125.5t84.5 112t104.5 90t122 59.5t138 21.5q96 0 166 -39.5t113.5 -104.5t59 -148t3.5 -170l-10 -63h-821l-3 -15l-9 -44q-15 -86 -1 -172.5t57 -155.5t113.5 -112.5 t166.5 -44.5q103 -1 191 39t162 109l37 -29q-78 -81 -176.5 -126.5t-212.5 -45.5zM701 1048q-90 0 -166 -36t-136.5 -94.5t-105 -133.5t-72.5 -153h762l3 13q15 73 2.5 145.5t-49 129.5t-97 93t-141.5 36zM980 1273l-2 -10l-65 -1l-146 196l-214 -194h-65l1 14l261 238h40z " />
<glyph unicode="&#xeb;" d="M536 -20q-72 0 -132 22t-107 60t-80 89.5t-52.5 111t-25 125t4.5 130.5l8 44q12 66 37 131.5t62 125.5t84.5 112t104.5 90t122 59.5t138 21.5q96 0 166 -39.5t113.5 -104.5t59 -148t3.5 -170l-10 -63h-821l-3 -15l-9 -44q-15 -86 -1 -172.5t57 -155.5t113.5 -112.5 t166.5 -44.5q103 -1 191 39t162 109l37 -29q-78 -81 -176.5 -126.5t-212.5 -45.5zM701 1048q-90 0 -166 -36t-136.5 -94.5t-105 -133.5t-72.5 -153h762l3 13q15 73 2.5 145.5t-49 129.5t-97 93t-141.5 36zM473 1421q3 20 22 37.5t39 17.5q11 0 20.5 -5t16.5 -13.5t10 -18.5 t2 -20q-3 -20 -22.5 -37t-39.5 -17q-21 1 -35.5 18.5t-12.5 37.5zM905 1421q3 20 22 37.5t39 17.5q21 0 36 -18.5t13 -38.5q-3 -20 -22.5 -37t-39.5 -17q-21 1 -36 18.5t-12 37.5z" />
<glyph unicode="&#xec;" d="M314 1082h440l-178 -1028h371l-7 -54h-812l8 54h385l170 974h-384zM804 1288h-55l-144 268h62z" />
<glyph unicode="&#xed;" d="M314 1082h440l-178 -1028h371l-7 -54h-812l8 54h385l170 974h-384zM944 1554l68 -1l-225 -263l-61 1z" />
<glyph unicode="&#xee;" d="M314 1082h440l-178 -1028h371l-7 -54h-812l8 54h385l170 974h-384zM1015 1313l-2 -10l-65 -1l-146 196l-214 -194h-65l1 14l261 238h40z" />
<glyph unicode="&#xef;" d="M314 1082h440l-178 -1028h371l-7 -54h-812l8 54h385l170 974h-384zM509 1461q3 20 22 37.5t39 17.5q11 0 20.5 -5t16.5 -13.5t10 -18.5t2 -20q-3 -20 -22.5 -37t-39.5 -17q-21 1 -35.5 18.5t-12.5 37.5zM941 1461q3 20 22 37.5t39 17.5q21 0 36 -18.5t13 -38.5 q-3 -20 -22.5 -37t-39.5 -17q-21 1 -36 18.5t-12 37.5z" />
<glyph unicode="&#xf0;" d="M846 1300q55 -76 89 -158t50 -169t14.5 -177t-16.5 -181l-13 -80q-12 -68 -36.5 -135.5t-60.5 -129.5t-83 -114.5t-104 -91.5t-124 -61.5t-142 -22.5q-98 0 -170 43t-116 112t-60 156t-2 174q16 101 62.5 190t116.5 155t160.5 104.5t196.5 38.5q51 0 100.5 -10.5 t93 -32.5t80 -55.5t62.5 -78.5q7 137 -28 263t-120 234l-251 -124l-23 50l234 116q-69 73 -153.5 124t-177.5 89l26 48q100 -42 190 -98.5t165 -135.5l241 119l24 -50zM930 617q3 17 5.5 32.5t4.5 32.5q-16 53 -50 93t-79 66.5t-97.5 40t-105.5 13.5q-93 0 -174 -33.5 t-143.5 -92t-104.5 -137t-58 -167.5q-14 -76 -1.5 -152t50 -137.5t99.5 -99.5t148 -38q68 0 127.5 20t110 55t92 82.5t73.5 103t54 115.5t34 121z" />
<glyph unicode="&#xf1;" d="M294 822q36 58 82.5 108.5t102 88.5t119 60.5t134.5 22.5q89 0 149.5 -33t94.5 -89t43 -128.5t-3 -151.5l-119 -700h-55l121 700q11 67 5.5 130.5t-32.5 112t-77.5 78t-128.5 28.5q-71 -1 -142.5 -29.5t-133.5 -76.5t-108.5 -110.5t-67.5 -130.5l-121 -702h-55l186 1082 h55l-49 -260v0zM1038 1483q-9 -35 -25 -68t-40 -59t-55.5 -42t-71.5 -16q-39 0 -68.5 20t-57 43.5t-57 42.5t-67.5 18q-29 0 -50.5 -10.5t-38 -27.5t-28 -39t-20.5 -46h-55q9 35 25 67t40 57t55.5 39.5t70.5 14.5t68.5 -19.5t57.5 -43t57.5 -42.5t67.5 -18q28 0 50 11.5 t38.5 29.5t28.5 41t20 47h55z" />
<glyph unicode="&#xf2;" d="M129 562q19 101 65.5 198t117 173t163 122.5t203.5 46.5q74 0 133 -22t103.5 -60.5t75 -91t47 -112.5t20 -125t-6.5 -129l-7 -42q-18 -101 -64.5 -198t-117 -173t-163 -122.5t-203.5 -46.5q-74 0 -133 22t-103.5 60.5t-75 91t-47.5 112.5t-20.5 125t6.5 129zM176 520 q-14 -84 -2.5 -170.5t50 -156.5t105.5 -114.5t166 -44.5t181.5 42.5t146 111.5t105.5 156t60 176l8 42q9 56 7 113.5t-15.5 111.5t-39 101.5t-64 83t-90 56t-116.5 20.5q-98 0 -181 -42.5t-146.5 -111.5t-106 -156t-60.5 -176zM754 1247h-55l-144 268h62z" />
<glyph unicode="&#xf3;" d="M129 562q19 101 65.5 198t117 173t163 122.5t203.5 46.5q74 0 133 -22t103.5 -60.5t75 -91t47 -112.5t20 -125t-6.5 -129l-7 -42q-18 -101 -64.5 -198t-117 -173t-163 -122.5t-203.5 -46.5q-74 0 -133 22t-103.5 60.5t-75 91t-47.5 112.5t-20.5 125t6.5 129zM176 520 q-14 -84 -2.5 -170.5t50 -156.5t105.5 -114.5t166 -44.5t181.5 42.5t146 111.5t105.5 156t60 176l8 42q9 56 7 113.5t-15.5 111.5t-39 101.5t-64 83t-90 56t-116.5 20.5q-98 0 -181 -42.5t-146.5 -111.5t-106 -156t-60.5 -176zM894 1513l68 -1l-225 -263l-61 1z" />
<glyph unicode="&#xf4;" d="M129 562q19 101 65.5 198t117 173t163 122.5t203.5 46.5q74 0 133 -22t103.5 -60.5t75 -91t47 -112.5t20 -125t-6.5 -129l-7 -42q-18 -101 -64.5 -198t-117 -173t-163 -122.5t-203.5 -46.5q-74 0 -133 22t-103.5 60.5t-75 91t-47.5 112.5t-20.5 125t6.5 129zM176 520 q-14 -84 -2.5 -170.5t50 -156.5t105.5 -114.5t166 -44.5t181.5 42.5t146 111.5t105.5 156t60 176l8 42q9 56 7 113.5t-15.5 111.5t-39 101.5t-64 83t-90 56t-116.5 20.5q-98 0 -181 -42.5t-146.5 -111.5t-106 -156t-60.5 -176zM966 1272l-2 -10l-65 -1l-146 196l-214 -194 h-65l1 14l261 238h40z" />
<glyph unicode="&#xf5;" d="M129 562q19 101 65.5 198t117 173t163 122.5t203.5 46.5q74 0 133 -22t103.5 -60.5t75 -91t47 -112.5t20 -125t-6.5 -129l-7 -42q-18 -101 -64.5 -198t-117 -173t-163 -122.5t-203.5 -46.5q-74 0 -133 22t-103.5 60.5t-75 91t-47.5 112.5t-20.5 125t6.5 129zM176 520 q-14 -84 -2.5 -170.5t50 -156.5t105.5 -114.5t166 -44.5t181.5 42.5t146 111.5t105.5 156t60 176l8 42q9 56 7 113.5t-15.5 111.5t-39 101.5t-64 83t-90 56t-116.5 20.5q-98 0 -181 -42.5t-146.5 -111.5t-106 -156t-60.5 -176zM1047 1483q-9 -35 -25 -68t-40 -59t-55.5 -42 t-71.5 -16q-39 0 -68.5 20t-57 43.5t-57 42.5t-67.5 18q-29 0 -50.5 -10.5t-38 -27.5t-28 -39t-20.5 -46h-55q9 35 25 67t40 57t55.5 39.5t70.5 14.5t68.5 -19.5t57.5 -43t57.5 -42.5t67.5 -18q28 0 50 11.5t38.5 29.5t28.5 41t20 47h55z" />
<glyph unicode="&#xf6;" d="M129 562q19 101 65.5 198t117 173t163 122.5t203.5 46.5q74 0 133 -22t103.5 -60.5t75 -91t47 -112.5t20 -125t-6.5 -129l-7 -42q-18 -101 -64.5 -198t-117 -173t-163 -122.5t-203.5 -46.5q-74 0 -133 22t-103.5 60.5t-75 91t-47.5 112.5t-20.5 125t6.5 129zM176 520 q-14 -84 -2.5 -170.5t50 -156.5t105.5 -114.5t166 -44.5t181.5 42.5t146 111.5t105.5 156t60 176l8 42q9 56 7 113.5t-15.5 111.5t-39 101.5t-64 83t-90 56t-116.5 20.5q-98 0 -181 -42.5t-146.5 -111.5t-106 -156t-60.5 -176zM459 1420q3 20 22 37.5t39 17.5q11 0 20.5 -5 t16.5 -13.5t10 -18.5t2 -20q-3 -20 -22.5 -37t-39.5 -17q-21 1 -35.5 18.5t-12.5 37.5zM891 1420q3 20 22 37.5t39 17.5q21 0 36 -18.5t13 -38.5q-3 -20 -22.5 -37t-39.5 -17q-21 1 -36 18.5t-12 37.5z" />
<glyph unicode="&#xf7;" d="M1097 686h-970l7 52h970zM636 1081q1 10 7.5 19.5t15 17t19 12.5t20.5 5q21 -1 36 -19t12 -39q-2 -10 -8 -19.5t-15 -17t-19.5 -12t-20.5 -4.5q-21 1 -35.5 18.5t-11.5 38.5zM502 303q1 10 7 19.5t14.5 17t19 12.5t20.5 5q21 -1 36 -19t12 -39q-2 -10 -8 -19.5t-15 -17 t-19.5 -12t-20.5 -4.5q-21 1 -35.5 18.5t-10.5 38.5z" />
<glyph unicode="&#xf8;" d="M129 562q19 101 65.5 198t117 173t163 122.5t203.5 46.5q50 0 92.5 -10.5t79.5 -29.5l100 156h64l-119 -184q50 -37 84.5 -90t53.5 -115.5t23 -131t-6 -135.5l-7 -42q-18 -101 -64.5 -198t-117 -173t-163 -122.5t-203.5 -46.5q-72 0 -128.5 20.5t-100.5 55.5l-129 -200 h-65l154 239q-36 40 -60 89.5t-36.5 104.5t-14.5 114t7 117zM996 562q9 59 6.5 120t-18.5 117.5t-45.5 105t-73.5 82.5l-569 -884q38 -32 87 -50.5t112 -18.5q99 0 181.5 42.5t146 111.5t105.5 156t60 176zM176 520q-8 -50 -7.5 -101.5t10 -100.5t29 -94t49.5 -81l563 873 q-30 15 -65.5 23.5t-76.5 8.5q-98 0 -181 -42.5t-146.5 -111.5t-106 -156t-60.5 -176z" />
<glyph unicode="&#xf9;" d="M831 0l38 193q-72 -102 -176.5 -157.5t-231.5 -55.5q-90 0 -151 35t-95.5 93t-43.5 132.5t3 154.5l118 687h54l-119 -689q-11 -66 -5.5 -130.5t32.5 -115t77 -81.5t128 -32q69 0 137 20.5t126.5 59.5t102.5 94.5t64 124.5l128 749h56l-186 -1082h-56zM721 1249h-55 l-144 268h62z" />
<glyph unicode="&#xfa;" d="M831 0l38 193q-72 -102 -176.5 -157.5t-231.5 -55.5q-90 0 -151 35t-95.5 93t-43.5 132.5t3 154.5l118 687h54l-119 -689q-11 -66 -5.5 -130.5t32.5 -115t77 -81.5t128 -32q69 0 137 20.5t126.5 59.5t102.5 94.5t64 124.5l128 749h56l-186 -1082h-56zM861 1515l68 -1 l-225 -263l-61 1z" />
<glyph unicode="&#xfb;" d="M831 0l38 193q-72 -102 -176.5 -157.5t-231.5 -55.5q-90 0 -151 35t-95.5 93t-43.5 132.5t3 154.5l118 687h54l-119 -689q-11 -66 -5.5 -130.5t32.5 -115t77 -81.5t128 -32q69 0 137 20.5t126.5 59.5t102.5 94.5t64 124.5l128 749h56l-186 -1082h-56zM933 1274l-2 -10 l-65 -1l-146 196l-214 -194h-65l1 14l261 238h40z" />
<glyph unicode="&#xfc;" d="M831 0l38 193q-72 -102 -176.5 -157.5t-231.5 -55.5q-90 0 -151 35t-95.5 93t-43.5 132.5t3 154.5l118 687h54l-119 -689q-11 -66 -5.5 -130.5t32.5 -115t77 -81.5t128 -32q69 0 137 20.5t126.5 59.5t102.5 94.5t64 124.5l128 749h56l-186 -1082h-56zM427 1422 q3 20 22 37.5t39 17.5q11 0 20.5 -5t16.5 -13.5t10 -18.5t2 -20q-3 -20 -22.5 -37t-39.5 -17q-21 1 -35.5 18.5t-12.5 37.5zM859 1422q3 20 22 37.5t39 17.5q21 0 36 -18.5t13 -38.5q-3 -20 -22.5 -37t-39.5 -17q-21 1 -36 18.5t-12 37.5z" />
<glyph unicode="&#xfd;" d="M510 74l18 31l597 976h66l-768 -1261q-31 -51 -68.5 -97.5t-82.5 -81.5t-98.5 -56.5t-117.5 -21.5q-23 0 -44.5 3t-44.5 8l5 51l38 -6t39 -3q53 0 99.5 17t85.5 46.5t72 68.5t59 82l106 177l-307 1076h61zM906 1515l68 -1l-225 -263l-61 1z" />
<glyph unicode="&#xfe;" d="M1007 531q-11 -62 -31.5 -127t-50 -126t-69.5 -115t-90 -94.5t-111 -64.5t-133 -24q-50 0 -98.5 11.5t-92 34t-79 56.5t-59.5 79l-101 -577h-54l336 1952h54l-114 -638q36 44 79.5 81.5t93 64.5t104.5 42.5t113 15.5q74 0 128 -24.5t91.5 -66.5t59 -97t30.5 -116 t7.5 -124.5t-10.5 -121.5zM955 552q8 49 11 105t-2.5 111t-22 105.5t-47 89t-76.5 61.5t-112 24q-65 0 -125 -20t-112.5 -55t-95 -82.5t-73.5 -102.5l-94 -530q13 -54 43.5 -96t73 -70.5t94 -43t105.5 -14.5q65 1 119 22.5t98.5 58.5t79 86t60.5 104t44 113t28 113z" />
<glyph unicode="&#xff;" d="M510 74l18 31l597 976h66l-768 -1261q-31 -51 -68.5 -97.5t-82.5 -81.5t-98.5 -56.5t-117.5 -21.5q-23 0 -44.5 3t-44.5 8l5 51l38 -6t39 -3q53 0 99.5 17t85.5 46.5t72 68.5t59 82l106 177l-307 1076h61zM471 1422q3 20 22 37.5t39 17.5q11 0 20.5 -5t16.5 -13.5 t10 -18.5t2 -20q-3 -20 -22.5 -37t-39.5 -17q-21 1 -35.5 18.5t-12.5 37.5zM903 1422q3 20 22 37.5t39 17.5q21 0 36 -18.5t13 -38.5q-3 -20 -22.5 -37t-39.5 -17q-21 1 -36 18.5t-12 37.5z" />
<glyph unicode="&#x100;" d="M883 435h-598l-214 -435h-57l713 1456h61l213 -1456h-54zM310 489h566l-127 890zM1098 1733h-609l6 53h610z" />
<glyph unicode="&#x101;" d="M856 0q-2 52 3 101.5t15 100.5q-43 -52 -95.5 -93.5t-112 -70t-124.5 -44t-133 -14.5q-63 1 -120 21.5t-97.5 58.5t-61 92t-9.5 122q10 65 39.5 114.5t73 86t97 61t111.5 39.5t118 21.5t116 7.5h263l28 158q10 69 -7.5 122t-55.5 89.5t-93.5 55.5t-120.5 19t-127.5 -17 t-116 -50.5t-93.5 -82.5t-59 -113l-54 2q19 75 63.5 133.5t105.5 98.5t133 61.5t147 21.5q76 0 141.5 -23t111.5 -67.5t67.5 -108t10.5 -143.5l-94 -542q-8 -53 -7.5 -104.5t0.5 -104.5l-1 -9h-62zM408 33q73 -2 141.5 16.5t129 53t112.5 83t93 107.5l46 256h-251 q-48 0 -101 -5.5t-106 -17.5t-102 -32t-89.5 -51t-68.5 -73.5t-38 -99.5q-10 -55 7 -98.5t50.5 -74t80 -47t96.5 -17.5zM1056 1413h-609l6 53h610z" />
<glyph unicode="&#x102;" d="M883 435h-598l-214 -435h-57l713 1456h61l213 -1456h-54zM310 489h566l-127 890zM1086 1809q-13 -55 -40.5 -100.5t-66.5 -78t-89 -50.5t-108 -18q-57 0 -102 18t-76 50.5t-46.5 78t-13.5 101.5h53q-5 -92 43.5 -142t141.5 -50q94 1 159 52t91 139h54z" />
<glyph unicode="&#x103;" d="M856 0q-2 52 3 101.5t15 100.5q-43 -52 -95.5 -93.5t-112 -70t-124.5 -44t-133 -14.5q-63 1 -120 21.5t-97.5 58.5t-61 92t-9.5 122q10 65 39.5 114.5t73 86t97 61t111.5 39.5t118 21.5t116 7.5h263l28 158q10 69 -7.5 122t-55.5 89.5t-93.5 55.5t-120.5 19t-127.5 -17 t-116 -50.5t-93.5 -82.5t-59 -113l-54 2q19 75 63.5 133.5t105.5 98.5t133 61.5t147 21.5q76 0 141.5 -23t111.5 -67.5t67.5 -108t10.5 -143.5l-94 -542q-8 -53 -7.5 -104.5t0.5 -104.5l-1 -9h-62zM408 33q73 -2 141.5 16.5t129 53t112.5 83t93 107.5l46 256h-251 q-48 0 -101 -5.5t-106 -17.5t-102 -32t-89.5 -51t-68.5 -73.5t-38 -99.5q-10 -55 7 -98.5t50.5 -74t80 -47t96.5 -17.5zM1044 1489q-13 -55 -40.5 -100.5t-66.5 -78t-89 -50.5t-108 -18q-57 0 -102 18t-76 50.5t-46.5 78t-13.5 101.5h53q-5 -92 43.5 -142t141.5 -50 q94 1 159 52t91 139h54z" />
<glyph unicode="&#x104;" d="M997 0l4 -2q-32 -22 -70 -47t-72 -54.5t-59.5 -65t-31.5 -77.5t15.5 -67t63.5 -27q33 -2 62.5 10t58.5 27l10 -49q-31 -18 -63.5 -30.5t-68.5 -12.5q-33 0 -59 11.5t-43.5 31t-25.5 47t-3 59.5q6 44 30 81t57 68.5t71 58t72 49.5l-62 424h-598l-214 -435h-57l713 1456h61 l213 -1456h-4zM310 489h566l-127 890z" />
<glyph unicode="&#x105;" d="M855 17q-1 48 4.5 93t14.5 92q-43 -52 -95.5 -93.5t-112 -70t-124.5 -44t-133 -14.5q-63 1 -120 21.5t-97.5 58.5t-61 92t-9.5 122q10 65 39.5 114.5t73 86t97 61t111.5 39.5t118 21.5t116 7.5h263l28 158q10 69 -7.5 122t-55.5 89.5t-93.5 55.5t-120.5 19t-127.5 -17 t-116 -50.5t-93.5 -82.5t-59 -113l-54 2q19 75 63.5 133.5t105.5 98.5t133 61.5t147 21.5q76 0 141.5 -23t111.5 -67.5t67.5 -108t10.5 -143.5l-94 -542q-8 -53 -7.5 -104.5t0.5 -104.5l-1 -9h-27l4 -2q-32 -22 -70 -47t-72 -54.5t-59.5 -65t-31.5 -77.5t15.5 -67t63.5 -27 q33 -2 62.5 10t58.5 27l10 -49q-31 -18 -63.5 -30.5t-68.5 -12.5q-33 0 -59 11.5t-43.5 31t-25.5 47t-3 59.5q6 46 32 84.5t61 70.5t74.5 59.5t74.5 50.5zM408 33q73 -2 141.5 16.5t129 53t112.5 83t93 107.5l46 256h-251q-48 0 -101 -5.5t-106 -17.5t-102 -32t-89.5 -51 t-68.5 -73.5t-38 -99.5q-10 -55 7 -98.5t50.5 -74t80 -47t96.5 -17.5z" />
<glyph unicode="&#x106;" d="M1024 445q-26 -91 -74 -175t-115 -149t-152.5 -103.5t-187.5 -37.5q-83 1 -144.5 30.5t-104 78.5t-68 113.5t-37 135.5t-10.5 143.5t11 137.5l37 218q13 71 37 145.5t59.5 145.5t82.5 133.5t105.5 110t129 75.5t152.5 29q99 1 172 -38t119.5 -103.5t67.5 -148.5t18 -174 h-52q0 78 -17.5 152t-56 131.5t-100.5 92.5t-151 34q-74 -1 -137.5 -26.5t-116.5 -69.5t-95 -101.5t-74 -122t-54 -132.5t-34 -131l-39 -220q-9 -57 -11.5 -122t6 -130t29 -124.5t57 -105.5t90.5 -74t129 -29q92 -1 167 33.5t134 92t102 132t72 153.5h54zM953 1855l68 -1 l-225 -263l-61 1z" />
<glyph unicode="&#x107;" d="M508 34q71 0 134 21t114.5 59.5t90 92.5t60.5 120h54q-22 -77 -65 -141t-102 -109.5t-131.5 -71t-153.5 -25.5q-74 0 -131.5 22.5t-100 61.5t-69.5 91.5t-41.5 112.5t-16 124.5t8.5 127.5l7 42q18 99 61 195.5t109 173t155 124t200 47.5q83 0 148 -29t109.5 -79.5 t65.5 -119.5t17 -149h-53q4 69 -13 128t-54 102.5t-92.5 68t-126.5 24.5q-67 0 -124.5 -19.5t-106 -54t-88 -81t-69.5 -100.5t-51 -113t-32 -118l-8 -42q-9 -55 -9.5 -112.5t10 -111.5t32.5 -101.5t58 -83t86.5 -56.5t117.5 -21zM914 1513l68 -1l-225 -263l-61 1z" />
<glyph unicode="&#x108;" d="M1024 445q-26 -91 -74 -175t-115 -149t-152.5 -103.5t-187.5 -37.5q-83 1 -144.5 30.5t-104 78.5t-68 113.5t-37 135.5t-10.5 143.5t11 137.5l37 218q13 71 37 145.5t59.5 145.5t82.5 133.5t105.5 110t129 75.5t152.5 29q99 1 172 -38t119.5 -103.5t67.5 -148.5t18 -174 h-52q0 78 -17.5 152t-56 131.5t-100.5 92.5t-151 34q-74 -1 -137.5 -26.5t-116.5 -69.5t-95 -101.5t-74 -122t-54 -132.5t-34 -131l-39 -220q-9 -57 -11.5 -122t6 -130t29 -124.5t57 -105.5t90.5 -74t129 -29q92 -1 167 33.5t134 92t102 132t72 153.5h54zM1024 1614l-2 -10 l-65 -1l-146 196l-214 -194h-65l1 14l261 238h40z" />
<glyph unicode="&#x109;" d="M508 34q71 0 134 21t114.5 59.5t90 92.5t60.5 120h54q-22 -77 -65 -141t-102 -109.5t-131.5 -71t-153.5 -25.5q-74 0 -131.5 22.5t-100 61.5t-69.5 91.5t-41.5 112.5t-16 124.5t8.5 127.5l7 42q18 99 61 195.5t109 173t155 124t200 47.5q83 0 148 -29t109.5 -79.5 t65.5 -119.5t17 -149h-53q4 69 -13 128t-54 102.5t-92.5 68t-126.5 24.5q-67 0 -124.5 -19.5t-106 -54t-88 -81t-69.5 -100.5t-51 -113t-32 -118l-8 -42q-9 -55 -9.5 -112.5t10 -111.5t32.5 -101.5t58 -83t86.5 -56.5t117.5 -21zM985 1272l-2 -10l-65 -1l-146 196l-214 -194 h-65l1 14l261 238h40z" />
<glyph unicode="&#x10a;" d="M1024 445q-26 -91 -74 -175t-115 -149t-152.5 -103.5t-187.5 -37.5q-83 1 -144.5 30.5t-104 78.5t-68 113.5t-37 135.5t-10.5 143.5t11 137.5l37 218q13 71 37 145.5t59.5 145.5t82.5 133.5t105.5 110t129 75.5t152.5 29q99 1 172 -38t119.5 -103.5t67.5 -148.5t18 -174 h-52q0 78 -17.5 152t-56 131.5t-100.5 92.5t-151 34q-74 -1 -137.5 -26.5t-116.5 -69.5t-95 -101.5t-74 -122t-54 -132.5t-34 -131l-39 -220q-9 -57 -11.5 -122t6 -130t29 -124.5t57 -105.5t90.5 -74t129 -29q92 -1 167 33.5t134 92t102 132t72 153.5h54zM737 1739 q3 20 22.5 37t40.5 17q23 0 38.5 -17.5t11.5 -40.5q-3 -21 -23 -37t-41 -16q-23 1 -38 17.5t-11 39.5z" />
<glyph unicode="&#x10b;" d="M508 34q71 0 134 21t114.5 59.5t90 92.5t60.5 120h54q-22 -77 -65 -141t-102 -109.5t-131.5 -71t-153.5 -25.5q-74 0 -131.5 22.5t-100 61.5t-69.5 91.5t-41.5 112.5t-16 124.5t8.5 127.5l7 42q18 99 61 195.5t109 173t155 124t200 47.5q83 0 148 -29t109.5 -79.5 t65.5 -119.5t17 -149h-53q4 69 -13 128t-54 102.5t-92.5 68t-126.5 24.5q-67 0 -124.5 -19.5t-106 -54t-88 -81t-69.5 -100.5t-51 -113t-32 -118l-8 -42q-9 -55 -9.5 -112.5t10 -111.5t32.5 -101.5t58 -83t86.5 -56.5t117.5 -21zM698 1397q3 20 22.5 37t40.5 17 q23 0 38.5 -17.5t11.5 -40.5q-3 -21 -23 -37t-41 -16q-23 1 -38 17.5t-11 39.5z" />
<glyph unicode="&#x10c;" d="M1024 445q-26 -91 -74 -175t-115 -149t-152.5 -103.5t-187.5 -37.5q-83 1 -144.5 30.5t-104 78.5t-68 113.5t-37 135.5t-10.5 143.5t11 137.5l37 218q13 71 37 145.5t59.5 145.5t82.5 133.5t105.5 110t129 75.5t152.5 29q99 1 172 -38t119.5 -103.5t67.5 -148.5t18 -174 h-52q0 78 -17.5 152t-56 131.5t-100.5 92.5t-151 34q-74 -1 -137.5 -26.5t-116.5 -69.5t-95 -101.5t-74 -122t-54 -132.5t-34 -131l-39 -220q-9 -57 -11.5 -122t6 -130t29 -124.5t57 -105.5t90.5 -74t129 -29q92 -1 167 33.5t134 92t102 132t72 153.5h54zM775 1645l226 215 h54l-1 -13l-251 -249h-58l-175 252l1 11l55 1z" />
<glyph unicode="&#x10d;" d="M508 34q71 0 134 21t114.5 59.5t90 92.5t60.5 120h54q-22 -77 -65 -141t-102 -109.5t-131.5 -71t-153.5 -25.5q-74 0 -131.5 22.5t-100 61.5t-69.5 91.5t-41.5 112.5t-16 124.5t8.5 127.5l7 42q18 99 61 195.5t109 173t155 124t200 47.5q83 0 148 -29t109.5 -79.5 t65.5 -119.5t17 -149h-53q4 69 -13 128t-54 102.5t-92.5 68t-126.5 24.5q-67 0 -124.5 -19.5t-106 -54t-88 -81t-69.5 -100.5t-51 -113t-32 -118l-8 -42q-9 -55 -9.5 -112.5t10 -111.5t32.5 -101.5t58 -83t86.5 -56.5t117.5 -21zM736 1302l226 215h54l-1 -13l-251 -249h-58 l-175 252l1 11l55 1z" />
<glyph unicode="&#x10e;" d="M89 0l253 1456h351q84 -2 151 -30t118 -74.5t85.5 -108.5t53.5 -132t22 -145.5t-8 -148.5l-30 -178q-14 -77 -43 -154t-71.5 -147.5t-97 -131t-120.5 -105.5t-142 -72t-161 -29h-361zM385 1402l-234 -1348h299q77 2 146 27t129 66.5t110 97t89 120t65.5 134.5t40.5 140 l32 181q10 65 8 133t-17.5 132t-45 120.5t-74 99.5t-104.5 69t-136 28h-308zM712 1624l226 215h54l-1 -13l-251 -249h-58l-175 252l1 11l55 1z" />
<glyph unicode="&#x10f;" horiz-adv-x="1352" d="M162 552q11 65 32.5 131t53 127t73 114.5t94 93t115.5 62t138 22.5q51 0 97.5 -15t85.5 -42t69.5 -65t50.5 -84l112 640h54l-264 -1536h-54l31 162q-34 -40 -75.5 -73.5t-89 -57.5t-98.5 -37.5t-105 -13.5q-75 0 -130.5 24t-94.5 65.5t-63 96t-35 116t-10.5 125.5 t9.5 124zM214 531q-9 -52 -11.5 -109t5 -112t25.5 -104.5t50.5 -87.5t81 -60.5t115.5 -23.5q58 0 113.5 16t105 45.5t91 70t71.5 89.5l95 535q-9 55 -33.5 102.5t-62 82t-86 54t-106.5 19.5q-100 0 -176.5 -45t-132 -116.5t-90.5 -160t-51 -174.5zM1442 1433 q-32 -165 -150 -282l-34 34q48 54 81 114.5t47 131.5l19 105h53z" />
<glyph unicode="&#x110;" horiz-adv-x="1232" d="M119 0l124 713h-266l8 54h267l120 689h351q84 -2 151 -30t118 -74.5t85.5 -108.5t53.5 -132t22 -145.5t-8 -148.5l-30 -178q-14 -77 -43 -154t-71.5 -147.5t-97 -131t-120.5 -105.5t-142 -72t-161 -29h-361zM548 713h-253l-114 -659h299q77 2 146 27t129 66.5t110 97 t89 120t65.5 134.5t40.5 140l32 181q10 65 8 133t-17.5 132t-45 120.5t-74 99.5t-104.5 69t-136 28h-308l-110 -635h251z" />
<glyph unicode="&#x111;" horiz-adv-x="1232" d="M1273 1281h-180l-220 -1281h-54l31 162q-34 -40 -75.5 -73.5t-89 -57.5t-98.5 -37.5t-105 -13.5q-75 0 -130.5 24t-94.5 65.5t-63 96t-35 116t-10.5 125.5t9.5 124l4 21q11 65 32.5 131t53 127t73 114.5t94 93t115.5 62t138 22.5q51 0 97.5 -15t85.5 -42t69.5 -65 t50.5 -84l67 385h-336l8 54h338l35 201h54l-35 -201h179zM214 531q-9 -52 -11.5 -109t5 -112t25.5 -104.5t50.5 -87.5t81 -60.5t115.5 -23.5q58 0 113.5 16t105 45.5t91 70t71.5 89.5l95 535q-9 55 -33.5 102.5t-62 82t-86 54t-106.5 19.5q-100 0 -176.5 -45t-132 -116.5 t-90.5 -160t-51 -174.5z" />
<glyph unicode="&#x112;" d="M945 722h-658l-116 -668h748l-7 -54h-803l252 1456h801l-7 -54h-750l-109 -626h656zM999 1733h-609l6 53h610z" />
<glyph unicode="&#x113;" d="M536 -20q-72 0 -132 22t-107 60t-80 89.5t-52.5 111t-25 125t4.5 130.5l8 44q12 66 37 131.5t62 125.5t84.5 112t104.5 90t122 59.5t138 21.5q96 0 166 -39.5t113.5 -104.5t59 -148t3.5 -170l-10 -63h-821l-3 -15l-9 -44q-15 -86 -1 -172.5t57 -155.5t113.5 -112.5 t166.5 -44.5q103 -1 191 39t162 109l37 -29q-78 -81 -176.5 -126.5t-212.5 -45.5zM701 1048q-90 0 -166 -36t-136.5 -94.5t-105 -133.5t-72.5 -153h762l3 13q15 73 2.5 145.5t-49 129.5t-97 93t-141.5 36zM1044 1412h-609l6 53h610z" />
<glyph unicode="&#x114;" d="M945 722h-658l-116 -668h748l-7 -54h-803l252 1456h801l-7 -54h-750l-109 -626h656zM987 1809q-13 -55 -40.5 -100.5t-66.5 -78t-89 -50.5t-108 -18q-57 0 -102 18t-76 50.5t-46.5 78t-13.5 101.5h53q-5 -92 43.5 -142t141.5 -50q94 1 159 52t91 139h54z" />
<glyph unicode="&#x115;" d="M536 -20q-72 0 -132 22t-107 60t-80 89.5t-52.5 111t-25 125t4.5 130.5l8 44q12 66 37 131.5t62 125.5t84.5 112t104.5 90t122 59.5t138 21.5q96 0 166 -39.5t113.5 -104.5t59 -148t3.5 -170l-10 -63h-821l-3 -15l-9 -44q-15 -86 -1 -172.5t57 -155.5t113.5 -112.5 t166.5 -44.5q103 -1 191 39t162 109l37 -29q-78 -81 -176.5 -126.5t-212.5 -45.5zM701 1048q-90 0 -166 -36t-136.5 -94.5t-105 -133.5t-72.5 -153h762l3 13q15 73 2.5 145.5t-49 129.5t-97 93t-141.5 36zM1032 1488q-13 -55 -40.5 -100.5t-66.5 -78t-89 -50.5t-108 -18 q-57 0 -102 18t-76 50.5t-46.5 78t-13.5 101.5h53q-5 -92 43.5 -142t141.5 -50q94 1 159 52t91 139h54z" />
<glyph unicode="&#x116;" d="M945 722h-658l-116 -668h748l-7 -54h-803l252 1456h801l-7 -54h-750l-109 -626h656zM647 1718q3 20 22.5 37t40.5 17q23 0 38.5 -17.5t11.5 -40.5q-3 -21 -23 -37t-41 -16q-23 1 -38 17.5t-11 39.5z" />
<glyph unicode="&#x117;" d="M536 -20q-72 0 -132 22t-107 60t-80 89.5t-52.5 111t-25 125t4.5 130.5l8 44q12 66 37 131.5t62 125.5t84.5 112t104.5 90t122 59.5t138 21.5q96 0 166 -39.5t113.5 -104.5t59 -148t3.5 -170l-10 -63h-821l-3 -15l-9 -44q-15 -86 -1 -172.5t57 -155.5t113.5 -112.5 t166.5 -44.5q103 -1 191 39t162 109l37 -29q-78 -81 -176.5 -126.5t-212.5 -45.5zM701 1048q-90 0 -166 -36t-136.5 -94.5t-105 -133.5t-72.5 -153h762l3 13q15 73 2.5 145.5t-49 129.5t-97 93t-141.5 36zM692 1398q3 20 22.5 37t40.5 17q23 0 38.5 -17.5t11.5 -40.5 q-3 -21 -23 -37t-41 -16q-23 1 -38 17.5t-11 39.5z" />
<glyph unicode="&#x118;" d="M945 722h-658l-116 -668h748l-7 -54h-132l4 -2q-32 -22 -70 -47t-72 -54.5t-59.5 -65t-31.5 -77.5t15.5 -67t63.5 -27q33 -2 62.5 10t58.5 27l10 -49q-31 -18 -63.5 -30.5t-68.5 -12.5q-33 0 -59 11.5t-43.5 31t-25.5 47t-3 59.5q6 41 27.5 76.5t51.5 65.5t65.5 56 t68.5 48h-602l252 1456h801l-7 -54h-750l-109 -626h656z" />
<glyph unicode="&#x119;" d="M536 -20q-72 0 -132 22t-107 60t-80 89.5t-52.5 111t-25 125t4.5 130.5l8 44q12 66 37 131.5t62 125.5t84.5 112t104.5 90t122 59.5t138 21.5q96 0 166 -39.5t113.5 -104.5t59 -148t3.5 -170l-10 -63h-821l-3 -15l-9 -44q-15 -86 -1 -172.5t57 -155.5t113.5 -112.5 t166.5 -44.5q103 -1 191 39t162 109l37 -29q-62 -63 -131 -103l2 -1q-32 -22 -70 -47t-72 -54.5t-59.5 -65t-31.5 -77.5t15.5 -67t63.5 -27q33 -2 62.5 10t58.5 27l10 -49q-31 -18 -63.5 -30.5t-68.5 -12.5q-33 0 -59 11.5t-43.5 31t-25.5 47t-3 59.5q8 58 45 103.5t85 83.5 q-26 -5 -51.5 -8t-52.5 -3zM701 1048q-90 0 -166 -36t-136.5 -94.5t-105 -133.5t-72.5 -153h762l3 13q15 73 2.5 145.5t-49 129.5t-97 93t-141.5 36z" />
<glyph unicode="&#x11a;" d="M945 722h-658l-116 -668h748l-7 -54h-803l252 1456h801l-7 -54h-750l-109 -626h656zM685 1624l226 215h54l-1 -13l-251 -249h-58l-175 252l1 11l55 1z" />
<glyph unicode="&#x11b;" d="M536 -20q-72 0 -132 22t-107 60t-80 89.5t-52.5 111t-25 125t4.5 130.5l8 44q12 66 37 131.5t62 125.5t84.5 112t104.5 90t122 59.5t138 21.5q96 0 166 -39.5t113.5 -104.5t59 -148t3.5 -170l-10 -63h-821l-3 -15l-9 -44q-15 -86 -1 -172.5t57 -155.5t113.5 -112.5 t166.5 -44.5q103 -1 191 39t162 109l37 -29q-78 -81 -176.5 -126.5t-212.5 -45.5zM701 1048q-90 0 -166 -36t-136.5 -94.5t-105 -133.5t-72.5 -153h762l3 13q15 73 2.5 145.5t-49 129.5t-97 93t-141.5 36zM730 1303l226 215h54l-1 -13l-251 -249h-58l-175 252l1 11l55 1z " />
<glyph unicode="&#x11c;" d="M972 156q-91 -91 -210.5 -134.5t-247.5 -41.5q-84 1 -147.5 30t-109.5 77.5t-75 112t-43 134t-15 144t10 142.5l41 238q13 70 38 143.5t62 142t85.5 129t107.5 105.5t129 71.5t151 26.5q90 0 160.5 -32.5t119 -89t74 -132t24.5 -160.5h-52q-4 73 -25.5 138.5t-61.5 115 t-99 78t-139 28.5q-73 -1 -136.5 -25t-117 -65t-97 -96.5t-77 -117.5t-56.5 -128.5t-35 -129.5l-42 -240q-10 -61 -11 -127.5t10 -131t34.5 -123t63 -103.5t96 -72t132.5 -29q114 -2 219.5 33t188.5 114l75 424h-382l8 55h436zM1034 1614l-2 -10l-65 -1l-146 196l-214 -194 h-65l1 14l261 238h40z" />
<glyph unicode="&#x11d;" d="M164 552q11 65 32.5 131t53 127t73 114.5t94 93t115.5 62t138 22.5q51 0 97 -14.5t85 -41.5t69.5 -65t50.5 -84l34 185h55l-184 -1067q-17 -89 -56.5 -170.5t-99.5 -143.5t-139.5 -99.5t-175.5 -37.5q-103 0 -183 49.5t-135 134.5l41 34q48 -74 115.5 -119.5t158.5 -45.5 q86 0 156 33t123 88t88.5 127t51.5 150l29 145q-34 -40 -75.5 -73t-88.5 -57t-98.5 -37t-104.5 -13q-75 0 -130.5 24t-94.5 65.5t-63 96t-35 116t-10.5 125.5t9.5 124zM215 531q-9 -52 -11 -109t5 -112t25.5 -104.5t51 -87.5t81 -60.5t115.5 -23.5q59 0 115 16.5t105.5 47 t90.5 72.5t70 92l93 521q-8 56 -32 104.5t-60.5 84t-85.5 56t-108 20.5q-100 0 -177 -45t-132.5 -116.5t-90.5 -160t-51 -174.5zM986 1272l-2 -10l-65 -1l-146 196l-214 -194h-65l1 14l261 238h40z" />
<glyph unicode="&#x11e;" d="M972 156q-91 -91 -210.5 -134.5t-247.5 -41.5q-84 1 -147.5 30t-109.5 77.5t-75 112t-43 134t-15 144t10 142.5l41 238q13 70 38 143.5t62 142t85.5 129t107.5 105.5t129 71.5t151 26.5q90 0 160.5 -32.5t119 -89t74 -132t24.5 -160.5h-52q-4 73 -25.5 138.5t-61.5 115 t-99 78t-139 28.5q-73 -1 -136.5 -25t-117 -65t-97 -96.5t-77 -117.5t-56.5 -128.5t-35 -129.5l-42 -240q-10 -61 -11 -127.5t10 -131t34.5 -123t63 -103.5t96 -72t132.5 -29q114 -2 219.5 33t188.5 114l75 424h-382l8 55h436zM1087 1830q-13 -55 -40.5 -100.5t-66.5 -78 t-89 -50.5t-108 -18q-57 0 -102 18t-76 50.5t-46.5 78t-13.5 101.5h53q-5 -92 43.5 -142t141.5 -50q94 1 159 52t91 139h54z" />
<glyph unicode="&#x11f;" d="M164 552q11 65 32.5 131t53 127t73 114.5t94 93t115.5 62t138 22.5q51 0 97 -14.5t85 -41.5t69.5 -65t50.5 -84l34 185h55l-184 -1067q-17 -89 -56.5 -170.5t-99.5 -143.5t-139.5 -99.5t-175.5 -37.5q-103 0 -183 49.5t-135 134.5l41 34q48 -74 115.5 -119.5t158.5 -45.5 q86 0 156 33t123 88t88.5 127t51.5 150l29 145q-34 -40 -75.5 -73t-88.5 -57t-98.5 -37t-104.5 -13q-75 0 -130.5 24t-94.5 65.5t-63 96t-35 116t-10.5 125.5t9.5 124zM215 531q-9 -52 -11 -109t5 -112t25.5 -104.5t51 -87.5t81 -60.5t115.5 -23.5q59 0 115 16.5t105.5 47 t90.5 72.5t70 92l93 521q-8 56 -32 104.5t-60.5 84t-85.5 56t-108 20.5q-100 0 -177 -45t-132.5 -116.5t-90.5 -160t-51 -174.5zM1039 1487q-13 -55 -40.5 -100.5t-66.5 -78t-89 -50.5t-108 -18q-57 0 -102 18t-76 50.5t-46.5 78t-13.5 101.5h53q-5 -92 43.5 -142t141.5 -50 q94 1 159 52t91 139h54z" />
<glyph unicode="&#x120;" d="M972 156q-91 -91 -210.5 -134.5t-247.5 -41.5q-84 1 -147.5 30t-109.5 77.5t-75 112t-43 134t-15 144t10 142.5l41 238q13 70 38 143.5t62 142t85.5 129t107.5 105.5t129 71.5t151 26.5q90 0 160.5 -32.5t119 -89t74 -132t24.5 -160.5h-52q-4 73 -25.5 138.5t-61.5 115 t-99 78t-139 28.5q-73 -1 -136.5 -25t-117 -65t-97 -96.5t-77 -117.5t-56.5 -128.5t-35 -129.5l-42 -240q-10 -61 -11 -127.5t10 -131t34.5 -123t63 -103.5t96 -72t132.5 -29q114 -2 219.5 33t188.5 114l75 424h-382l8 55h436zM747 1739q3 20 22.5 37t40.5 17 q23 0 38.5 -17.5t11.5 -40.5q-3 -21 -23 -37t-41 -16q-23 1 -38 17.5t-11 39.5z" />
<glyph unicode="&#x121;" d="M164 552q11 65 32.5 131t53 127t73 114.5t94 93t115.5 62t138 22.5q51 0 97 -14.5t85 -41.5t69.5 -65t50.5 -84l34 185h55l-184 -1067q-17 -89 -56.5 -170.5t-99.5 -143.5t-139.5 -99.5t-175.5 -37.5q-103 0 -183 49.5t-135 134.5l41 34q48 -74 115.5 -119.5t158.5 -45.5 q86 0 156 33t123 88t88.5 127t51.5 150l29 145q-34 -40 -75.5 -73t-88.5 -57t-98.5 -37t-104.5 -13q-75 0 -130.5 24t-94.5 65.5t-63 96t-35 116t-10.5 125.5t9.5 124zM215 531q-9 -52 -11 -109t5 -112t25.5 -104.5t51 -87.5t81 -60.5t115.5 -23.5q59 0 115 16.5t105.5 47 t90.5 72.5t70 92l93 521q-8 56 -32 104.5t-60.5 84t-85.5 56t-108 20.5q-100 0 -177 -45t-132.5 -116.5t-90.5 -160t-51 -174.5zM699 1397q3 20 22.5 37t40.5 17q23 0 38.5 -17.5t11.5 -40.5q-3 -21 -23 -37t-41 -16q-23 1 -38 17.5t-11 39.5z" />
<glyph unicode="&#x122;" d="M972 156q-91 -91 -210.5 -134.5t-247.5 -41.5q-84 1 -147.5 30t-109.5 77.5t-75 112t-43 134t-15 144t10 142.5l41 238q13 70 38 143.5t62 142t85.5 129t107.5 105.5t129 71.5t151 26.5q90 0 160.5 -32.5t119 -89t74 -132t24.5 -160.5h-52q-4 73 -25.5 138.5t-61.5 115 t-99 78t-139 28.5q-73 -1 -136.5 -25t-117 -65t-97 -96.5t-77 -117.5t-56.5 -128.5t-35 -129.5l-42 -240q-10 -61 -11 -127.5t10 -131t34.5 -123t63 -103.5t96 -72t132.5 -29q114 -2 219.5 33t188.5 114l75 424h-382l8 55h436zM507 -175q-25 -137 -124 -242l-34 34 q38 47 64.5 97t38.5 109l14 79h54z" />
<glyph unicode="&#x123;" d="M164 552q11 65 32.5 131t53 127t73 114.5t94 93t115.5 62t138 22.5q51 0 97 -14.5t85 -41.5t69.5 -65t50.5 -84l34 185h55l-184 -1067q-17 -89 -56.5 -170.5t-99.5 -143.5t-139.5 -99.5t-175.5 -37.5q-103 0 -183 49.5t-135 134.5l41 34q48 -74 115.5 -119.5t158.5 -45.5 q86 0 156 33t123 88t88.5 127t51.5 150l29 145q-34 -40 -75.5 -73t-88.5 -57t-98.5 -37t-104.5 -13q-75 0 -130.5 24t-94.5 65.5t-63 96t-35 116t-10.5 125.5t9.5 124zM215 531q-9 -52 -11 -109t5 -112t25.5 -104.5t51 -87.5t81 -60.5t115.5 -23.5q59 0 115 16.5t105.5 47 t90.5 72.5t70 92l93 521q-8 56 -32 104.5t-60.5 84t-85.5 56t-108 20.5q-100 0 -177 -45t-132.5 -116.5t-90.5 -160t-51 -174.5zM794 1402q11 53 34.5 98.5t54.5 88.5l44 -17q-25 -39 -46 -79.5t-31 -86.5l-23 -132h-54z" />
<glyph unicode="&#x124;" d="M918 0h-51l125 722h-747l-125 -722h-51l251 1456h51l-117 -680h747l117 680h51zM1016 1593l-2 -10l-65 -1l-146 196l-214 -194h-65l1 14l261 238h40z" />
<glyph unicode="&#x125;" d="M295 821q36 58 82.5 109t102 89t119.5 60.5t135 22.5q89 0 149.5 -33t95 -88.5t44 -128.5t-2.5 -152l-120 -700h-55l121 700q11 67 5.5 130.5t-32.5 112t-77.5 78t-129.5 28.5q-71 -1 -142.5 -29.5t-134 -76.5t-109 -110.5t-67.5 -130.5l-121 -702h-55l265 1536h54z M713 1592l-2 -10l-65 -1l-146 196l-214 -194h-65l1 14l261 238h40z" />
<glyph unicode="&#x126;" d="M1097 1081h145l-7 -53h-147l-177 -1028h-51l125 722h-747l-125 -722h-51l177 1028h-118l7 53h120l65 375h51l-65 -375h747l65 375h51zM994 776l43 252h-747l-43 -252h747z" />
<glyph unicode="&#x127;" horiz-adv-x="1232" d="M710 1281h-303l-82 -460q36 58 82.5 109t102 89t119.5 60.5t135 22.5q89 0 149.5 -33t95 -88.5t44 -128.5t-2.5 -152l-120 -700h-55l121 700q11 67 5.5 130.5t-32.5 112t-77.5 78t-129.5 28.5q-71 -1 -142.5 -29.5t-134 -76.5t-109 -110.5t-67.5 -130.5l-121 -702h-55 l221 1281h-215l8 54h216l35 201h54l-36 -201h302z" />
<glyph unicode="&#x128;" d="M353 1456h783l-8 -56h-370l-234 -1346h369l-8 -54h-783l8 54h356l234 1346h-355zM1118 1805q-9 -35 -25 -68t-40 -59t-55.5 -42t-71.5 -16q-39 0 -68.5 20t-57 43.5t-57 42.5t-67.5 18q-29 0 -50.5 -10.5t-38 -27.5t-28 -39t-20.5 -46h-55q9 35 25 67t40 57t55.5 39.5 t70.5 14.5t68.5 -19.5t57.5 -43t57.5 -42.5t67.5 -18q28 0 50 11.5t38.5 29.5t28.5 41t20 47h55z" />
<glyph unicode="&#x129;" d="M314 1082h440l-178 -1028h371l-7 -54h-812l8 54h385l170 974h-384zM1097 1525q-9 -35 -25 -68t-40 -59t-55.5 -42t-71.5 -16q-39 0 -68.5 20t-57 43.5t-57 42.5t-67.5 18q-29 0 -50.5 -10.5t-38 -27.5t-28 -39t-20.5 -46h-55q9 35 25 67t40 57t55.5 39.5t70.5 14.5 t68.5 -19.5t57.5 -43t57.5 -42.5t67.5 -18q28 0 50 11.5t38.5 29.5t28.5 41t20 47h55z" />
<glyph unicode="&#x12a;" d="M353 1456h783l-8 -56h-370l-234 -1346h369l-8 -54h-783l8 54h356l234 1346h-355zM1101 1733h-609l6 53h610z" />
<glyph unicode="&#x12b;" d="M314 1082h440l-178 -1028h371l-7 -54h-812l8 54h385l170 974h-384zM1080 1453h-609l6 53h610z" />
<glyph unicode="&#x12c;" d="M353 1456h783l-8 -56h-370l-234 -1346h369l-8 -54h-783l8 54h356l234 1346h-355zM1089 1809q-13 -55 -40.5 -100.5t-66.5 -78t-89 -50.5t-108 -18q-57 0 -102 18t-76 50.5t-46.5 78t-13.5 101.5h53q-5 -92 43.5 -142t141.5 -50q94 1 159 52t91 139h54z" />
<glyph unicode="&#x12d;" d="M314 1082h440l-178 -1028h371l-7 -54h-812l8 54h385l170 974h-384zM1068 1529q-13 -55 -40.5 -100.5t-66.5 -78t-89 -50.5t-108 -18q-57 0 -102 18t-76 50.5t-46.5 78t-13.5 101.5h53q-5 -92 43.5 -142t141.5 -50q94 1 159 52t91 139h54z" />
<glyph unicode="&#x12e;" d="M353 1456h783l-8 -56h-370l-234 -1346h369l-8 -54h-139l4 -2q-32 -22 -70 -47t-72 -54.5t-59.5 -65t-31.5 -77.5t15.5 -67t63.5 -27q33 -2 62.5 10t58.5 27l10 -49q-31 -18 -63.5 -30.5t-68.5 -12.5q-33 0 -59 11.5t-43.5 31t-25.5 47t-3 59.5q6 41 27.5 76.5t51.5 65.5 t65.5 56t68.5 48h-575l8 54h356l234 1346h-355z" />
<glyph unicode="&#x12f;" d="M314 1082h440l-178 -1028h371l-7 -54h-377l4 -2q-32 -22 -70 -47t-72 -54.5t-59.5 -65t-31.5 -77.5t15.5 -67t63.5 -27q33 -2 62.5 10t58.5 27l10 -49q-31 -18 -63.5 -30.5t-68.5 -12.5q-33 0 -59 11.5t-43.5 31t-25.5 47t-3 59.5q6 41 27.5 76.5t51.5 65.5t65.5 56 t68.5 48h-366l8 54h385l170 974h-384zM709 1391q4 32 25 52.5t53 20.5q34 0 49.5 -22t10.5 -53q-5 -30 -26.5 -50.5t-53.5 -19.5q-32 2 -47.5 21.5t-10.5 50.5z" />
<glyph unicode="&#x130;" d="M353 1456h783l-8 -56h-370l-234 -1346h369l-8 -54h-783l8 54h356l234 1346h-355zM749 1718q3 20 22.5 37t40.5 17q23 0 38.5 -17.5t11.5 -40.5q-3 -21 -23 -37t-41 -16q-23 1 -38 17.5t-11 39.5z" />
<glyph unicode="&#x131;" d="M314 1082h440l-178 -1028h371l-7 -54h-812l8 54h385l170 974h-384z" />
<glyph unicode="&#x132;" d="M95 0h-54l251 1456h53zM1152 1456h54l-192 -1115q-14 -80 -46.5 -146t-82 -113.5t-117 -74t-151.5 -26.5q-79 0 -136.5 25t-93.5 70t-49 107.5t-3 137.5h53q-10 -65 -1.5 -118t36.5 -90.5t76 -57.5t117 -20q74 0 132 22t100.5 61.5t70 96t40.5 126.5z" />
<glyph unicode="&#x133;" d="M739 1082h316l-186 -1076q-16 -89 -53.5 -168.5t-95 -140t-134.5 -97t-173 -37.5q-51 -1 -100.5 4t-99.5 13l11 47q46 -6 92.5 -9t92.5 -2q86 1 154 32.5t119 84.5t84 123t48 150l177 1022h-260zM208 1082h326l-178 -1028h202l-7 -54h-528l7 54h271l169 974h-269z M1003 1392q5 32 26 52.5t54 20.5t48.5 -22t10.5 -53t-26 -50t-53 -20q-33 0 -49 20t-11 52zM488 1391q5 32 26 52.5t53 20.5q34 0 49.5 -22t10.5 -53q-5 -30 -26.5 -50.5t-53.5 -19.5q-32 2 -47.5 21.5t-11.5 50.5z" />
<glyph unicode="&#x134;" d="M1066 1456h54l-174 -1014q-17 -91 -61.5 -174.5t-109.5 -147t-149 -101.5t-181 -39q-94 -1 -164.5 31.5t-116 89.5t-65.5 134t-13 166h54q-8 -77 7.5 -144.5t54 -117t99.5 -78t143 -27.5q85 1 159.5 35t133 90t98.5 129.5t56 153.5zM1362 1563l-2 -10l-65 -1l-146 196 l-214 -194h-65l1 14l261 238h40z" />
<glyph unicode="&#x135;" d="M345 1082h501l-186 -1076q-16 -89 -53 -168.5t-94.5 -140t-134.5 -97t-173 -37.5q-51 -1 -100.5 4t-100.5 13l12 47q46 -6 92 -9t93 -2q86 1 154 32.5t118.5 84.5t83.5 123t48 150l178 1022h-445zM1116 1358l-2 -10l-65 -1l-146 196l-214 -194h-65l1 14l261 238h40z" />
<glyph unicode="&#x136;" d="M511 763l-246 -213l-95 -550h-51l250 1456h52l-144 -833l247 226l644 606l76 -1l-693 -656l487 -798h-64zM462 -65q-25 -137 -124 -242l-34 34q38 47 64.5 97t38.5 109l14 79h54z" />
<glyph unicode="&#x137;" d="M471 585l-5 -3l-189 -138l-77 -444h-54l264 1536h55l-177 -1026l150 118l586 454h86l-597 -463l438 -619h-68zM410 -61q-25 -137 -124 -242l-34 34q38 47 64.5 97t38.5 109l14 79h54z" />
<glyph unicode="&#x138;" d="M467 532l-222 -181l-60 -351h-55l186 1082h55l-113 -653l205 174l566 478l72 -1l-593 -511l469 -569h-70z" />
<glyph unicode="&#x139;" d="M195 54h745l-7 -54h-803l252 1456h55zM602 1771l68 -1l-225 -263l-61 1z" />
<glyph unicode="&#x13a;" d="M393 1536h444l-257 -1482h367l-7 -54h-812l8 54h389l248 1428h-388zM969 1904l68 -1l-225 -263l-61 1z" />
<glyph unicode="&#x13b;" d="M195 54h745l-7 -54h-803l252 1456h55zM439 -165q-25 -137 -124 -242l-34 34q38 47 64.5 97t38.5 109l14 79h54z" />
<glyph unicode="&#x13c;" d="M393 1536h444l-257 -1482h367l-7 -54h-812l8 54h389l248 1428h-388zM544 -164q-25 -137 -124 -242l-34 34q38 47 64.5 97t38.5 109l14 79h54z" />
<glyph unicode="&#x13d;" d="M195 54h745l-7 -54h-803l252 1456h55zM874 1352q-32 -165 -150 -282l-34 34q48 54 81 114.5t47 131.5l19 105h53z" />
<glyph unicode="&#x13e;" horiz-adv-x="1352" d="M393 1536h444l-257 -1482h367l-7 -54h-812l8 54h389l248 1428h-388zM1175 1435q-32 -165 -150 -282l-34 34q48 54 81 114.5t47 131.5l19 105h53z" />
<glyph unicode="&#x13f;" d="M195 54h745l-7 -54h-803l252 1456h55zM544 759q3 20 22.5 37t40.5 17q23 0 38.5 -17.5t11.5 -40.5q-3 -21 -23 -37t-41 -16q-23 1 -38 17.5t-11 39.5z" />
<glyph unicode="&#x140;" horiz-adv-x="1422" d="M393 1536h444l-257 -1482h367l-7 -54h-812l8 54h389l248 1428h-388zM860 828q3 20 22.5 37t40.5 17q23 0 38.5 -17.5t11.5 -40.5q-3 -21 -23 -37t-41 -16q-23 1 -38 17.5t-11 39.5z" />
<glyph unicode="&#x141;" d="M363 801l332 100l-8 -56l-334 -100l-119 -691h745l-7 -54h-803l126 727l-229 -68l8 56l231 69l116 672h55z" />
<glyph unicode="&#x142;" d="M393 1536h444l-121 -694l399 87l-14 -58l-395 -86l-126 -731h367l-7 -54h-812l8 54h389l125 719l-404 -88l14 58l400 87l113 652h-388z" />
<glyph unicode="&#x143;" d="M918 0h-49l-513 1365l-234 -1365h-51l250 1456h49l512 -1362l234 1362h52zM964 1834l68 -1l-225 -263l-61 1z" />
<glyph unicode="&#x144;" d="M294 822q36 58 82.5 108.5t102 88.5t119 60.5t134.5 22.5q89 0 149.5 -33t94.5 -89t43 -128.5t-3 -151.5l-119 -700h-55l121 700q11 67 5.5 130.5t-32.5 112t-77.5 78t-128.5 28.5q-71 -1 -142.5 -29.5t-133.5 -76.5t-108.5 -110.5t-67.5 -130.5l-121 -702h-55l186 1082 h55l-49 -260v0zM885 1513l68 -1l-225 -263l-61 1z" />
<glyph unicode="&#x145;" d="M918 0h-49l-513 1365l-234 -1365h-51l250 1456h49l512 -1362l234 1362h52zM512 -165q-25 -137 -124 -242l-34 34q38 47 64.5 97t38.5 109l14 79h54z" />
<glyph unicode="&#x146;" d="M294 822q36 58 82.5 108.5t102 88.5t119 60.5t134.5 22.5q89 0 149.5 -33t94.5 -89t43 -128.5t-3 -151.5l-119 -700h-55l121 700q11 67 5.5 130.5t-32.5 112t-77.5 78t-128.5 28.5q-71 -1 -142.5 -29.5t-133.5 -76.5t-108.5 -110.5t-67.5 -130.5l-121 -702h-55l186 1082 h55l-49 -260v0zM492 -165q-25 -137 -124 -242l-34 34q38 47 64.5 97t38.5 109l14 79h54z" />
<glyph unicode="&#x147;" d="M918 0h-49l-513 1365l-234 -1365h-51l250 1456h49l512 -1362l234 1362h52zM786 1624l226 215h54l-1 -13l-251 -249h-58l-175 252l1 11l55 1z" />
<glyph unicode="&#x148;" d="M294 822q36 58 82.5 108.5t102 88.5t119 60.5t134.5 22.5q89 0 149.5 -33t94.5 -89t43 -128.5t-3 -151.5l-119 -700h-55l121 700q11 67 5.5 130.5t-32.5 112t-77.5 78t-128.5 28.5q-71 -1 -142.5 -29.5t-133.5 -76.5t-108.5 -110.5t-67.5 -130.5l-121 -702h-55l186 1082 h55l-49 -260v0zM708 1302l226 215h54l-1 -13l-251 -249h-58l-175 252l1 11l55 1z" />
<glyph unicode="&#x149;" d="M294 822q36 58 82.5 108.5t102 88.5t119 60.5t134.5 22.5q89 0 149.5 -33t94.5 -89t43 -128.5t-3 -151.5l-119 -700h-55l121 700q11 67 5.5 130.5t-32.5 112t-77.5 78t-128.5 28.5q-71 -1 -142.5 -29.5t-133.5 -76.5t-108.5 -110.5t-67.5 -130.5l-121 -702h-55l186 1082 h55l-49 -260v0zM361 1433q-32 -165 -150 -282l-34 34q48 54 81 114.5t47 131.5l19 105h53z" />
<glyph unicode="&#x14a;" d="M1152 1456l-265 -1545q-10 -55 -30 -116t-53.5 -113t-82.5 -85.5t-116 -32.5q-24 0 -46.5 6t-45.5 14l19 50q18 -6 36.5 -11.5t38.5 -5.5q54 0 93 29.5t65.5 74t42.5 95.5t25 95l18 101l-483 1336l-234 -1348h-50l250 1456h50l-1 -7l485 -1339l234 1346h50z" />
<glyph unicode="&#x14b;" d="M309 842q33 57 75.5 104.5t93.5 82t111 54t128 19.5q66 0 114 -20t80.5 -54t51.5 -79.5t26.5 -97t5.5 -106.5t-10 -108l-125 -726q-12 -65 -38.5 -127t-68 -111t-98 -79t-129.5 -31q-33 0 -65.5 6.5t-64.5 14.5l19 50q28 -8 55.5 -13.5t56.5 -4.5q60 1 107 27t81.5 68 t56.5 94.5t33 105.5l127 728q7 44 10 91t-1.5 92.5t-18.5 86.5t-40 71.5t-66.5 49t-97.5 18.5q-81 0 -151.5 -31.5t-127.5 -84.5t-97 -122t-59 -144l-116 -666h-53l186 1082h49l-38 -230z" />
<glyph unicode="&#x14c;" d="M1058 619q-13 -70 -36.5 -145t-59 -146t-82 -134t-104.5 -110.5t-128.5 -75.5t-152.5 -28q-83 0 -144 29.5t-104 79t-68.5 114t-37.5 135.5t-11 143.5t11 137.5l37 218q13 70 37 145t59 146t82 134t105.5 111t128.5 75.5t153 27.5t144.5 -29.5t104 -79t68 -114t37 -135.5 t10 -143.5t-11.5 -137.5zM1043 839q9 57 11.5 122.5t-5.5 130t-28.5 124.5t-57 105.5t-91 73t-129.5 27.5q-74 0 -137.5 -25.5t-116 -69.5t-94.5 -102t-74 -122.5t-53.5 -132.5t-33.5 -131l-39 -220q-9 -57 -11.5 -122.5t5.5 -130.5t28.5 -125t57 -106t90.5 -73.5t130 -27.5 q75 0 138.5 25.5t116 69.5t94.5 102t73.5 123t53 133t33.5 132zM1093 1754h-609l6 53h610z" />
<glyph unicode="&#x14d;" d="M129 562q19 101 65.5 198t117 173t163 122.5t203.5 46.5q74 0 133 -22t103.5 -60.5t75 -91t47 -112.5t20 -125t-6.5 -129l-7 -42q-18 -101 -64.5 -198t-117 -173t-163 -122.5t-203.5 -46.5q-74 0 -133 22t-103.5 60.5t-75 91t-47.5 112.5t-20.5 125t6.5 129zM176 520 q-14 -84 -2.5 -170.5t50 -156.5t105.5 -114.5t166 -44.5t181.5 42.5t146 111.5t105.5 156t60 176l8 42q9 56 7 113.5t-15.5 111.5t-39 101.5t-64 83t-90 56t-116.5 20.5q-98 0 -181 -42.5t-146.5 -111.5t-106 -156t-60.5 -176zM1030 1411h-609l6 53h610z" />
<glyph unicode="&#x14e;" d="M1058 619q-13 -70 -36.5 -145t-59 -146t-82 -134t-104.5 -110.5t-128.5 -75.5t-152.5 -28q-83 0 -144 29.5t-104 79t-68.5 114t-37.5 135.5t-11 143.5t11 137.5l37 218q13 70 37 145t59 146t82 134t105.5 111t128.5 75.5t153 27.5t144.5 -29.5t104 -79t68 -114t37 -135.5 t10 -143.5t-11.5 -137.5zM1043 839q9 57 11.5 122.5t-5.5 130t-28.5 124.5t-57 105.5t-91 73t-129.5 27.5q-74 0 -137.5 -25.5t-116 -69.5t-94.5 -102t-74 -122.5t-53.5 -132.5t-33.5 -131l-39 -220q-9 -57 -11.5 -122.5t5.5 -130.5t28.5 -125t57 -106t90.5 -73.5t130 -27.5 q75 0 138.5 25.5t116 69.5t94.5 102t73.5 123t53 133t33.5 132zM1081 1830q-13 -55 -40.5 -100.5t-66.5 -78t-89 -50.5t-108 -18q-57 0 -102 18t-76 50.5t-46.5 78t-13.5 101.5h53q-5 -92 43.5 -142t141.5 -50q94 1 159 52t91 139h54z" />
<glyph unicode="&#x14f;" d="M129 562q19 101 65.5 198t117 173t163 122.5t203.5 46.5q74 0 133 -22t103.5 -60.5t75 -91t47 -112.5t20 -125t-6.5 -129l-7 -42q-18 -101 -64.5 -198t-117 -173t-163 -122.5t-203.5 -46.5q-74 0 -133 22t-103.5 60.5t-75 91t-47.5 112.5t-20.5 125t6.5 129zM176 520 q-14 -84 -2.5 -170.5t50 -156.5t105.5 -114.5t166 -44.5t181.5 42.5t146 111.5t105.5 156t60 176l8 42q9 56 7 113.5t-15.5 111.5t-39 101.5t-64 83t-90 56t-116.5 20.5q-98 0 -181 -42.5t-146.5 -111.5t-106 -156t-60.5 -176zM1018 1487q-13 -55 -40.5 -100.5t-66.5 -78 t-89 -50.5t-108 -18q-57 0 -102 18t-76 50.5t-46.5 78t-13.5 101.5h53q-5 -92 43.5 -142t141.5 -50q94 1 159 52t91 139h54z" />
<glyph unicode="&#x150;" d="M1058 619q-13 -70 -36.5 -145t-59 -146t-82 -134t-104.5 -110.5t-128.5 -75.5t-152.5 -28q-83 0 -144 29.5t-104 79t-68.5 114t-37.5 135.5t-11 143.5t11 137.5l37 218q13 70 37 145t59 146t82 134t105.5 111t128.5 75.5t153 27.5t144.5 -29.5t104 -79t68 -114t37 -135.5 t10 -143.5t-11.5 -137.5zM1043 839q9 57 11.5 122.5t-5.5 130t-28.5 124.5t-57 105.5t-91 73t-129.5 27.5q-74 0 -137.5 -25.5t-116 -69.5t-94.5 -102t-74 -122.5t-53.5 -132.5t-33.5 -131l-39 -220q-9 -57 -11.5 -122.5t5.5 -130.5t28.5 -125t57 -106t90.5 -73.5t130 -27.5 q75 0 138.5 25.5t116 69.5t94.5 102t73.5 123t53 133t33.5 132zM1124 1875h89l-341 -302l-76 1zM846 1875h83l-295 -302l-72 1z" />
<glyph unicode="&#x151;" d="M129 562q19 101 65.5 198t117 173t163 122.5t203.5 46.5q74 0 133 -22t103.5 -60.5t75 -91t47 -112.5t20 -125t-6.5 -129l-7 -42q-18 -101 -64.5 -198t-117 -173t-163 -122.5t-203.5 -46.5q-74 0 -133 22t-103.5 60.5t-75 91t-47.5 112.5t-20.5 125t6.5 129zM176 520 q-14 -84 -2.5 -170.5t50 -156.5t105.5 -114.5t166 -44.5t181.5 42.5t146 111.5t105.5 156t60 176l8 42q9 56 7 113.5t-15.5 111.5t-39 101.5t-64 83t-90 56t-116.5 20.5q-98 0 -181 -42.5t-146.5 -111.5t-106 -156t-60.5 -176zM1061 1533h89l-341 -302l-76 1zM783 1533h83 l-295 -302l-72 1z" />
<glyph unicode="&#x152;" d="M1055 0h-471q-54 -3 -108 -8t-109 -3q-77 2 -131.5 30t-91 73.5t-57 104.5t-28.5 123.5t-5.5 130.5t12.5 125l52 304q12 65 32 133t49.5 132t69.5 121.5t90.5 101t113 69.5t138.5 29q54 2 107.5 -2.5t108.5 -7.5h479l-8 -54h-470l-109 -626h405l-8 -54h-406l-116 -668 h469zM367 43q44 -2 87.5 -1t87.5 5l241 1361q-42 4 -85 5t-86 -1q-102 -5 -177.5 -55t-128 -126.5t-85 -168.5t-48.5 -180l-53 -306q-9 -51 -13 -110t0.5 -117t20 -112t45.5 -96t77.5 -68.5t116.5 -29.5z" />
<glyph unicode="&#x153;" d="M11 622q9 51 25.5 106.5t40 109t56 101t73.5 84t92 58t112 21.5t106 -23.5t75 -62.5t46 -89.5t21 -105.5q23 51 54 101t71 90t90.5 65t112.5 25q54 0 93.5 -18t66 -49t41.5 -71t21 -85t4.5 -91t-8.5 -88l-28 -143h-532l-21 -117q-6 -36 -9 -79.5t0.5 -88.5t15 -87 t33.5 -75t56 -53.5t84 -21.5q37 -1 71.5 8t66.5 24.5t61.5 36t58.5 41.5l22 -44q-30 -25 -62.5 -47t-67.5 -38.5t-72 -26t-77 -9.5q-59 1 -101.5 25t-71 63t-44.5 88.5t-20 101.5q-24 -53 -56.5 -102.5t-74 -88.5t-93.5 -63t-115 -24q-62 0 -106.5 22.5t-74.5 60.5t-46.5 87 t-22.5 102.5t-4 107t9 100.5zM37 460q-6 -38 -9.5 -84.5t-0.5 -93.5t14.5 -92t34.5 -79.5t60 -55.5t91 -21q53 0 97 19.5t79.5 52.5t63 76t48 90.5t34.5 95.5t22 92l29 162q6 38 9.5 84.5t0 93.5t-14.5 91.5t-34 79.5t-60 56t-90 21t-96.5 -19.5t-79.5 -52.5t-64 -76 t-48.5 -90.5t-35 -96t-22.5 -91.5zM650 611h487l15 81q6 33 9 72t-0.5 78.5t-14 76.5t-31 65.5t-52 46t-76.5 17.5q-52 0 -94.5 -20t-76.5 -53t-60 -76.5t-46 -90.5t-34 -94.5t-23 -88.5z" />
<glyph unicode="&#x154;" d="M692 623h-416l-108 -623h-51l251 1456h379q87 -2 159.5 -35t121.5 -89.5t70.5 -132t6.5 -163.5q-12 -75 -45 -136t-81 -110.5t-108.5 -87t-127.5 -64.5l238 -624l-1 -14h-54zM285 677h370q73 3 139 33t118.5 78.5t88.5 112.5t50 135q14 77 -3 143t-58.5 114.5t-104 77.5 t-138.5 31h-336zM897 1834l68 -1l-225 -263l-61 1z" />
<glyph unicode="&#x155;" d="M990 1102q35 0 69.5 -5t68.5 -11l-12 -50q-32 5 -63.5 9t-63.5 4q-84 0 -169 -23.5t-158 -69.5t-128.5 -112.5t-80.5 -152.5l-117 -691h-61l186 1082h53l-28 -188l-15 -69q44 67 100.5 119t122.5 87t141 53t155 18zM860 1513l68 -1l-225 -263l-61 1z" />
<glyph unicode="&#x156;" d="M692 623h-416l-108 -623h-51l251 1456h379q87 -2 159.5 -35t121.5 -89.5t70.5 -132t6.5 -163.5q-12 -75 -45 -136t-81 -110.5t-108.5 -87t-127.5 -64.5l238 -624l-1 -14h-54zM285 677h370q73 3 139 33t118.5 78.5t88.5 112.5t50 135q14 77 -3 143t-58.5 114.5t-104 77.5 t-138.5 31h-336zM413 -165q-25 -137 -124 -242l-34 34q38 47 64.5 97t38.5 109l14 79h54z" />
<glyph unicode="&#x157;" d="M990 1102q35 0 69.5 -5t68.5 -11l-12 -50q-32 5 -63.5 9t-63.5 4q-84 0 -169 -23.5t-158 -69.5t-128.5 -112.5t-80.5 -152.5l-117 -691h-61l186 1082h53l-28 -188l-15 -69q44 67 100.5 119t122.5 87t141 53t155 18zM303 -156q-25 -137 -124 -242l-34 34q38 47 64.5 97 t38.5 109l14 79h54z" />
<glyph unicode="&#x158;" d="M692 623h-416l-108 -623h-51l251 1456h379q87 -2 159.5 -35t121.5 -89.5t70.5 -132t6.5 -163.5q-12 -75 -45 -136t-81 -110.5t-108.5 -87t-127.5 -64.5l238 -624l-1 -14h-54zM285 677h370q73 3 139 33t118.5 78.5t88.5 112.5t50 135q14 77 -3 143t-58.5 114.5t-104 77.5 t-138.5 31h-336zM719 1624l226 215h54l-1 -13l-251 -249h-58l-175 252l1 11l55 1z" />
<glyph unicode="&#x159;" d="M990 1102q35 0 69.5 -5t68.5 -11l-12 -50q-32 5 -63.5 9t-63.5 4q-84 0 -169 -23.5t-158 -69.5t-128.5 -112.5t-80.5 -152.5l-117 -691h-61l186 1082h53l-28 -188l-15 -69q44 67 100.5 119t122.5 87t141 53t155 18zM683 1302l226 215h54l-1 -13l-251 -249h-58l-175 252 l1 11l55 1z" />
<glyph unicode="&#x15a;" d="M973 349q9 54 0.5 98.5t-31.5 81t-56.5 65t-73.5 51t-84 40.5t-87 33q-71 24 -142 57t-125.5 80t-84 112t-16.5 153q13 85 60 151t113.5 112t147 69.5t160.5 23.5q90 0 161.5 -31.5t120.5 -86t73 -129.5t17 -163h-53q3 75 -17 139.5t-61 112.5t-101.5 76t-138.5 28 q-69 0 -139.5 -19t-130 -57t-102.5 -94.5t-56 -129.5q-10 -52 -1 -95t32 -77.5t57 -62t73.5 -49t82.5 -38.5t84 -30q73 -24 145.5 -58.5t127.5 -84.5t84 -118t16 -158t-60 -159t-114.5 -116t-150 -71.5t-167.5 -24.5q-93 0 -172.5 28t-136.5 81.5t-86.5 129.5t-22.5 172h52 q-3 -84 23 -150.5t74.5 -112.5t117 -70t150.5 -24q74 0 146.5 20t132.5 59.5t102.5 98.5t56.5 137zM953 1855l68 -1l-225 -263l-61 1z" />
<glyph unicode="&#x15b;" d="M920 265q8 44 -2 78.5t-33 61.5t-56 47.5t-69.5 35.5t-74.5 25.5t-70 18.5q-39 9 -82 20.5t-83.5 27t-76.5 37.5t-61 52t-37 69.5t-4 90.5q10 72 53 124t102.5 85t129 48.5t134.5 15.5q73 0 140.5 -18t118.5 -56t80.5 -96t26.5 -139h-55q5 67 -20.5 115.5t-70 79.5 t-102.5 45.5t-117 14.5q-53 0 -112.5 -11.5t-112 -37t-91 -67t-50.5 -101.5q-8 -45 2 -78.5t33 -59t56 -43.5t70 -31.5t74.5 -22.5t69.5 -17q40 -10 83.5 -22.5t84 -30t76.5 -41.5t60.5 -56t36 -72.5t3.5 -92.5q-11 -77 -56 -130.5t-108 -88t-136.5 -50t-140.5 -15.5 q-71 0 -140.5 15.5t-125 51t-89.5 91.5t-32 137h54q0 -69 29.5 -115.5t77 -74.5t106.5 -39.5t119 -11.5q56 0 119 12.5t119 40t97 71.5t53 107zM915 1513l68 -1l-225 -263l-61 1z" />
<glyph unicode="&#x15c;" d="M973 349q9 54 0.5 98.5t-31.5 81t-56.5 65t-73.5 51t-84 40.5t-87 33q-71 24 -142 57t-125.5 80t-84 112t-16.5 153q13 85 60 151t113.5 112t147 69.5t160.5 23.5q90 0 161.5 -31.5t120.5 -86t73 -129.5t17 -163h-53q3 75 -17 139.5t-61 112.5t-101.5 76t-138.5 28 q-69 0 -139.5 -19t-130 -57t-102.5 -94.5t-56 -129.5q-10 -52 -1 -95t32 -77.5t57 -62t73.5 -49t82.5 -38.5t84 -30q73 -24 145.5 -58.5t127.5 -84.5t84 -118t16 -158t-60 -159t-114.5 -116t-150 -71.5t-167.5 -24.5q-93 0 -172.5 28t-136.5 81.5t-86.5 129.5t-22.5 172h52 q-3 -84 23 -150.5t74.5 -112.5t117 -70t150.5 -24q74 0 146.5 20t132.5 59.5t102.5 98.5t56.5 137zM1024 1614l-2 -10l-65 -1l-146 196l-214 -194h-65l1 14l261 238h40z" />
<glyph unicode="&#x15d;" d="M920 265q8 44 -2 78.5t-33 61.5t-56 47.5t-69.5 35.5t-74.5 25.5t-70 18.5q-39 9 -82 20.5t-83.5 27t-76.5 37.5t-61 52t-37 69.5t-4 90.5q10 72 53 124t102.5 85t129 48.5t134.5 15.5q73 0 140.5 -18t118.5 -56t80.5 -96t26.5 -139h-55q5 67 -20.5 115.5t-70 79.5 t-102.5 45.5t-117 14.5q-53 0 -112.5 -11.5t-112 -37t-91 -67t-50.5 -101.5q-8 -45 2 -78.5t33 -59t56 -43.5t70 -31.5t74.5 -22.5t69.5 -17q40 -10 83.5 -22.5t84 -30t76.5 -41.5t60.5 -56t36 -72.5t3.5 -92.5q-11 -77 -56 -130.5t-108 -88t-136.5 -50t-140.5 -15.5 q-71 0 -140.5 15.5t-125 51t-89.5 91.5t-32 137h54q0 -69 29.5 -115.5t77 -74.5t106.5 -39.5t119 -11.5q56 0 119 12.5t119 40t97 71.5t53 107zM986 1272l-2 -10l-65 -1l-146 196l-214 -194h-65l1 14l261 238h40z" />
<glyph unicode="&#x15e;" d="M973 349q9 54 0.5 98.5t-31.5 81t-56.5 65t-73.5 51t-84 40.5t-87 33q-71 24 -142 57t-125.5 80t-84 112t-16.5 153q13 85 60 151t113.5 112t147 69.5t160.5 23.5q90 0 161.5 -31.5t120.5 -86t73 -129.5t17 -163h-53q3 75 -17 139.5t-61 112.5t-101.5 76t-138.5 28 q-69 0 -139.5 -19t-130 -57t-102.5 -94.5t-56 -129.5q-10 -52 -1 -95t32 -77.5t57 -62t73.5 -49t82.5 -38.5t84 -30q73 -24 145.5 -58.5t127.5 -84.5t84 -118t16 -158t-60 -159t-114.5 -116t-150 -71.5t-167.5 -24.5q-93 0 -172.5 28t-136.5 81.5t-86.5 129.5t-22.5 172h52 q-3 -84 23 -150.5t74.5 -112.5t117 -70t150.5 -24q74 0 146.5 20t132.5 59.5t102.5 98.5t56.5 137zM553 -9l-26 -77q34 -6 63 -19t49 -33.5t29.5 -49.5t3.5 -67q-8 -54 -40 -89.5t-76.5 -56.5t-96 -30.5t-97.5 -12.5l1 49q35 2 76 9t77.5 22.5t64.5 42t37 67.5q8 37 -6.5 60 t-40 36t-57 19t-58.5 10l44 120h53z" />
<glyph unicode="&#x15f;" d="M920 265q8 44 -2 78.5t-33 61.5t-56 47.5t-69.5 35.5t-74.5 25.5t-70 18.5q-39 9 -82 20.5t-83.5 27t-76.5 37.5t-61 52t-37 69.5t-4 90.5q10 72 53 124t102.5 85t129 48.5t134.5 15.5q73 0 140.5 -18t118.5 -56t80.5 -96t26.5 -139h-55q5 67 -20.5 115.5t-70 79.5 t-102.5 45.5t-117 14.5q-53 0 -112.5 -11.5t-112 -37t-91 -67t-50.5 -101.5q-8 -45 2 -78.5t33 -59t56 -43.5t70 -31.5t74.5 -22.5t69.5 -17q40 -10 83.5 -22.5t84 -30t76.5 -41.5t60.5 -56t36 -72.5t3.5 -92.5q-11 -77 -56 -130.5t-108 -88t-136.5 -50t-140.5 -15.5 q-71 0 -140.5 15.5t-125 51t-89.5 91.5t-32 137h54q0 -69 29.5 -115.5t77 -74.5t106.5 -39.5t119 -11.5q56 0 119 12.5t119 40t97 71.5t53 107zM542 -4l-26 -77q34 -6 63 -19t49 -33.5t29.5 -49.5t3.5 -67q-8 -54 -40 -89.5t-76.5 -56.5t-96 -30.5t-97.5 -12.5l1 49 q35 2 76 9t77.5 22.5t64.5 42t37 67.5q8 37 -6.5 60t-40 36t-57 19t-58.5 10l44 120h53z" />
<glyph unicode="&#x160;" d="M973 349q9 54 0.5 98.5t-31.5 81t-56.5 65t-73.5 51t-84 40.5t-87 33q-71 24 -142 57t-125.5 80t-84 112t-16.5 153q13 85 60 151t113.5 112t147 69.5t160.5 23.5q90 0 161.5 -31.5t120.5 -86t73 -129.5t17 -163h-53q3 75 -17 139.5t-61 112.5t-101.5 76t-138.5 28 q-69 0 -139.5 -19t-130 -57t-102.5 -94.5t-56 -129.5q-10 -52 -1 -95t32 -77.5t57 -62t73.5 -49t82.5 -38.5t84 -30q73 -24 145.5 -58.5t127.5 -84.5t84 -118t16 -158t-60 -159t-114.5 -116t-150 -71.5t-167.5 -24.5q-93 0 -172.5 28t-136.5 81.5t-86.5 129.5t-22.5 172h52 q-3 -84 23 -150.5t74.5 -112.5t117 -70t150.5 -24q74 0 146.5 20t132.5 59.5t102.5 98.5t56.5 137zM775 1645l226 215h54l-1 -13l-251 -249h-58l-175 252l1 11l55 1z" />
<glyph unicode="&#x161;" d="M920 265q8 44 -2 78.5t-33 61.5t-56 47.5t-69.5 35.5t-74.5 25.5t-70 18.5q-39 9 -82 20.5t-83.5 27t-76.5 37.5t-61 52t-37 69.5t-4 90.5q10 72 53 124t102.5 85t129 48.5t134.5 15.5q73 0 140.5 -18t118.5 -56t80.5 -96t26.5 -139h-55q5 67 -20.5 115.5t-70 79.5 t-102.5 45.5t-117 14.5q-53 0 -112.5 -11.5t-112 -37t-91 -67t-50.5 -101.5q-8 -45 2 -78.5t33 -59t56 -43.5t70 -31.5t74.5 -22.5t69.5 -17q40 -10 83.5 -22.5t84 -30t76.5 -41.5t60.5 -56t36 -72.5t3.5 -92.5q-11 -77 -56 -130.5t-108 -88t-136.5 -50t-140.5 -15.5 q-71 0 -140.5 15.5t-125 51t-89.5 91.5t-32 137h54q0 -69 29.5 -115.5t77 -74.5t106.5 -39.5t119 -11.5q56 0 119 12.5t119 40t97 71.5t53 107zM737 1302l226 215h54l-1 -13l-251 -249h-58l-175 252l1 11l55 1z" />
<glyph unicode="&#x162;" d="M1230 1402h-465l-242 -1402h-54l244 1402h-465l8 54h982zM520 0l-26 -77q34 -6 63 -19t49 -33.5t29.5 -49.5t3.5 -67q-8 -54 -40 -89.5t-76.5 -56.5t-96 -30.5t-97.5 -12.5l1 49q35 2 76 9t77.5 22.5t64.5 42t37 67.5q8 37 -6.5 60t-40 36t-57 19t-58.5 10l44 120h53z " />
<glyph unicode="&#x163;" d="M690 1374l-51 -292h378l-8 -55h-379l-134 -768q-9 -58 4 -100t42.5 -69.5t73.5 -41t98 -14.5q41 -1 80.5 2t79.5 7l4 -52q-40 -7 -79.5 -9.5t-79.5 -1.5q-67 1 -122.5 17.5t-93.5 50.5t-55.5 86.5t-7.5 124.5l133 768h-307l7 55h309l51 292h57zM694 0l-26 -77 q34 -6 63 -19t49 -33.5t29.5 -49.5t3.5 -67q-8 -54 -40 -89.5t-76.5 -56.5t-96 -30.5t-97.5 -12.5l1 49q35 2 76 9t77.5 22.5t64.5 42t37 67.5q8 37 -6.5 60t-40 36t-57 19t-58.5 10l44 120h53z" />
<glyph unicode="&#x164;" d="M1230 1402h-465l-242 -1402h-54l244 1402h-465l8 54h982zM772 1616l226 215h54l-1 -13l-251 -249h-58l-175 252l1 11l55 1z" />
<glyph unicode="&#x165;" horiz-adv-x="1242" d="M690 1374l-51 -292h378l-8 -55h-379l-134 -768q-9 -58 4 -100t42.5 -69.5t73.5 -41t98 -14.5q41 -1 80.5 2t79.5 7l4 -52q-40 -7 -79.5 -9.5t-79.5 -1.5q-67 1 -122.5 17.5t-93.5 50.5t-55.5 86.5t-7.5 124.5l133 768h-307l7 55h309l51 292h57zM1106 1456 q-32 -165 -150 -282l-34 34q48 54 81 114.5t47 131.5l19 105h53z" />
<glyph unicode="&#x166;" d="M901 847h-232l-146 -847h-54l147 847h-286l8 54h288l87 501h-465l8 54h982l-8 -54h-465l-87 -501h231z" />
<glyph unicode="&#x167;" d="M841 634h-280l-65 -375q-9 -58 4 -100t42.5 -69.5t73.5 -41t98 -14.5q41 -1 80.5 2t79.5 7l4 -52q-40 -7 -79.5 -9.5t-79.5 -1.5q-67 1 -122.5 17.5t-93.5 50.5t-55.5 86.5t-7.5 124.5l65 375h-235l8 54h236l59 339h-307l7 55h309l51 292h57l-51 -292h378l-8 -55h-379 l-59 -339h278z" />
<glyph unicode="&#x168;" d="M1171 1456l-169 -987q-17 -93 -60.5 -181.5t-108.5 -156.5t-150.5 -109.5t-187.5 -41.5q-101 0 -172.5 43t-115 112.5t-58.5 157t-1 176.5l171 987h51l-170 -987q-12 -77 -1 -155t47 -140t98 -101t151 -39t165 37.5t134.5 98.5t97.5 139.5t55 159.5l172 987h52z M1099 1805q-9 -35 -25 -68t-40 -59t-55.5 -42t-71.5 -16q-39 0 -68.5 20t-57 43.5t-57 42.5t-67.5 18q-29 0 -50.5 -10.5t-38 -27.5t-28 -39t-20.5 -46h-55q9 35 25 67t40 57t55.5 39.5t70.5 14.5t68.5 -19.5t57.5 -43t57.5 -42.5t67.5 -18q28 0 50 11.5t38.5 29.5t28.5 41 t20 47h55z" />
<glyph unicode="&#x169;" d="M831 0l38 193q-72 -102 -176.5 -157.5t-231.5 -55.5q-90 0 -151 35t-95.5 93t-43.5 132.5t3 154.5l118 687h54l-119 -689q-11 -66 -5.5 -130.5t32.5 -115t77 -81.5t128 -32q69 0 137 20.5t126.5 59.5t102.5 94.5t64 124.5l128 749h56l-186 -1082h-56zM1014 1486 q-9 -35 -25 -68t-40 -59t-55.5 -42t-71.5 -16q-39 0 -68.5 20t-57 43.5t-57 42.5t-67.5 18q-29 0 -50.5 -10.5t-38 -27.5t-28 -39t-20.5 -46h-55q9 35 25 67t40 57t55.5 39.5t70.5 14.5t68.5 -19.5t57.5 -43t57.5 -42.5t67.5 -18q28 0 50 11.5t38.5 29.5t28.5 41t20 47h55z " />
<glyph unicode="&#x16a;" d="M1171 1456l-169 -987q-17 -93 -60.5 -181.5t-108.5 -156.5t-150.5 -109.5t-187.5 -41.5q-101 0 -172.5 43t-115 112.5t-58.5 157t-1 176.5l171 987h51l-170 -987q-12 -77 -1 -155t47 -140t98 -101t151 -39t165 37.5t134.5 98.5t97.5 139.5t55 159.5l172 987h52z M1082 1733h-609l6 53h610z" />
<glyph unicode="&#x16b;" d="M831 0l38 193q-72 -102 -176.5 -157.5t-231.5 -55.5q-90 0 -151 35t-95.5 93t-43.5 132.5t3 154.5l118 687h54l-119 -689q-11 -66 -5.5 -130.5t32.5 -115t77 -81.5t128 -32q69 0 137 20.5t126.5 59.5t102.5 94.5t64 124.5l128 749h56l-186 -1082h-56zM998 1414h-609l6 53 h610z" />
<glyph unicode="&#x16c;" d="M1171 1456l-169 -987q-17 -93 -60.5 -181.5t-108.5 -156.5t-150.5 -109.5t-187.5 -41.5q-101 0 -172.5 43t-115 112.5t-58.5 157t-1 176.5l171 987h51l-170 -987q-12 -77 -1 -155t47 -140t98 -101t151 -39t165 37.5t134.5 98.5t97.5 139.5t55 159.5l172 987h52z M1070 1809q-13 -55 -40.5 -100.5t-66.5 -78t-89 -50.5t-108 -18q-57 0 -102 18t-76 50.5t-46.5 78t-13.5 101.5h53q-5 -92 43.5 -142t141.5 -50q94 1 159 52t91 139h54z" />
<glyph unicode="&#x16d;" d="M831 0l38 193q-72 -102 -176.5 -157.5t-231.5 -55.5q-90 0 -151 35t-95.5 93t-43.5 132.5t3 154.5l118 687h54l-119 -689q-11 -66 -5.5 -130.5t32.5 -115t77 -81.5t128 -32q69 0 137 20.5t126.5 59.5t102.5 94.5t64 124.5l128 749h56l-186 -1082h-56zM986 1490 q-13 -55 -40.5 -100.5t-66.5 -78t-89 -50.5t-108 -18q-57 0 -102 18t-76 50.5t-46.5 78t-13.5 101.5h53q-5 -92 43.5 -142t141.5 -50q94 1 159 52t91 139h54z" />
<glyph unicode="&#x16e;" d="M1171 1456l-169 -987q-17 -93 -60.5 -181.5t-108.5 -156.5t-150.5 -109.5t-187.5 -41.5q-101 0 -172.5 43t-115 112.5t-58.5 157t-1 176.5l171 987h51l-170 -987q-12 -77 -1 -155t47 -140t98 -101t151 -39t165 37.5t134.5 98.5t97.5 139.5t55 159.5l172 987h52zM625 1701 q5 33 21.5 64.5t41.5 55.5t56 39t66 15q34 0 61.5 -15t45.5 -40t25.5 -56t2.5 -63q-5 -33 -22 -64t-42 -54t-56.5 -37.5t-65.5 -14.5t-61 14.5t-45 38.5t-25.5 54.5t-2.5 62.5zM679 1701q-4 -21 -0.5 -41.5t14 -37t27.5 -26.5t40 -10q24 0 46 9.5t39 25.5t29 37t17 43 q4 21 1 42.5t-13.5 38.5t-28 27.5t-41.5 10.5t-45.5 -10t-39 -26.5t-29.5 -38.5t-16 -44z" />
<glyph unicode="&#x16f;" d="M831 0l38 193q-72 -102 -176.5 -157.5t-231.5 -55.5q-90 0 -151 35t-95.5 93t-43.5 132.5t3 154.5l118 687h54l-119 -689q-11 -66 -5.5 -130.5t32.5 -115t77 -81.5t128 -32q69 0 137 20.5t126.5 59.5t102.5 94.5t64 124.5l128 749h56l-186 -1082h-56zM541 1382 q5 33 21.5 64.5t41.5 55.5t56 39t66 15q34 0 61.5 -15t45.5 -40t25.5 -56t2.5 -63q-5 -33 -22 -64t-42 -54t-56.5 -37.5t-65.5 -14.5t-61 14.5t-45 38.5t-25.5 54.5t-2.5 62.5zM595 1382q-4 -21 -0.5 -41.5t14 -37t27.5 -26.5t40 -10q24 0 46 9.5t39 25.5t29 37t17 43 q4 21 1 42.5t-13.5 38.5t-28 27.5t-41.5 10.5t-45.5 -10t-39 -26.5t-29.5 -38.5t-16 -44z" />
<glyph unicode="&#x170;" d="M1171 1456l-169 -987q-17 -93 -60.5 -181.5t-108.5 -156.5t-150.5 -109.5t-187.5 -41.5q-101 0 -172.5 43t-115 112.5t-58.5 157t-1 176.5l171 987h51l-170 -987q-12 -77 -1 -155t47 -140t98 -101t151 -39t165 37.5t134.5 98.5t97.5 139.5t55 159.5l172 987h52z M1113 1854h89l-341 -302l-76 1zM835 1854h83l-295 -302l-72 1z" />
<glyph unicode="&#x171;" d="M831 0l38 193q-72 -102 -176.5 -157.5t-231.5 -55.5q-90 0 -151 35t-95.5 93t-43.5 132.5t3 154.5l118 687h54l-119 -689q-11 -66 -5.5 -130.5t32.5 -115t77 -81.5t128 -32q69 0 137 20.5t126.5 59.5t102.5 94.5t64 124.5l128 749h56l-186 -1082h-56zM1028 1535h89 l-341 -302l-76 1zM750 1535h83l-295 -302l-72 1z" />
<glyph unicode="&#x172;" d="M1171 1456l-169 -987q-13 -69 -40 -135.5t-67 -125t-92 -106t-114 -77.5q-32 -22 -68.5 -46.5t-69 -53.5t-56.5 -63t-30 -75q-6 -42 15.5 -67t63.5 -27q33 -2 62.5 10t58.5 27l10 -49q-31 -18 -63.5 -30.5t-68.5 -12.5q-33 0 -59 11.5t-43.5 31t-25.5 47t-3 59.5 q4 31 17.5 58.5t33 52t43 46t49.5 40.5q-14 -2 -29.5 -3t-30.5 -1q-101 0 -172.5 43t-115 112.5t-58.5 157t-1 176.5l171 987h51l-170 -987q-12 -77 -1 -155t47 -140t98 -101t151 -39t165 37.5t134.5 98.5t97.5 139.5t55 159.5l172 987h52z" />
<glyph unicode="&#x173;" d="M882 0l4 -2q-32 -22 -70 -47t-72 -54.5t-59.5 -65t-31.5 -77.5t15.5 -67t63.5 -27q33 -2 62.5 10t58.5 27l10 -49q-31 -18 -63.5 -30.5t-68.5 -12.5q-33 0 -59 11.5t-43.5 31t-25.5 47t-3 59.5q6 45 30.5 82.5t58 69t72 58t72.5 49.5l36 180q-72 -102 -176.5 -157.5 t-231.5 -55.5q-90 0 -151 35t-95.5 93t-43.5 132.5t3 154.5l118 687h54l-119 -689q-11 -66 -5.5 -130.5t32.5 -115t77 -81.5t128 -32q69 0 137 20.5t126.5 59.5t102.5 94.5t64 124.5l128 749h56l-186 -1082h-5z" />
<glyph unicode="&#x174;" d="M278 325l-3 -173l58 182l392 1119v3h51l-2 -3l43 -1128l-2 -175l57 180l352 1125h49l-452 -1455h-49v3l-40 1216l-2 96l-35 -105l-419 -1207l1 -3h-50v1456h49zM1018 1593l-2 -10l-65 -1l-146 196l-214 -194h-65l1 14l261 238h40z" />
<glyph unicode="&#x175;" d="M251 308l3 -203l89 212l318 765h50l56 -774l12 -204l79 214l302 763h58l-427 -1081h-49l-67 818l-3 162l-67 -171l-343 -809h-49l-56 1082h56zM973 1274l-2 -10l-65 -1l-146 196l-214 -194h-65l1 14l261 238h40z" />
<glyph unicode="&#x176;" d="M577 604l581 851h64l-625 -906l-94 -549h-52l95 558l-311 899h64zM996 1582l-2 -10l-65 -1l-146 196l-214 -194h-65l1 14l261 238h40z" />
<glyph unicode="&#x177;" d="M510 74l18 31l597 976h66l-768 -1261q-31 -51 -68.5 -97.5t-82.5 -81.5t-98.5 -56.5t-117.5 -21.5q-23 0 -44.5 3t-44.5 8l5 51l38 -6t39 -3q53 0 99.5 17t85.5 46.5t72 68.5t59 82l106 177l-307 1076h61zM978 1274l-2 -10l-65 -1l-146 196l-214 -194h-65l1 14l261 238 h40z" />
<glyph unicode="&#x178;" d="M577 604l581 851h64l-625 -906l-94 -549h-52l95 558l-311 899h64zM490 1730q3 20 22 37.5t39 17.5q11 0 20.5 -5t16.5 -13.5t10 -18.5t2 -20q-3 -20 -22.5 -37t-39.5 -17q-21 1 -35.5 18.5t-12.5 37.5zM922 1730q3 20 22 37.5t39 17.5q21 0 36 -18.5t13 -38.5 q-3 -20 -22.5 -37t-39.5 -17q-21 1 -36 18.5t-12 37.5z" />
<glyph unicode="&#x179;" d="M123 54h802l-7 -54h-871l5 44l986 1359h-740l7 53h812l-4 -38zM909 1834l68 -1l-225 -263l-61 1z" />
<glyph unicode="&#x17a;" d="M129 54h863l-6 -54h-946l7 44l951 983h-763l7 55l845 -1l-8 -47zM908 1515l68 -1l-225 -263l-61 1z" />
<glyph unicode="&#x17b;" d="M123 54h802l-7 -54h-871l5 44l986 1359h-740l7 53h812l-4 -38zM693 1718q3 20 22.5 37t40.5 17q23 0 38.5 -17.5t11.5 -40.5q-3 -21 -23 -37t-41 -16q-23 1 -38 17.5t-11 39.5z" />
<glyph unicode="&#x17c;" d="M129 54h863l-6 -54h-946l7 44l951 983h-763l7 55l845 -1l-8 -47zM692 1399q3 20 22.5 37t40.5 17q23 0 38.5 -17.5t11.5 -40.5q-3 -21 -23 -37t-41 -16q-23 1 -38 17.5t-11 39.5z" />
<glyph unicode="&#x17d;" d="M123 54h802l-7 -54h-871l5 44l986 1359h-740l7 53h812l-4 -38zM731 1624l226 215h54l-1 -13l-251 -249h-58l-175 252l1 11l55 1z" />
<glyph unicode="&#x17e;" d="M129 54h863l-6 -54h-946l7 44l951 983h-763l7 55l845 -1l-8 -47zM730 1305l226 215h54l-1 -13l-251 -249h-58l-175 252l1 11l55 1z" />
<glyph unicode="&#x17f;" d="M403 0l214 1236q13 71 46.5 129.5t82.5 100.5t112 66t136 25q38 1 74.5 -4.5t72.5 -13.5l-14 -50q-33 7 -66 11t-67 3q-60 -1 -112.5 -21t-94.5 -55t-71 -83.5t-42 -107.5l-214 -1236h-57z" />
<glyph unicode="&#x192;" d="M1046 1027h-358l-176 -1116q-13 -73 -45 -136.5t-81.5 -110.5t-114 -74t-141.5 -27q-34 0 -67.5 6t-66.5 15l19 50q29 -8 57.5 -12.5t58.5 -4.5q65 1 119.5 23.5t96 62t69 93t39.5 115.5l173 1116h-233l7 55h237l25 154q13 74 48.5 133.5t87 100.5t117.5 63.5t140 23.5 q40 0 79 -4.5t77 -12.5l-15 -51q-35 7 -70 11t-70 3q-61 -1 -117 -19.5t-101.5 -53t-77 -83.5t-43.5 -111l-23 -154h357z" />
<glyph unicode="&#x1a0;" d="M1058 619q-13 -70 -36.5 -145t-59 -146t-82 -134t-104.5 -110.5t-128.5 -75.5t-152.5 -28q-83 0 -144 29.5t-104 79t-68.5 114t-37.5 135.5t-11 143.5t11 137.5l37 218q13 70 37 145t59 146t82 134t105.5 111t128.5 75.5t153 27.5q64 0 115.5 -18t91 -49.5t67.5 -75 t47 -93.5q60 9 100.5 36.5t68 68t44.5 91t31 105.5l51 -1q-11 -65 -31.5 -123.5t-53.5 -105t-80.5 -78.5t-112.5 -44q23 -86 25 -178.5t-11 -173.5zM1043 839q9 57 11.5 122.5t-5.5 130t-28.5 124.5t-57 105.5t-91 73t-129.5 27.5q-74 0 -137.5 -25.5t-116 -69.5t-94.5 -102 t-74 -122.5t-53.5 -132.5t-33.5 -131l-39 -220q-9 -57 -11.5 -122.5t5.5 -130.5t28.5 -125t57 -106t90.5 -73.5t130 -27.5q75 0 138.5 25.5t116 69.5t94.5 102t73.5 123t53 133t33.5 132z" />
<glyph unicode="&#x1a1;" d="M103 562q19 101 65.5 198t117 173t163 122.5t203.5 46.5q109 0 185 -46.5t123 -121.5l3 19q57 5 97.5 23.5t69 49.5t47.5 73.5t31 95.5h54q-13 -63 -35 -114t-56.5 -88.5t-82 -61t-110.5 -30.5q37 -75 48.5 -163t-2.5 -176l-7 -42q-18 -101 -64.5 -198t-117 -173 t-163 -122.5t-203.5 -46.5q-74 0 -133 22t-103.5 60.5t-75 91t-47.5 112.5t-20.5 125t6.5 129zM150 520q-14 -84 -2.5 -170.5t50 -156.5t105.5 -114.5t166 -44.5t181.5 42.5t146 111.5t105.5 156t60 176l8 42q9 56 7 113.5t-15.5 111.5t-39 101.5t-64 83t-90 56t-116.5 20.5 q-98 0 -181 -42.5t-146.5 -111.5t-106 -156t-60.5 -176z" />
<glyph unicode="&#x1af;" d="M1171 1456l-35 -202q54 12 92.5 39.5t65.5 66.5t44.5 88t30.5 103l52 -1q-12 -68 -34 -127t-57 -105.5t-85 -77.5t-118 -42l-125 -729q-17 -93 -60.5 -181.5t-108.5 -156.5t-150.5 -109.5t-187.5 -41.5q-101 0 -172.5 43t-115 112.5t-58.5 157t-1 176.5l171 987h51 l-170 -987q-12 -77 -1 -155t47 -140t98 -101t151 -39t165 37.5t134.5 98.5t97.5 139.5t55 159.5l172 987h52z" />
<glyph unicode="&#x1b0;" d="M831 0l38 193q-72 -102 -176.5 -157.5t-231.5 -55.5q-90 0 -151 35t-95.5 93t-43.5 132.5t3 154.5l118 687h54l-119 -689q-11 -66 -5.5 -130.5t32.5 -115t77 -81.5t128 -32q69 0 137 20.5t126.5 59.5t102.5 94.5t64 124.5l128 749h56l-23 -133q50 7 87.5 26.5t64.5 50.5 t45.5 72t30.5 92l55 -1q-27 -128 -96 -204t-197 -91l-153 -894h-56z" />
<glyph unicode="&#x1f0;" d="M345 1082h501l-186 -1076q-16 -89 -53 -168.5t-94.5 -140t-134.5 -97t-173 -37.5q-51 -1 -100.5 4t-100.5 13l12 47q46 -6 92 -9t93 -2q86 1 154 32.5t118.5 84.5t83.5 123t48 150l178 1022h-445zM867 1389l226 215h54l-1 -13l-251 -249h-58l-175 252l1 11l55 1z" />
<glyph unicode="&#x1fa;" d="M883 435h-598l-214 -435h-57l713 1456h61l213 -1456h-54zM310 489h566l-127 890zM979 1919h88l-216 -189l-69 1zM636 1534q4 27 18.5 52.5t36 45t48.5 31.5t55 12t51 -12.5t38.5 -32.5t22.5 -45.5t3 -52.5t-18.5 -51.5t-35.5 -43.5t-47.5 -30.5t-53.5 -11.5 q-28 0 -51.5 11.5t-39.5 30.5t-23.5 44.5t-3.5 52.5zM686 1532q1 -16 5 -31.5t11.5 -27.5t20 -19.5t31.5 -7.5q18 0 35 7.5t31.5 19.5t24.5 28t14 33q4 16 0.5 32t-12.5 28.5t-22.5 20.5t-31.5 8q-21 0 -37 -7.5t-29 -20.5t-23 -29.5t-18 -33.5z" />
<glyph unicode="&#x1fb;" d="M856 0q-2 52 3 101.5t15 100.5q-43 -52 -95.5 -93.5t-112 -70t-124.5 -44t-133 -14.5q-63 1 -120 21.5t-97.5 58.5t-61 92t-9.5 122q10 65 39.5 114.5t73 86t97 61t111.5 39.5t118 21.5t116 7.5h263l28 158q10 69 -7.5 122t-55.5 89.5t-93.5 55.5t-120.5 19t-127.5 -17 t-116 -50.5t-93.5 -82.5t-59 -113l-54 2q19 75 63.5 133.5t105.5 98.5t133 61.5t147 21.5q76 0 141.5 -23t111.5 -67.5t67.5 -108t10.5 -143.5l-94 -542q-8 -53 -7.5 -104.5t0.5 -104.5l-1 -9h-62zM408 33q73 -2 141.5 16.5t129 53t112.5 83t93 107.5l46 256h-251 q-48 0 -101 -5.5t-106 -17.5t-102 -32t-89.5 -51t-68.5 -73.5t-38 -99.5q-10 -55 7 -98.5t50.5 -74t80 -47t96.5 -17.5zM938 1600h88l-216 -189l-69 1zM595 1215q4 27 18.5 52.5t36 45t48.5 31.5t55 12t51 -12.5t38.5 -32.5t22.5 -45.5t3 -52.5t-18.5 -51.5t-35.5 -43.5 t-47.5 -30.5t-53.5 -11.5q-28 0 -51.5 11.5t-39.5 30.5t-23.5 44.5t-3.5 52.5zM645 1213q1 -16 5 -31.5t11.5 -27.5t20 -19.5t31.5 -7.5q18 0 35 7.5t31.5 19.5t24.5 28t14 33q4 16 0.5 32t-12.5 28.5t-22.5 20.5t-31.5 8q-21 0 -37 -7.5t-29 -20.5t-23 -29.5t-18 -33.5z " />
<glyph unicode="&#x1fc;" d="M1012 0h-465l64 425h-358l-227 -425h-55l779 1456h475l-7 -54h-415l-92 -616h349l-7 -54h-349l-101 -678h416zM281 478h337l130 871zM988 1834l68 -1l-225 -263l-61 1z" />
<glyph unicode="&#x1fd;" d="M764 -20q-99 0 -163 55t-84 149q-27 -41 -60.5 -77.5t-73.5 -65t-86 -45t-97 -16.5q-63 0 -106 27t-68 70.5t-32.5 97.5t1.5 109q11 69 41 131t76.5 109t107.5 75.5t134 30.5h197l33 190q8 47 4.5 88.5t-21.5 72t-53 48.5t-89 18q-50 1 -94 -14.5t-79 -44t-58.5 -68.5 t-33.5 -89l-52 1q10 60 38 109.5t69.5 85t94.5 55.5t115 20q100 0 157.5 -53t57.5 -153q24 42 54.5 79t67.5 65t81 45t95 17q79 0 128.5 -35.5t74 -91.5t28.5 -123.5t-6 -131.5l-27 -143h-539l-31 -177q-10 -59 -8.5 -123t22 -118t64.5 -89t120 -35q38 0 72.5 10.5t66 28.5 t60.5 41t55 49l23 -44q-56 -60 -124 -100t-153 -40zM199 32q46 0 88 16.5t78 43t65.5 61.5t50.5 73l1 4q0 -1 1 -1l22 127l2 22t3 22l31 175h-185q-62 -2 -113.5 -26.5t-91 -65t-66 -93t-37.5 -110.5q-8 -43 -4.5 -87t20.5 -80t50 -58.5t85 -22.5zM603 632h493l15 92 q7 51 6 108t-18.5 105t-55.5 79.5t-105 31.5q-78 0 -134 -39.5t-95 -99.5t-63.5 -130.5t-39.5 -133.5zM876 1514l68 -1l-225 -263l-61 1z" />
<glyph unicode="&#x1fe;" d="M1046 619q-13 -70 -36.5 -145t-59 -146t-82 -134t-104.5 -110.5t-128.5 -75.5t-152.5 -28q-89 0 -152.5 33t-107.5 89l-130 -176l-66 1l165 222q-29 50 -45.5 109t-23.5 120.5t-5 123t11 117.5l37 218q13 70 37 145t59 146t82 134t105.5 111t128.5 75.5t153 27.5 q57 0 103.5 -14.5t84 -40t66 -60.5t48.5 -77l156 210l66 -1l-198 -266q16 -46 24.5 -96t11.5 -100t0 -99.5t-10 -94.5zM183 619q-8 -49 -11 -104t1 -111t16.5 -110t35.5 -100l774 1044q-17 40 -41 73.5t-57 58t-75 38.5t-95 14q-74 0 -137.5 -25.5t-116 -69.5t-94.5 -102 t-74 -122.5t-53.5 -132.5t-33.5 -131zM1031 839q13 76 12 165.5t-23 172.5l-765 -1033q36 -50 92 -80t136 -30q75 0 138.5 25.5t116 69.5t94.5 102t73.5 123t53 133t33.5 132zM1010 1896l68 -1l-225 -263l-61 1z" />
<glyph unicode="&#x1ff;" d="M129 562q19 101 65.5 198t117 173t163 122.5t203.5 46.5q50 0 92.5 -10.5t79.5 -29.5l100 156h64l-119 -184q50 -37 84.5 -90t53.5 -115.5t23 -131t-6 -135.5l-7 -42q-18 -101 -64.5 -198t-117 -173t-163 -122.5t-203.5 -46.5q-72 0 -128.5 20.5t-100.5 55.5l-129 -200 h-65l154 239q-36 40 -60 89.5t-36.5 104.5t-14.5 114t7 117zM996 562q9 59 6.5 120t-18.5 117.5t-45.5 105t-73.5 82.5l-569 -884q38 -32 87 -50.5t112 -18.5q99 0 181.5 42.5t146 111.5t105.5 156t60 176zM176 520q-8 -50 -7.5 -101.5t10 -100.5t29 -94t49.5 -81l563 873 q-30 15 -65.5 23.5t-76.5 8.5q-98 0 -181 -42.5t-146.5 -111.5t-106 -156t-60.5 -176zM886 1512l68 -1l-225 -263l-61 1z" />
<glyph unicode="&#x218;" d="M973 349q9 54 0.5 98.5t-31.5 81t-56.5 65t-73.5 51t-84 40.5t-87 33q-71 24 -142 57t-125.5 80t-84 112t-16.5 153q13 85 60 151t113.5 112t147 69.5t160.5 23.5q90 0 161.5 -31.5t120.5 -86t73 -129.5t17 -163h-53q3 75 -17 139.5t-61 112.5t-101.5 76t-138.5 28 q-69 0 -139.5 -19t-130 -57t-102.5 -94.5t-56 -129.5q-10 -52 -1 -95t32 -77.5t57 -62t73.5 -49t82.5 -38.5t84 -30q73 -24 145.5 -58.5t127.5 -84.5t84 -118t16 -158t-60 -159t-114.5 -116t-150 -71.5t-167.5 -24.5q-93 0 -172.5 28t-136.5 81.5t-86.5 129.5t-22.5 172h52 q-3 -84 23 -150.5t74.5 -112.5t117 -70t150.5 -24q74 0 146.5 20t132.5 59.5t102.5 98.5t56.5 137zM532 -185q-25 -137 -124 -242l-34 34q38 47 64.5 97t38.5 109l14 79h54z" />
<glyph unicode="&#x219;" d="M920 265q8 44 -2 78.5t-33 61.5t-56 47.5t-69.5 35.5t-74.5 25.5t-70 18.5q-39 9 -82 20.5t-83.5 27t-76.5 37.5t-61 52t-37 69.5t-4 90.5q10 72 53 124t102.5 85t129 48.5t134.5 15.5q73 0 140.5 -18t118.5 -56t80.5 -96t26.5 -139h-55q5 67 -20.5 115.5t-70 79.5 t-102.5 45.5t-117 14.5q-53 0 -112.5 -11.5t-112 -37t-91 -67t-50.5 -101.5q-8 -45 2 -78.5t33 -59t56 -43.5t70 -31.5t74.5 -22.5t69.5 -17q40 -10 83.5 -22.5t84 -30t76.5 -41.5t60.5 -56t36 -72.5t3.5 -92.5q-11 -77 -56 -130.5t-108 -88t-136.5 -50t-140.5 -15.5 q-71 0 -140.5 15.5t-125 51t-89.5 91.5t-32 137h54q0 -69 29.5 -115.5t77 -74.5t106.5 -39.5t119 -11.5q56 0 119 12.5t119 40t97 71.5t53 107zM521 -180q-25 -137 -124 -242l-34 34q38 47 64.5 97t38.5 109l14 79h54z" />
<glyph unicode="&#x21a;" d="M1230 1402h-465l-242 -1402h-54l244 1402h-465l8 54h982zM499 -175q-25 -137 -124 -242l-34 34q38 47 64.5 97t38.5 109l14 79h54z" />
<glyph unicode="&#x21b;" d="M690 1374l-51 -292h378l-8 -55h-379l-134 -768q-9 -58 4 -100t42.5 -69.5t73.5 -41t98 -14.5q41 -1 80.5 2t79.5 7l4 -52q-40 -7 -79.5 -9.5t-79.5 -1.5q-67 1 -122.5 17.5t-93.5 50.5t-55.5 86.5t-7.5 124.5l133 768h-307l7 55h309l51 292h57zM672 -175 q-25 -137 -124 -242l-34 34q38 47 64.5 97t38.5 109l14 79h54z" />
<glyph unicode="&#x237;" d="M345 1082h501l-186 -1076q-16 -89 -53 -168.5t-94.5 -140t-134.5 -97t-173 -37.5q-51 -1 -100.5 4t-100.5 13l12 47q46 -6 92 -9t93 -2q86 1 154 32.5t118.5 84.5t83.5 123t48 150l178 1022h-445z" />
<glyph unicode="&#x259;" d="M681 1102q103 -2 179.5 -48.5t124.5 -120.5t66 -166.5t4 -185.5l-11 -64q-12 -66 -37 -131t-61.5 -125t-83.5 -111.5t-103.5 -89t-122 -59.5t-137.5 -22q-93 0 -164 36.5t-116 97.5t-62.5 141t-4.5 167l14 83l818 -1l4 14l13 64q14 82 0.5 165t-54 149.5t-107 108.5 t-159.5 44q-104 2 -198 -31t-173 -101l-25 44q84 72 185 108t211 34zM498 33q91 0 166.5 36t135.5 94.5t104 133.5t72 153h-763l-7 -33q-13 -74 1 -143.5t52.5 -123t98.5 -85.5t140 -32z" />
<glyph unicode="&#x2bc;" d="M794 1433q-32 -165 -150 -282l-34 34q48 54 81 114.5t47 131.5l19 105h53z" />
<glyph unicode="&#x2c6;" d="M982 1274l-2 -10l-65 -1l-146 196l-214 -194h-65l1 14l261 238h40z" />
<glyph unicode="&#x2c7;" d="M713 1290l226 215h54l-1 -13l-251 -249h-58l-175 252l1 11l55 1z" />
<glyph unicode="&#x2d8;" d="M1005 1485q-13 -55 -40.5 -100.5t-66.5 -78t-89 -50.5t-108 -18q-57 0 -102 18t-76 50.5t-46.5 78t-13.5 101.5h53q-5 -92 43.5 -142t141.5 -50q94 1 159 52t91 139h54z" />
<glyph unicode="&#x2d9;" d="M677 1399q3 20 22.5 37t40.5 17q23 0 38.5 -17.5t11.5 -40.5q-3 -21 -23 -37t-41 -16q-23 1 -38 17.5t-11 39.5z" />
<glyph unicode="&#x2da;" d="M571 1382q5 33 21.5 64.5t41.5 55.5t56 39t66 15q34 0 61.5 -15t45.5 -40t25.5 -56t2.5 -63q-5 -33 -22 -64t-42 -54t-56.5 -37.5t-65.5 -14.5t-61 14.5t-45 38.5t-25.5 54.5t-2.5 62.5zM625 1382q-4 -21 -0.5 -41.5t14 -37t27.5 -26.5t40 -10q24 0 46 9.5t39 25.5t29 37 t17 43q4 21 1 42.5t-13.5 38.5t-28 27.5t-41.5 10.5t-45.5 -10t-39 -26.5t-29.5 -38.5t-16 -44z" />
<glyph unicode="&#x2db;" d="M578 -2q-32 -22 -70 -47t-72 -54.5t-59.5 -65t-31.5 -77.5t15.5 -67t63.5 -27q33 -2 62.5 10t58.5 27l10 -49q-31 -18 -63.5 -30.5t-68.5 -12.5q-33 0 -59 11.5t-43.5 31t-25.5 47t-3 59.5q6 46 32 84.5t61 70.5t74.5 59.5t74.5 50.5z" />
<glyph unicode="&#x2dc;" d="M892 1471q-9 -35 -25 -68t-40 -59t-55.5 -42t-71.5 -16q-39 0 -68.5 20t-57 43.5t-57 42.5t-67.5 18q-29 0 -50.5 -10.5t-38 -27.5t-28 -39t-20.5 -46h-55q9 35 25 67t40 57t55.5 39.5t70.5 14.5t68.5 -19.5t57.5 -43t57.5 -42.5t67.5 -18q28 0 50 11.5t38.5 29.5 t28.5 41t20 47h55z" />
<glyph unicode="&#x2dd;" d="M971 1535h89l-341 -302l-76 1zM693 1535h83l-295 -302l-72 1z" />
<glyph unicode="&#x2f3;" d="M335 -218q3 24 16.5 45t32.5 37.5t42 26.5t47 10t44 -10t34 -27t20.5 -39t2.5 -45q-3 -23 -16 -44t-31.5 -36.5t-41 -25t-45.5 -9.5q-24 0 -44.5 9.5t-35.5 25.5t-22 37t-3 45zM391 -220q5 -23 14.5 -40.5t36.5 -17.5q12 0 24.5 4.5t23.5 13t19 19.5t10 23q2 11 -1 22 t-10 19t-17 13.5t-21 5.5q-15 1 -27 -4.5t-21.5 -14.5t-17 -20.5t-13.5 -22.5z" />
<glyph unicode="&#x300;" horiz-adv-x="10" d="M-465 1243h-69l-135 292h75z" />
<glyph unicode="&#x301;" horiz-adv-x="10" d="M-376 1535l71 -1l-213 -288l-64 1z" />
<glyph unicode="&#x303;" horiz-adv-x="10" d="M-165 1471q-9 -35 -25 -68t-40 -59t-55.5 -42t-71.5 -16q-39 0 -68.5 20t-57 43.5t-57 42.5t-67.5 18q-29 0 -50.5 -10.5t-38 -27.5t-28 -39t-20.5 -46h-55q9 35 25 67t40 57t55.5 39.5t70.5 14.5t68.5 -19.5t57.5 -43t57.5 -42.5t67.5 -18q28 0 50 11.5t38.5 29.5 t28.5 41t20 47h55z" />
<glyph unicode="&#x309;" horiz-adv-x="10" d="M-518 1227l16 99q28 3 61 8.5t63 17.5t52 33t28 56q7 39 -15.5 61t-57.5 32.5t-73.5 13t-63.5 3.5l14 47q36 -1 82.5 -7t86.5 -23t65 -47.5t18 -81.5q-6 -41 -27.5 -68.5t-52 -46t-66.5 -28.5t-71 -15l-11 -54h-48z" />
<glyph unicode="&#x30f;" horiz-adv-x="10" d="M-796 1253h-72l-244 265h85zM-577 1253h-69l-200 265h81z" />
<glyph unicode="&#x323;" horiz-adv-x="10" d="M-930 -216q3 20 22.5 37t40.5 17t37 -18t12 -40q-2 -10 -8 -19.5t-15 -17t-20 -12t-21 -4.5q-22 1 -36.5 18t-11.5 39z" />
<glyph unicode="&#x384;" d="M855 1577h68l-159 -271h-57z" />
<glyph unicode="&#x385;" d="M810 1657h80l-83 -239h-57zM523 1423q1 9 7 19t14.5 17.5t18.5 12.5t20 5t19.5 -5.5t15.5 -14t9 -18.5t1 -20q-2 -9 -7.5 -18.5t-14 -17t-18.5 -12.5t-20 -5q-21 1 -34.5 19t-10.5 38zM927 1423q1 9 7 19t14.5 17.5t18.5 12.5t20 5q22 -1 35.5 -19t10.5 -39 q-2 -9 -7.5 -18.5t-14 -17t-19 -12.5t-20.5 -5q-20 1 -34 19t-11 38z" />
<glyph unicode="&#x386;" d="M883 435h-598l-214 -435h-57l713 1456h61l213 -1456h-54zM310 489h566l-127 890zM575 1576h68l-159 -271h-57z" />
<glyph unicode="&#x387;" d="M560 708q1 10 7 19.5t14.5 17t19 12.5t20.5 5q22 -1 36.5 -19t11.5 -39q-2 -10 -8 -19.5t-14.5 -17t-19 -12t-20.5 -4.5q-21 1 -35.5 18.5t-11.5 38.5z" />
<glyph unicode="&#x388;" horiz-adv-x="1302" d="M1045 722h-658l-116 -668h748l-7 -54h-803l252 1456h801l-7 -54h-750l-109 -626h656zM358 1578h68l-159 -271h-57z" />
<glyph unicode="&#x389;" horiz-adv-x="1302" d="M1018 0h-51l125 722h-747l-125 -722h-51l251 1456h51l-117 -680h747l117 680h51zM339 1578h68l-159 -271h-57z" />
<glyph unicode="&#x38a;" horiz-adv-x="1302" d="M453 1456h783l-8 -56h-370l-234 -1346h369l-8 -54h-783l8 54h356l234 1346h-355zM324 1578h68l-159 -271h-57z" />
<glyph unicode="&#x38c;" horiz-adv-x="1222" d="M1078 619q-13 -70 -36.5 -145t-59 -146t-82 -134t-104.5 -110.5t-128.5 -75.5t-152.5 -28q-83 0 -144 29.5t-104 79t-68.5 114t-37.5 135.5t-11 143.5t11 137.5l37 218q13 70 37 145t59 146t82 134t105.5 111t128.5 75.5t153 27.5t144.5 -29.5t104 -79t68 -114t37 -135.5 t10 -143.5t-11.5 -137.5zM1063 839q9 57 11.5 122.5t-5.5 130t-28.5 124.5t-57 105.5t-91 73t-129.5 27.5q-74 0 -137.5 -25.5t-116 -69.5t-94.5 -102t-74 -122.5t-53.5 -132.5t-33.5 -131l-39 -220q-9 -57 -11.5 -122.5t5.5 -130.5t28.5 -125t57 -106t90.5 -73.5t130 -27.5 q75 0 138.5 25.5t116 69.5t94.5 102t73.5 123t53 133t33.5 132zM313 1576h68l-159 -271h-57z" />
<glyph unicode="&#x38e;" horiz-adv-x="1302" d="M677 604l581 851h64l-625 -906l-94 -549h-52l95 558l-311 899h64zM257 1576h68l-159 -271h-57z" />
<glyph unicode="&#x38f;" horiz-adv-x="1222" d="M614 78q93 50 166 120.5t127 155t89.5 180.5t54.5 198l21 119q9 58 10.5 122.5t-8.5 128t-32 121.5t-60 102t-93 70.5t-129 26.5q-73 0 -137 -24.5t-117 -67t-96.5 -99t-76.5 -120t-55.5 -130.5t-34.5 -130l-21 -119q-15 -90 -15 -184t22.5 -181t72 -162t134.5 -127 l-5 -24h1l-8 -54h-395l8 54l328 1q-77 60 -122.5 139.5t-67 168.5t-21.5 184t14 185l20 117q13 72 37.5 146t60.5 144t83.5 131t107 107t130 72.5t153.5 26.5t145.5 -28t106.5 -75.5t71 -110.5t40 -132.5t13 -142t-11 -138.5l-20 -117q-18 -102 -53 -201t-88.5 -187.5 t-125.5 -162.5t-164 -128l331 1l-7 -54h-397zM307 1576h68l-159 -271h-57z" />
<glyph unicode="&#x390;" d="M306 1082h302l62 1l-141 -824q-9 -58 3.5 -101t42 -72t74.5 -44t100 -15q40 0 79.5 5.5t78.5 10.5l2 -47q-39 -7 -78 -11.5t-79 -4.5q-67 0 -122.5 17t-93.5 51.5t-55 86.5t-8 124l129 768h-303zM709 1634h80l-83 -239h-57zM422 1400q1 9 7 19t14.5 17.5t18.5 12.5t20 5 t19.5 -5.5t15.5 -14t9 -18.5t1 -20q-2 -9 -7.5 -18.5t-14 -17t-18.5 -12.5t-20 -5q-21 1 -34.5 19t-10.5 38zM826 1400q1 9 7 19t14.5 17.5t18.5 12.5t20 5q22 -1 35.5 -19t10.5 -39q-2 -9 -7.5 -18.5t-14 -17t-19 -12.5t-20.5 -5q-20 1 -34 19t-11 38z" />
<glyph unicode="&#x391;" d="M883 435h-598l-214 -435h-57l713 1456h61l213 -1456h-54zM310 489h566l-127 890z" />
<glyph unicode="&#x392;" d="M106 0l252 1456h347q82 -2 157.5 -26t129.5 -71t81 -116t12 -160q-10 -63 -35.5 -113.5t-64.5 -90.5t-88.5 -69t-107.5 -49v-8q61 -16 109 -49t80 -79.5t45 -103.5t4 -120q-13 -88 -57 -160.5t-109 -125.5t-145.5 -83t-167.5 -32h-442zM284 719l-116 -665h380 q75 2 146 28t128 71t97 107.5t54 138.5q13 71 -6 129t-60 100t-99.5 65.5t-125.5 25.5h-398zM293 773h313q73 1 143.5 21.5t128 60t98 97.5t55.5 135q15 79 -7.5 138t-70 97.5t-112.5 58t-135 21.5h-304z" />
<glyph unicode="&#x393;" d="M1166 1402h-780l-243 -1402h-54l252 1456h833z" />
<glyph unicode="&#x395;" d="M945 722h-658l-116 -668h748l-7 -54h-803l252 1456h801l-7 -54h-750l-109 -626h656z" />
<glyph unicode="&#x396;" d="M123 54h802l-7 -54h-871l5 44l986 1359h-740l7 53h812l-4 -38z" />
<glyph unicode="&#x397;" d="M918 0h-51l125 722h-747l-125 -722h-51l251 1456h51l-117 -680h747l117 680h51z" />
<glyph unicode="&#x398;" d="M847 691h-498l7 53h498zM1058 619q-13 -70 -36.5 -145t-59 -146t-82 -134t-104.5 -110.5t-128.5 -75.5t-152.5 -28q-83 0 -144 29.5t-104 79t-68.5 114t-37.5 135.5t-11 143.5t11 137.5l37 218q13 70 37 145t59 146t82 134t105.5 111t128.5 75.5t153 27.5t144.5 -29.5 t104 -79t68 -114t37 -135.5t10 -143.5t-11.5 -137.5zM1043 839q9 57 11.5 122.5t-5.5 130t-28.5 124.5t-57 105.5t-91 73t-129.5 27.5q-74 0 -137.5 -25.5t-116 -69.5t-94.5 -102t-74 -122.5t-53.5 -132.5t-33.5 -131l-39 -220q-9 -57 -11.5 -122.5t5.5 -130.5t28.5 -125 t57 -106t90.5 -73.5t130 -27.5q75 0 138.5 25.5t116 69.5t94.5 102t73.5 123t53 133t33.5 132z" />
<glyph unicode="&#x399;" d="M353 1456h783l-8 -56h-370l-234 -1346h369l-8 -54h-783l8 54h356l234 1346h-355z" />
<glyph unicode="&#x39a;" d="M511 763l-246 -213l-95 -550h-51l250 1456h52l-144 -833l247 226l644 606l76 -1l-693 -656l487 -798h-64z" />
<glyph unicode="&#x39b;" d="M741 1376l-688 -1376h-58l725 1456h61l227 -1456h-55z" />
<glyph unicode="&#x39c;" d="M405 1456l179 -912l516 912h85l-252 -1456h-54l123 713l117 660l-519 -903h-50l-182 903l-116 -670l-121 -703h-54l251 1456h77z" />
<glyph unicode="&#x39d;" d="M918 0h-49l-513 1365l-234 -1365h-51l250 1456h49l512 -1362l234 1362h52z" />
<glyph unicode="&#x39e;" d="M60 54h877l-8 -54h-876zM284 741h659l-7 -54h-659zM323 1456h819l-8 -53h-818z" />
<glyph unicode="&#x39f;" d="M1058 619q-13 -70 -36.5 -145t-59 -146t-82 -134t-104.5 -110.5t-128.5 -75.5t-152.5 -28q-83 0 -144 29.5t-104 79t-68.5 114t-37.5 135.5t-11 143.5t11 137.5l37 218q13 70 37 145t59 146t82 134t105.5 111t128.5 75.5t153 27.5t144.5 -29.5t104 -79t68 -114t37 -135.5 t10 -143.5t-11.5 -137.5zM1043 839q9 57 11.5 122.5t-5.5 130t-28.5 124.5t-57 105.5t-91 73t-129.5 27.5q-74 0 -137.5 -25.5t-116 -69.5t-94.5 -102t-74 -122.5t-53.5 -132.5t-33.5 -131l-39 -220q-9 -57 -11.5 -122.5t5.5 -130.5t28.5 -125t57 -106t90.5 -73.5t130 -27.5 q75 0 138.5 25.5t116 69.5t94.5 102t73.5 123t53 133t33.5 132z" />
<glyph unicode="&#x3a0;" d="M910 0h-51l242 1402h-731l-242 -1402h-51l251 1456h831z" />
<glyph unicode="&#x3a1;" d="M291 615l-106 -615h-54l252 1456h426q90 -2 162.5 -35.5t120.5 -90t68.5 -133.5t5.5 -166q-15 -91 -59.5 -166.5t-110.5 -130.5t-149 -86t-174 -33h-382zM300 669h373q79 2 151.5 29t131.5 74t100 112.5t56 144.5q15 78 -1.5 145t-57 117t-103 79.5t-140.5 31.5h-382z " />
<glyph unicode="&#x3a3;" d="M738 768l-629 -714h885l-8 -54h-963l6 44l661 747l-424 621l7 44h35l1 -3v3h869l-7 -53h-828l402 -589z" />
<glyph unicode="&#x3a4;" d="M1230 1402h-465l-242 -1402h-54l244 1402h-465l8 54h982z" />
<glyph unicode="&#x3a5;" d="M577 604l581 851h64l-625 -906l-94 -549h-52l95 558l-311 899h64z" />
<glyph unicode="&#x3a6;" d="M734 1266q107 -6 189 -50.5t134 -116.5t72 -165t3 -195q-18 -108 -68.5 -202.5t-126.5 -165.5t-173 -114t-207 -48l-39 -209h-51l38 209q-107 6 -188.5 51t-133.5 117t-71.5 165t-2.5 195q18 108 68.5 201.5t126.5 164.5t172.5 114t206.5 49l35 190h51zM1078 739 q17 93 1 176.5t-61 147.5t-118 104t-170 45l-169 -949q99 5 185.5 44t154.5 102.5t113.5 148.5t63.5 181zM165 737q-17 -93 -2 -176.5t59.5 -147.5t117 -104t169.5 -46l170 949q-98 -6 -184.5 -45t-154 -103t-113 -147.5t-62.5 -179.5z" />
<glyph unicode="&#x3a7;" d="M641 786l515 669h67l-554 -716l344 -739h-61l-320 700l-538 -700h-64l575 747l-332 710h62z" />
<glyph unicode="&#x3a8;" d="M604 471q95 9 174 50.5t139 106t99.5 146.5t57.5 172l89 510h52l-87 -510q-19 -103 -63 -195.5t-111 -164.5t-156.5 -117.5t-198.5 -52.5l-74 -416h-52l74 416q-105 9 -178 57t-115.5 121.5t-55.5 164.5t2 187l89 510h53l-87 -510q-14 -84 -4.5 -165.5t45.5 -147 t99 -109.5t157 -53l172 985h52z" />
<glyph unicode="&#x3aa;" d="M353 1456h783l-8 -56h-370l-234 -1346h369l-8 -54h-783l8 54h356l234 1346h-355zM530 1741q3 20 22 37.5t39 17.5q11 0 20.5 -5t16.5 -13.5t10 -18.5t2 -20q-3 -20 -22.5 -37t-39.5 -17q-21 1 -35.5 18.5t-12.5 37.5zM962 1741q3 20 22 37.5t39 17.5q21 0 36 -18.5 t13 -38.5q-3 -20 -22.5 -37t-39.5 -17q-21 1 -36 18.5t-12 37.5z" />
<glyph unicode="&#x3ab;" d="M577 604l581 851h64l-625 -906l-94 -549h-52l95 558l-311 899h64zM490 1730q3 20 22 37.5t39 17.5q11 0 20.5 -5t16.5 -13.5t10 -18.5t2 -20q-3 -20 -22.5 -37t-39.5 -17q-21 1 -35.5 18.5t-12.5 37.5zM922 1730q3 20 22 37.5t39 17.5q21 0 36 -18.5t13 -38.5 q-3 -20 -22.5 -37t-39.5 -17q-21 1 -36 18.5t-12 37.5z" />
<glyph unicode="&#x3ac;" d="M1016 1082l-144 -827q-3 -18 -6 -42t-4 -48.5t2 -47.5t12.5 -41.5t26.5 -30.5t45 -12q17 -1 33.5 2.5t32.5 6.5l4 -49q-17 -5 -34 -9.5t-35 -4.5q-50 -1 -79 21t-42.5 56t-14.5 75.5t4 79.5q-34 -48 -76.5 -90.5t-92.5 -74t-107 -49.5t-118 -18q-73 0 -126 24.5 t-89.5 65.5t-57.5 95.5t-30.5 114.5t-8 122.5t10.5 119.5l3 21q11 62 31 128t49.5 128t69 117.5t89.5 97t111.5 65.5t134.5 24q58 0 108 -19.5t89 -54t67.5 -81t44.5 -99.5l1 7l48 227h48zM178 521q-8 -49 -11.5 -104t2 -109t21.5 -103.5t45.5 -87.5t75.5 -61t111 -23 q63 0 127.5 23.5t120.5 64t98.5 95t62.5 115.5l67 378q3 61 -18 121.5t-60 108.5t-93 78.5t-117 30.5q-65 0 -119.5 -22t-99 -60t-79 -88.5t-60.5 -107t-43.5 -115.5t-27.5 -113zM798 1495h68l-159 -271h-57z" />
<glyph unicode="&#x3ad;" d="M110 290q9 61 39 105.5t72.5 76t95 51.5t106.5 32q-44 13 -84.5 34t-69.5 51t-43 70.5t-6 91.5q12 84 61.5 141t118 92.5t148 51t152.5 15.5q71 0 140.5 -17.5t123.5 -54t86.5 -94t31.5 -137.5h-56q6 70 -22 117.5t-76 76.5t-108.5 42t-118.5 13q-62 0 -130.5 -11.5 t-129.5 -39t-105.5 -74.5t-58.5 -118q-10 -49 2 -84.5t37.5 -60t62 -40t77.5 -24.5t82 -12.5t76 -3.5h184l-8 -55h-176q-43 0 -90.5 -3.5t-94 -13t-90.5 -26t-79.5 -43t-60.5 -64t-35 -88.5t2 -89t38 -66t64 -46.5t80 -30t85.5 -16t81.5 -4.5q68 0 138.5 15t131 46.5 t106.5 82t66 121.5h57q-24 -83 -74 -143.5t-117 -99.5t-146.5 -58t-160.5 -19q-46 0 -96.5 7t-98.5 22t-90 39.5t-72 58.5t-44 79.5t-5 103.5zM852 1494h68l-159 -271h-57z" />
<glyph unicode="&#x3ae;" d="M291 831q35 60 79.5 109.5t98 85.5t116 56t133.5 20q94 0 155.5 -36t95.5 -95t42.5 -135.5t-3.5 -158.5l-189 -1093h-55l189 1095q11 68 6.5 134.5t-31 118.5t-77.5 84t-132 32q-84 0 -157.5 -31.5t-133 -85.5t-101.5 -125t-61 -149l-113 -657h-55l186 1082h55l-43 -230z M828 1495h68l-159 -271h-57z" />
<glyph unicode="&#x3af;" d="M306 1082h302l62 1l-141 -824q-9 -58 3.5 -101t42 -72t74.5 -44t100 -15q40 0 79.5 5.5t78.5 10.5l2 -47q-39 -7 -78 -11.5t-79 -4.5q-67 0 -122.5 17t-93.5 51.5t-55 86.5t-8 124l129 768h-303zM793 1474h68l-159 -271h-57z" />
<glyph unicode="&#x3b0;" d="M351 1082l-121 -697q-10 -64 -4.5 -126.5t32 -112.5t75 -81t123.5 -31q99 0 180 42.5t141.5 111.5t99.5 156t56 176q26 140 21 282.5t-40 280.5h66q22 -140 27 -280t-20 -280q-12 -67 -35 -133t-56.5 -126.5t-78 -112t-99.5 -90t-120 -60t-139 -21.5q-89 0 -148 35 t-93 92t-43.5 130t2.5 150l120 695h54zM708 1634h80l-83 -239h-57zM421 1400q1 9 7 19t14.5 17.5t18.5 12.5t20 5t19.5 -5.5t15.5 -14t9 -18.5t1 -20q-2 -9 -7.5 -18.5t-14 -17t-18.5 -12.5t-20 -5q-21 1 -34.5 19t-10.5 38zM825 1400q1 9 7 19t14.5 17.5t18.5 12.5t20 5 q22 -1 35.5 -19t10.5 -39q-2 -9 -7.5 -18.5t-14 -17t-19 -12.5t-20.5 -5q-20 1 -34 19t-11 38z" />
<glyph unicode="&#x3b1;" d="M1016 1082l-144 -827q-3 -18 -6 -42t-4 -48.5t2 -47.5t12.5 -41.5t26.5 -30.5t45 -12q17 -1 33.5 2.5t32.5 6.5l4 -49q-17 -5 -34 -9.5t-35 -4.5q-50 -1 -79 21t-42.5 56t-14.5 75.5t4 79.5q-34 -48 -76.5 -90.5t-92.5 -74t-107 -49.5t-118 -18q-73 0 -126 24.5 t-89.5 65.5t-57.5 95.5t-30.5 114.5t-8 122.5t10.5 119.5l3 21q11 62 31 128t49.5 128t69 117.5t89.5 97t111.5 65.5t134.5 24q58 0 108 -19.5t89 -54t67.5 -81t44.5 -99.5l1 7l48 227h48zM178 521q-8 -49 -11.5 -104t2 -109t21.5 -103.5t45.5 -87.5t75.5 -61t111 -23 q63 0 127.5 23.5t120.5 64t98.5 95t62.5 115.5l67 378q3 61 -18 121.5t-60 108.5t-93 78.5t-117 30.5q-65 0 -119.5 -22t-99 -60t-79 -88.5t-60.5 -107t-43.5 -115.5t-27.5 -113z" />
<glyph unicode="&#x3b2;" d="M727 1476q79 1 143.5 -28t108 -80t62.5 -119.5t7 -146.5q-20 -119 -94.5 -203.5t-183.5 -129.5q69 -18 121.5 -54t86 -85.5t46.5 -111.5t1 -133q-15 -91 -60.5 -166t-112.5 -128t-150.5 -82.5t-174.5 -29.5q-51 0 -101.5 10t-96 31.5t-83.5 54.5t-64 79l-100 -567h-53 l121 706q0 6 0.5 12.5t1.5 12.5l2 1l127 734q15 80 54.5 156t97.5 135t132.5 95t161.5 37zM605 791q73 2 138 24t116.5 62.5t86.5 98t48 131.5q12 66 -3 123.5t-51 100.5t-90.5 67t-121.5 24q-76 -1 -141.5 -32.5t-116.5 -83.5t-85.5 -118t-48.5 -135l-141 -803 q14 -56 47 -97t78.5 -67.5t99 -39.5t107.5 -13q80 0 153.5 24t132.5 69t100 109.5t56 145.5q16 83 -3.5 148t-65 110t-112.5 69.5t-145 26.5h-143l8 56h97z" />
<glyph unicode="&#x3b3;" d="M1132 1081h63l-662 -1081l-71 -415h-57l73 415l-289 1083h60l230 -858l33 -156h1l95 160z" />
<glyph unicode="&#x3b4;" d="M380 1309q11 67 52 114.5t97.5 78.5t121.5 45.5t124 15.5q162 2 302 -78l-24 -47q-66 33 -134 52.5t-142 18.5q-50 -1 -105.5 -11.5t-104 -33.5t-85 -61t-48.5 -94q-9 -42 -0.5 -74.5t29 -57.5t51 -43.5t64.5 -32t69 -23.5t66 -18q90 -23 163 -71.5t121.5 -116t69.5 -152 t8 -178.5l-7 -42q-19 -102 -68.5 -196t-123 -166t-168 -115t-203.5 -43q-108 0 -188.5 44t-131 116.5t-70 166.5t-4.5 193l7 42q16 89 56 170t99 145.5t136 109t168 61.5l3 13q-41 19 -80 44t-68.5 58t-44.5 74t-7 92zM165 500q-14 -87 1 -170.5t58 -149.5t113.5 -106 t166.5 -40q97 0 182 39t151.5 103.5t112 149t63.5 174.5l8 42q12 77 -5 155.5t-59 142.5t-107 107t-148 50q-96 8 -184 -29t-158.5 -102t-119.5 -150t-67 -174z" />
<glyph unicode="&#x3b5;" d="M110 290q9 61 39 105.5t72.5 76t95 51.5t106.5 32q-44 13 -84.5 34t-69.5 51t-43 70.5t-6 91.5q12 84 61.5 141t118 92.5t148 51t152.5 15.5q71 0 140.5 -17.5t123.5 -54t86.5 -94t31.5 -137.5h-56q6 70 -22 117.5t-76 76.5t-108.5 42t-118.5 13q-62 0 -130.5 -11.5 t-129.5 -39t-105.5 -74.5t-58.5 -118q-10 -49 2 -84.5t37.5 -60t62 -40t77.5 -24.5t82 -12.5t76 -3.5h184l-8 -55h-176q-43 0 -90.5 -3.5t-94 -13t-90.5 -26t-79.5 -43t-60.5 -64t-35 -88.5t2 -89t38 -66t64 -46.5t80 -30t85.5 -16t81.5 -4.5q68 0 138.5 15t131 46.5 t106.5 82t66 121.5h57q-24 -83 -74 -143.5t-117 -99.5t-146.5 -58t-160.5 -19q-46 0 -96.5 7t-98.5 22t-90 39.5t-72 58.5t-44 79.5t-5 103.5z" />
<glyph unicode="&#x3b6;" d="M1182 1455l-6 -36l-575 -579q-51 -51 -104.5 -107t-99.5 -118.5t-79.5 -130.5t-45.5 -143q-7 -47 4.5 -82.5t36.5 -62.5t59.5 -47t73 -34t78 -24.5t74.5 -19.5l92 -24q35 -9 73 -22t68 -34t47 -51.5t11 -75.5q-6 -43 -25 -81.5t-47.5 -70.5t-63 -58.5t-71.5 -45.5l-37 34 q31 17 63 40t59 51t45.5 61t24.5 71q5 34 -9 56t-37.5 36t-52.5 22.5t-54 14.5l-93 24q-41 11 -86.5 23.5t-89 30.5t-82.5 42t-66.5 56.5t-41 74.5t-5.5 96q11 81 45.5 154.5t82.5 140.5t104.5 127.5t111.5 115.5l521 524h-827l7 53z" />
<glyph unicode="&#x3b7;" d="M291 831q35 60 79.5 109.5t98 85.5t116 56t133.5 20q94 0 155.5 -36t95.5 -95t42.5 -135.5t-3.5 -158.5l-189 -1093h-55l189 1095q11 68 6.5 134.5t-31 118.5t-77.5 84t-132 32q-84 0 -157.5 -31.5t-133 -85.5t-101.5 -125t-61 -149l-113 -657h-55l186 1082h55l-43 -230z " />
<glyph unicode="&#x3b8;" d="M997 594q-12 -65 -31.5 -135.5t-48.5 -139t-68.5 -130t-91 -108t-116 -74t-143.5 -27.5q-80 0 -136 29t-92.5 77.5t-55.5 112t-25.5 131.5t-3 136.5t13.5 127.5l46 268q12 65 31.5 136t49 139t69 130t91.5 108.5t116.5 74t143.5 27.5q80 0 136 -29t92.5 -78t55 -112 t25 -131.5t2 -137t-13.5 -127.5zM280 749h690l20 113q8 50 13.5 111.5t2.5 123.5t-17 120.5t-44 104.5t-78.5 73.5t-120.5 27.5q-71 0 -128.5 -25.5t-104 -68.5t-81.5 -100t-61 -119t-43.5 -126t-27.5 -122zM961 695h-690l-17 -99q-9 -50 -14 -111t-2 -123.5t17 -121.5 t44 -104.5t78.5 -73.5t120.5 -28q71 0 128.5 25.5t103 69t81 100.5t61 119.5t43 126t28.5 121.5z" />
<glyph unicode="&#x3b9;" d="M306 1082h302l62 1l-141 -824q-9 -58 3.5 -101t42 -72t74.5 -44t100 -15q40 0 79.5 5.5t78.5 10.5l2 -47q-39 -7 -78 -11.5t-79 -4.5q-67 0 -122.5 17t-93.5 51.5t-55 86.5t-8 124l129 768h-303z" />
<glyph unicode="&#x3ba;" d="M467 532l-222 -181l-60 -351h-55l186 1082h55l-113 -653l205 174l566 478l72 -1l-593 -511l469 -569h-70z" />
<glyph unicode="&#x3bb;" d="M397 1518q54 1 89.5 -23t58 -62t35 -84.5t20.5 -88.5l190 -1023q5 -28 11.5 -60.5t20 -60.5t36 -47t58.5 -20q13 -1 25.5 1.5t24.5 4.5l2 -51q-14 -4 -27 -7t-27 -3q-46 -1 -76.5 19t-50 51.5t-31 70.5t-18.5 76l-137 767l-4 24l-578 -1002h-60l621 1081l-33 171 q-6 34 -14.5 71t-24.5 68t-42.5 51.5t-69.5 20.5q-13 1 -25.5 -1t-24.5 -4l-2 50q13 4 26 6.5t27 3.5z" />
<glyph unicode="&#x3bc;" d="M351 1082l-110 -642q-7 -44 -9 -91t3.5 -92t20.5 -85.5t42 -70.5t67 -48.5t97 -18.5q88 0 160 32t126.5 87t91 127.5t54.5 153.5l112 648h54l-186 -1082h-52l39 220q-32 -53 -73 -97.5t-90 -76t-106 -49t-121 -17.5q-96 0 -168 50t-107 138l-103 -584h-51l258 1498h51z " />
<glyph unicode="&#x3bd;" d="M511 81l578 1000h62l-622 -1081h-54l-288 1083h59z" />
<glyph unicode="&#x3be;" d="M1148 1378q-131 45 -271 45q-68 0 -140.5 -14.5t-135.5 -47t-109 -85t-61 -128.5q-11 -55 1.5 -95t40.5 -68.5t67.5 -46.5t84.5 -28t91 -14.5t86 -4.5h130l-8 -56h-123q-94 -1 -188.5 -24t-174.5 -70.5t-137.5 -120.5t-76.5 -175q-12 -62 -2 -112t35 -90t63 -71t84 -55 t96.5 -42t100.5 -32l77 -21q32 -9 68 -21.5t65 -32t45.5 -48.5t10.5 -71q-6 -39 -24.5 -71.5t-45.5 -59.5t-59 -48.5t-63 -39.5l-31 36q26 15 54 33.5t53 41.5t42.5 50t22.5 60q4 30 -10 49.5t-36.5 33t-49.5 21.5t-49 14l-77 21q-85 23 -168 59t-145.5 90.5t-95 130 t-15.5 179.5q14 86 54.5 153.5t99 118.5t131.5 86t152 55q-51 14 -97 38t-79 58.5t-49 80.5t-7 105q14 90 64.5 153t121.5 103t154.5 58t163.5 18q73 0 143 -13t139 -36z" />
<glyph unicode="&#x3bf;" d="M129 562q19 101 65.5 198t117 173t163 122.5t203.5 46.5q74 0 133 -22t103.5 -60.5t75 -91t47 -112.5t20 -125t-6.5 -129l-7 -42q-18 -101 -64.5 -198t-117 -173t-163 -122.5t-203.5 -46.5q-74 0 -133 22t-103.5 60.5t-75 91t-47.5 112.5t-20.5 125t6.5 129zM176 520 q-14 -84 -2.5 -170.5t50 -156.5t105.5 -114.5t166 -44.5t181.5 42.5t146 111.5t105.5 156t60 176l8 42q9 56 7 113.5t-15.5 111.5t-39 101.5t-64 83t-90 56t-116.5 20.5q-98 0 -181 -42.5t-146.5 -111.5t-106 -156t-60.5 -176z" />
<glyph unicode="&#x3c0;" d="M1170 1027h-202l-130 -756q-6 -36 -7.5 -75t9 -71.5t35 -54t71.5 -23.5q26 -2 52.5 1.5t52.5 6.5l1 -51q-26 -6 -52 -9.5t-52 -2.5q-61 1 -97 26t-53.5 64.5t-19.5 89t6 99.5l131 756h-510l-177 -1027h-53l176 1027h-180l7 55h1000z" />
<glyph unicode="&#x3c1;" d="M1013 521q-11 -63 -32 -127.5t-51.5 -124.5t-70.5 -112.5t-91 -91.5t-112.5 -62t-133.5 -23q-50 0 -99.5 11t-93.5 34t-80.5 56.5t-61.5 78.5l-101 -576h-55l123 713v8l55 315l3 16q17 91 59 175.5t105.5 149t146.5 103t182 38.5q75 -1 130 -26t92.5 -67.5t59.5 -99 t31.5 -118.5t8 -126t-10.5 -123zM961 542q8 50 11 107t-3 113t-22.5 108t-48 91.5t-78.5 63t-114 23.5q-93 0 -166.5 -37t-128.5 -98t-91.5 -139.5t-57.5 -159.5l1 1l-61 -347q15 -57 45 -101t71.5 -73.5t93 -44.5t110.5 -15q65 1 119.5 21.5t99.5 56t80.5 83t62 101.5 t45 111.5t29.5 113.5z" />
<glyph unicode="&#x3c2;" d="M688 1102q85 0 152.5 -28.5t112.5 -79t66 -120.5t14 -154h-54q9 72 -8 132.5t-55 104t-96 67.5t-132 24q-102 0 -185.5 -41.5t-147 -109.5t-105.5 -155.5t-60 -179.5l-8 -42q-16 -98 5.5 -177t72 -139.5t124.5 -102.5t163 -65q39 -10 77.5 -24t68 -36.5t44 -56t5.5 -82.5 q-6 -36 -23.5 -68t-41.5 -59t-53 -49.5t-59 -39.5l-33 35q53 29 98 74t59 107q8 39 -4 64t-35.5 41t-54 25t-60.5 17q-99 25 -181 71t-138 113.5t-81 155.5t-9 196l7 42q19 103 65.5 200t118 172.5t165 121.5t206.5 46z" />
<glyph unicode="&#x3c3;" d="M1191 1027l-337 -1q58 -39 96.5 -91t59.5 -112t25.5 -126t-5.5 -133l-7 -43q-18 -101 -64.5 -198t-116.5 -173.5t-162.5 -123t-203.5 -46.5q-74 0 -133 22t-103.5 60.5t-75 91t-47 112.5t-20 125t6.5 129l7 42q18 100 65 193.5t117 165.5t161.5 115.5t199.5 45.5h545z M158 520q-14 -84 -3 -170t49.5 -156.5t105.5 -115t165 -44.5q99 0 181.5 42.5t146 111.5t105.5 156t60 176l8 42q13 83 0.5 166t-52.5 149.5t-107 108t-162 41.5t-177 -40t-145.5 -105t-106.5 -149t-60 -171z" />
<glyph unicode="&#x3c4;" d="M1099 1027h-412l-132 -748q-8 -47 -4 -90.5t22 -77.5t52.5 -55.5t88.5 -22.5q30 -1 60 2.5t60 6.5l3 -50q-30 -7 -60 -10.5t-60 -2.5q-68 1 -113.5 25t-71.5 64.5t-33 94.5t2 116l128 748h-360l7 55h831z" />
<glyph unicode="&#x3c5;" d="M351 1082l-121 -697q-10 -64 -4.5 -126.5t32 -112.5t75 -81t123.5 -31q99 0 180 42.5t141.5 111.5t99.5 156t56 176q26 140 21 282.5t-40 280.5h66q22 -140 27 -280t-20 -280q-12 -67 -35 -133t-56.5 -126.5t-78 -112t-99.5 -90t-120 -60t-139 -21.5q-89 0 -148 35 t-93 92t-43.5 130t2.5 150l120 695h54z" />
<glyph unicode="&#x3c6;" d="M480 -20q-74 7 -128.5 34.5t-92 69.5t-60.5 96.5t-32.5 115t-8 124.5t11.5 126q13 76 37 153.5t61.5 148.5t88.5 131.5t119 103.5l18 -46q-59 -42 -104 -98.5t-78 -121t-54.5 -134.5t-34.5 -139q-10 -55 -12.5 -112.5t4.5 -111.5t25 -102.5t50.5 -87t80.5 -64t114 -32.5 l149 859q7 33 21 65.5t35 59.5t50 44.5t66 19.5q66 3 111 -23t74 -71t44 -103t19.5 -118.5t0.5 -118.5t-11 -102q-17 -101 -58 -198t-105.5 -176t-152 -131t-196.5 -61l-81 -459h-51zM536 33q96 9 173.5 57t134.5 119.5t94 159t53 175.5q6 34 10 84.5t2.5 106t-11.5 110.5 t-32.5 97.5t-59.5 66.5t-93 19q-26 -3 -45.5 -16t-33.5 -32t-23.5 -42t-14.5 -45z" />
<glyph unicode="&#x3c7;" d="M607 603l446 478l74 -1l-492 -528l345 -552h-67l-316 507l-473 -507h-73l518 558l-328 525h69z" />
<glyph unicode="&#x3c8;" d="M713 1082l-183 -1048q108 10 189.5 61t139.5 128.5t94 172.5t53 192q22 125 12.5 249.5t-50.5 245.5h60q40 -120 47 -244t-14 -249q-19 -109 -59.5 -214.5t-105.5 -190.5t-157 -140t-213 -64l-71 -396h-52l71 396q-78 7 -134.5 37.5t-94.5 77t-59.5 105.5t-29.5 124.5 t-5.5 133t13.5 131.5l85 492h51l-84 -494q-9 -57 -13 -117.5t2 -119.5t23 -112.5t49 -96.5t81.5 -71t119.5 -36l183 1047h52z" />
<glyph unicode="&#x3c9;" d="M336 1081q-72 -138 -128 -282t-82 -299q-6 -32 -12.5 -79t-8.5 -98.5t3 -102.5t22 -92t48.5 -67t83.5 -27q49 0 88.5 21.5t70 58t53 83t38 95.5t25.5 96t16 85l1 1l1 11l1 2l50 283h51l-46 -283v-2q-5 -31 -12 -76.5t-10 -95.5t0.5 -100t19 -90t46.5 -64.5t83 -24.5 t93 24t73 62.5t55.5 88t40.5 101t28 101t18 89.5q26 146 23 292t-32 291h56q39 -143 35.5 -289.5t-28.5 -290.5q-8 -47 -21 -104t-33 -115t-47.5 -112.5t-65 -97t-85.5 -68.5t-108 -26q-53 0 -90 21t-60 55.5t-34.5 78.5t-14.5 90q-20 -45 -45.5 -88.5t-59.5 -78.5 t-77.5 -56.5t-97.5 -21.5q-62 0 -102 27.5t-63 72.5t-32 101.5t-9 114.5t6 112.5t13 94.5q25 152 72 299.5t130 278.5h60z" />
<glyph unicode="&#x3ca;" d="M306 1082h302l62 1l-141 -824q-9 -58 3.5 -101t42 -72t74.5 -44t100 -15q40 0 79.5 5.5t78.5 10.5l2 -47q-39 -7 -78 -11.5t-79 -4.5q-67 0 -122.5 17t-93.5 51.5t-55 86.5t-8 124l129 768h-303zM417 1399q3 20 22 37.5t39 17.5q11 0 20.5 -5t16.5 -13.5t10 -18.5t2 -20 q-3 -20 -22.5 -37t-39.5 -17q-21 1 -35.5 18.5t-12.5 37.5zM849 1399q3 20 22 37.5t39 17.5q21 0 36 -18.5t13 -38.5q-3 -20 -22.5 -37t-39.5 -17q-21 1 -36 18.5t-12 37.5z" />
<glyph unicode="&#x3cb;" d="M351 1082l-121 -697q-10 -64 -4.5 -126.5t32 -112.5t75 -81t123.5 -31q99 0 180 42.5t141.5 111.5t99.5 156t56 176q26 140 21 282.5t-40 280.5h66q22 -140 27 -280t-20 -280q-12 -67 -35 -133t-56.5 -126.5t-78 -112t-99.5 -90t-120 -60t-139 -21.5q-89 0 -148 35 t-93 92t-43.5 130t2.5 150l120 695h54zM416 1399q3 20 22 37.5t39 17.5q11 0 20.5 -5t16.5 -13.5t10 -18.5t2 -20q-3 -20 -22.5 -37t-39.5 -17q-21 1 -35.5 18.5t-12.5 37.5zM848 1399q3 20 22 37.5t39 17.5q21 0 36 -18.5t13 -38.5q-3 -20 -22.5 -37t-39.5 -17 q-21 1 -36 18.5t-12 37.5z" />
<glyph unicode="&#x3cc;" d="M129 562q19 101 65.5 198t117 173t163 122.5t203.5 46.5q74 0 133 -22t103.5 -60.5t75 -91t47 -112.5t20 -125t-6.5 -129l-7 -42q-18 -101 -64.5 -198t-117 -173t-163 -122.5t-203.5 -46.5q-74 0 -133 22t-103.5 60.5t-75 91t-47.5 112.5t-20.5 125t6.5 129zM176 520 q-14 -84 -2.5 -170.5t50 -156.5t105.5 -114.5t166 -44.5t181.5 42.5t146 111.5t105.5 156t60 176l8 42q9 56 7 113.5t-15.5 111.5t-39 101.5t-64 83t-90 56t-116.5 20.5q-98 0 -181 -42.5t-146.5 -111.5t-106 -156t-60.5 -176zM836 1495h68l-159 -271h-57z" />
<glyph unicode="&#x3cd;" d="M351 1082l-121 -697q-10 -64 -4.5 -126.5t32 -112.5t75 -81t123.5 -31q99 0 180 42.5t141.5 111.5t99.5 156t56 176q26 140 21 282.5t-40 280.5h66q22 -140 27 -280t-20 -280q-12 -67 -35 -133t-56.5 -126.5t-78 -112t-99.5 -90t-120 -60t-139 -21.5q-89 0 -148 35 t-93 92t-43.5 130t2.5 150l120 695h54zM792 1474h68l-159 -271h-57z" />
<glyph unicode="&#x3ce;" d="M336 1081q-72 -138 -128 -282t-82 -299q-6 -32 -12.5 -79t-8.5 -98.5t3 -102.5t22 -92t48.5 -67t83.5 -27q49 0 88.5 21.5t70 58t53 83t38 95.5t25.5 96t16 85l1 1l1 11l1 2l50 283h51l-46 -283v-2q-5 -31 -12 -76.5t-10 -95.5t0.5 -100t19 -90t46.5 -64.5t83 -24.5 t93 24t73 62.5t55.5 88t40.5 101t28 101t18 89.5q26 146 23 292t-32 291h56q39 -143 35.5 -289.5t-28.5 -290.5q-8 -47 -21 -104t-33 -115t-47.5 -112.5t-65 -97t-85.5 -68.5t-108 -26q-53 0 -90 21t-60 55.5t-34.5 78.5t-14.5 90q-20 -45 -45.5 -88.5t-59.5 -78.5 t-77.5 -56.5t-97.5 -21.5q-62 0 -102 27.5t-63 72.5t-32 101.5t-9 114.5t6 112.5t13 94.5q25 152 72 299.5t130 278.5h60zM843 1474h68l-159 -271h-57z" />
<glyph unicode="&#x3d1;" d="M1156 719q-46 -14 -92 -23t-94 -11l-47 -264q-17 -90 -54.5 -170.5t-95.5 -140.5t-136.5 -95t-176.5 -35q-95 0 -161 37.5t-105.5 99t-52.5 140.5t0 164l56 325l54 2l-56 -327q-12 -74 -4 -143t39.5 -123t88 -87t140.5 -34q87 0 156 30t120 82.5t84.5 123.5t48.5 151 l49 265q-101 6 -186 40.5t-143.5 94.5t-86 144t-12.5 191l4 22q11 57 37 114t65.5 102t92 73.5t116.5 29.5q57 1 98.5 -17.5t69.5 -50.5t44 -74.5t23 -89t5.5 -95t-8.5 -92.5l-61 -339q46 2 89.5 10.5t87.5 22.5zM543 1154q-16 -98 7 -172.5t75 -126.5t128.5 -81t167.5 -35 l62 339q6 36 9 77.5t-0.5 82.5t-14 78t-32.5 65.5t-56.5 45t-84.5 16.5q-54 -1 -96.5 -24.5t-75 -61.5t-53.5 -85t-31 -94z" />
<glyph unicode="&#x3d2;" d="M943 1239q24 39 52 80t63 74.5t77 54t94 19.5q26 -1 49.5 -9t46.5 -21l-26 -38q-18 8 -36 14.5t-38 6.5q-43 1 -78 -19t-64 -50.5t-52.5 -67t-42.5 -68.5l-357 -602l-106 -613h-53l108 629l-151 586q-8 32 -19 68t-29.5 67t-46 50.5t-68.5 18.5q-22 0 -43 -7t-41 -15 l-17 44q23 10 47.5 17.5t50.5 8.5q49 1 84.5 -19t60 -53t40 -74t25.5 -82l111 -447l26 -118l73 126z" />
<glyph unicode="&#x3d6;" d="M1242 1028h-142q22 -131 17.5 -262.5t-27.5 -262.5q-8 -47 -21 -104t-32.5 -115t-47.5 -112.5t-65.5 -97t-85.5 -68.5t-109 -26q-53 0 -90 20.5t-60.5 55t-35.5 78.5t-15 90q-20 -45 -46 -89t-60 -78.5t-77.5 -55.5t-98.5 -21q-62 0 -102.5 27.5t-63.5 72t-32.5 101 t-9.5 115t5.5 112.5t12.5 95q23 138 65 271t111 255l-135 -1l7 55h1146zM1036 500q24 133 22.5 264t-19.5 264h-744q-65 -125 -113.5 -256.5t-72.5 -271.5q-6 -32 -12 -79t-8 -98.5t3 -102.5t22.5 -92.5t49.5 -67t84 -26.5q50 -1 89.5 21t70 58t52.5 82.5t37.5 96t26 97 t17.5 85.5l2 13l51 285h51l-47 -285l-7 -39q-6 -31 -11 -73.5t-6 -88.5t5 -91.5t23 -81t47.5 -57.5t78.5 -22q52 0 93 24t73 62.5t55.5 87.5t40.5 101t28 101.5t18 89.5z" />
<glyph unicode="&#x400;" d="M945 722h-658l-116 -668h748l-7 -54h-803l252 1456h801l-7 -54h-750l-109 -626h656zM722 1568h-55l-144 268h62z" />
<glyph unicode="&#x401;" d="M945 722h-658l-116 -668h748l-7 -54h-803l252 1456h801l-7 -54h-750l-109 -626h656zM428 1741q3 20 22 37.5t39 17.5q11 0 20.5 -5t16.5 -13.5t10 -18.5t2 -20q-3 -20 -22.5 -37t-39.5 -17q-21 1 -35.5 18.5t-12.5 37.5zM860 1741q3 20 22 37.5t39 17.5q21 0 36 -18.5 t13 -38.5q-3 -20 -22.5 -37t-39.5 -17q-21 1 -36 18.5t-12 37.5z" />
<glyph unicode="&#x402;" d="M1046 1402h-462l-110 -609q69 35 141 61t150 26q65 0 115 -19t85.5 -52.5t58 -78.5t33.5 -96.5t11 -107.5t-9 -111q-14 -83 -51 -157.5t-93 -132t-129 -94t-160 -42.5l7 51q75 6 137.5 39t109.5 84t78.5 116t45.5 136q9 46 10.5 94.5t-6 94t-25 86t-47 71t-72 48.5 t-99.5 18q-39 0 -77 -8t-74.5 -21t-72.5 -29t-71 -32l-129 -737h-50l242 1402h-340l7 54h853z" />
<glyph unicode="&#x403;" d="M1166 1402h-780l-243 -1402h-54l252 1456h833zM935 1834l68 -1l-225 -263l-61 1z" />
<glyph unicode="&#x404;" d="M1046 445q-25 -94 -72 -178.5t-113.5 -148t-153 -101t-189.5 -37.5q-84 0 -146 29.5t-105 78.5t-69 113.5t-37 135t-10 143.5t12 139l37 218q13 72 37 147t59 146t82 133.5t105.5 109.5t129.5 74.5t154 28.5q101 1 175 -37t120.5 -102t67 -148.5t15.5 -176.5h-52 q1 81 -15 155t-54.5 131t-101.5 91t-154 33q-76 -1 -140 -26.5t-116.5 -69t-94.5 -101t-74 -122t-54 -132.5t-35 -132l-14 -73h559l-7 -54h-559l-16 -93q-10 -58 -12.5 -123.5t5.5 -130t28.5 -124.5t57 -105.5t91 -73t130.5 -28.5q94 -1 170 32.5t134.5 90t101 131.5 t70.5 157h53z" />
<glyph unicode="&#x405;" d="M973 349q9 54 0.5 98.5t-31.5 81t-56.5 65t-73.5 51t-84 40.5t-87 33q-71 24 -142 57t-125.5 80t-84 112t-16.5 153q13 85 60 151t113.5 112t147 69.5t160.5 23.5q90 0 161.5 -31.5t120.5 -86t73 -129.5t17 -163h-53q3 75 -17 139.5t-61 112.5t-101.5 76t-138.5 28 q-69 0 -139.5 -19t-130 -57t-102.5 -94.5t-56 -129.5q-10 -52 -1 -95t32 -77.5t57 -62t73.5 -49t82.5 -38.5t84 -30q73 -24 145.5 -58.5t127.5 -84.5t84 -118t16 -158t-60 -159t-114.5 -116t-150 -71.5t-167.5 -24.5q-93 0 -172.5 28t-136.5 81.5t-86.5 129.5t-22.5 172h52 q-3 -84 23 -150.5t74.5 -112.5t117 -70t150.5 -24q74 0 146.5 20t132.5 59.5t102.5 98.5t56.5 137z" />
<glyph unicode="&#x406;" d="M353 1456h783l-8 -56h-370l-234 -1346h369l-8 -54h-783l8 54h356l234 1346h-355z" />
<glyph unicode="&#x407;" d="M353 1456h783l-8 -56h-370l-234 -1346h369l-8 -54h-783l8 54h356l234 1346h-355zM530 1741q3 20 22 37.5t39 17.5q11 0 20.5 -5t16.5 -13.5t10 -18.5t2 -20q-3 -20 -22.5 -37t-39.5 -17q-21 1 -35.5 18.5t-12.5 37.5zM962 1741q3 20 22 37.5t39 17.5q21 0 36 -18.5 t13 -38.5q-3 -20 -22.5 -37t-39.5 -17q-21 1 -36 18.5t-12 37.5z" />
<glyph unicode="&#x408;" d="M1066 1456h54l-174 -1014q-17 -91 -61.5 -174.5t-109.5 -147t-149 -101.5t-181 -39q-94 -1 -164.5 31.5t-116 89.5t-65.5 134t-13 166h54q-8 -77 7.5 -144.5t54 -117t99.5 -78t143 -27.5q85 1 159.5 35t133 90t98.5 129.5t56 153.5z" />
<glyph unicode="&#x409;" d="M835 1456l-113 -648h185q52 -2 89 -21.5t62 -51t38.5 -72t18.5 -85t3 -89.5t-9 -85q-11 -66 -35.5 -136t-64.5 -128.5t-97.5 -97.5t-134.5 -42h-242l244 1402h-311l-119 -580q-8 -39 -17 -94t-21.5 -119.5t-28.5 -133.5t-37 -135.5t-48.5 -127t-63 -106.5t-79 -74.5 t-97.5 -31.5h-28l8 54h25q43 3 79 30.5t65.5 72t53 102.5t42.5 121t33.5 128t25.5 124t19.5 108.5t15.5 81.5l136 634h403zM713 754l-122 -700h185q66 3 114 38t81.5 86t54 111.5t30.5 116.5q9 48 11 107t-11.5 111.5t-48 89t-99.5 40.5h-195z" />
<glyph unicode="&#x40a;" d="M210 748h459l123 708h46l-112 -646h126q87 -3 140 -39.5t79 -94t29 -128.5t-9 -143q-13 -77 -40 -148.5t-71 -127.5t-108 -91t-150 -38h-183l121 694h-459l-120 -694h-46l251 1456h46zM717 756l-122 -703h126q76 3 130.5 33.5t92 79.5t60 111.5t34.5 129.5 q10 60 11 120.5t-17.5 110t-61 82.5t-117.5 36h-136z" />
<glyph unicode="&#x40b;" d="M1018 1402h-426l-115 -645q36 11 72.5 22t74 20t75.5 14t76 5q65 -1 113 -19t82 -49.5t55 -74.5t30.5 -92.5t8.5 -103.5t-9 -108l-66 -371h-50l63 371q11 69 9 138t-26 125.5t-74.5 92t-134.5 37.5q-39 1 -77.5 -4.5t-76.5 -14.5t-75 -20.5t-74 -22.5l-124 -702h-49 l243 1402h-338l8 54h812z" />
<glyph unicode="&#x40c;" d="M511 763l-246 -213l-95 -550h-51l250 1456h52l-144 -833l247 226l644 606l76 -1l-693 -656l487 -798h-64zM893 1746l68 -1l-225 -263l-61 1z" />
<glyph unicode="&#x40d;" d="M1114 1455l51 1l-251 -1456h-51l237 1356l-977 -1356h-51l251 1456h51l-241 -1362zM796 1568h-55l-144 268h62z" />
<glyph unicode="&#x40e;" d="M604 451l31 45l631 959h68l-792 -1198q-34 -51 -75 -100.5t-89.5 -89.5t-105.5 -64t-123 -24q-23 1 -44.5 5t-43.5 9l21 49q18 -4 36 -7t37 -2q54 1 101 22t87 54t74 74.5t62 82.5l90 131l-410 1060h64zM1114 1809q-13 -55 -40.5 -100.5t-66.5 -78t-89 -50.5t-108 -18 q-57 0 -102 18t-76 50.5t-46.5 78t-13.5 101.5h53q-5 -92 43.5 -142t141.5 -50q94 1 159 52t91 139h54z" />
<glyph unicode="&#x40f;" d="M328 1456h51l-242 -1402h730l242 1402h51l-251 -1456h-387l-60 -349h-51l60 349h-392z" />
<glyph unicode="&#x410;" d="M883 435h-598l-214 -435h-57l713 1456h61l213 -1456h-54zM310 489h566l-127 890z" />
<glyph unicode="&#x411;" d="M1159 1402h-780l-106 -614h314q85 -2 156.5 -30.5t119.5 -80t69 -123.5t7 -160q-15 -90 -58.5 -162t-107 -123t-144 -79t-168.5 -30h-379l252 1456h833zM263 734l-118 -680h315q77 2 148 26.5t127.5 68.5t96 106.5t53.5 140.5q14 76 -3 137.5t-58 105.5t-102 68.5 t-134 26.5h-325z" />
<glyph unicode="&#x412;" d="M106 0l252 1456h347q82 -2 157.5 -26t129.5 -71t81 -116t12 -160q-10 -63 -35.5 -113.5t-64.5 -90.5t-88.5 -69t-107.5 -49v-8q61 -16 109 -49t80 -79.5t45 -103.5t4 -120q-13 -88 -57 -160.5t-109 -125.5t-145.5 -83t-167.5 -32h-442zM284 719l-116 -665h380 q75 2 146 28t128 71t97 107.5t54 138.5q13 71 -6 129t-60 100t-99.5 65.5t-125.5 25.5h-398zM293 773h313q73 1 143.5 21.5t128 60t98 97.5t55.5 135q15 79 -7.5 138t-70 97.5t-112.5 58t-135 21.5h-304z" />
<glyph unicode="&#x413;" d="M1166 1402h-780l-243 -1402h-54l252 1456h833z" />
<glyph unicode="&#x414;" d="M884 -349h-50l60 349h-828l-60 -349h-50l67 403h57q66 43 116 110t87.5 147.5t64.5 170t47 179.5t36 174.5t31 155.5l98 465h549l-242 -1402h84zM515 991q-23 -114 -49 -243t-65 -256t-97 -241t-146 -198l657 1l234 1348h-451z" />
<glyph unicode="&#x415;" d="M945 722h-658l-116 -668h748l-7 -54h-803l252 1456h801l-7 -54h-750l-109 -626h656z" />
<glyph unicode="&#x416;" d="M733 720h-93l-125 -720h-48l125 720h-88l-490 -720h-60l502 737l-229 720h56l211 -683h107l118 682h48l-118 -682h102l447 681h60l-479 -726l250 -729h-57z" />
<glyph unicode="&#x417;" d="M608 771q79 1 159 18t147.5 54t116 97t65.5 147q16 87 -9.5 150t-78.5 104.5t-125 61t-147 19.5q-83 0 -159.5 -24t-140 -68.5t-110 -108.5t-68.5 -145h-55q21 92 72 165.5t122.5 125.5t158 80t179.5 29q88 0 169.5 -24.5t141.5 -73.5t89.5 -123t13.5 -172 q-12 -69 -44.5 -124t-80 -97t-106.5 -71.5t-123 -47.5q66 -17 118.5 -48.5t87 -76.5t48.5 -103t2 -129q-17 -100 -72 -176t-133 -127.5t-172 -77.5t-188 -26q-95 0 -175.5 30t-138 85.5t-86.5 133.5t-19 176h53q-9 -86 16 -154.5t75 -116.5t120.5 -73.5t153.5 -26.5 q84 -1 168 20t154.5 64.5t121 109.5t67.5 155q12 63 2.5 112t-35.5 86t-65 62.5t-86 41t-99.5 23t-104.5 8.5h-183l8 56h175z" />
<glyph unicode="&#x418;" d="M1114 1455l51 1l-251 -1456h-51l237 1356l-977 -1356h-51l251 1456h51l-241 -1362z" />
<glyph unicode="&#x419;" d="M1114 1455l51 1l-251 -1456h-51l237 1356l-977 -1356h-51l251 1456h51l-241 -1362zM1060 1809q-13 -55 -40.5 -100.5t-66.5 -78t-89 -50.5t-108 -18q-57 0 -102 18t-76 50.5t-46.5 78t-13.5 101.5h53q-5 -92 43.5 -142t141.5 -50q94 1 159 52t91 139h54z" />
<glyph unicode="&#x41a;" d="M510 711h-195l-123 -711h-52l251 1456h51l-119 -692h205l671 691l69 -1l-700 -729l490 -725h-64z" />
<glyph unicode="&#x41b;" d="M1175 1456l-252 -1456h-51l242 1402h-565l-131 -580q-12 -56 -28.5 -137.5t-40 -171.5t-56 -180t-77.5 -163t-103.5 -119.5t-134.5 -50.5h-32l7 54h30q47 3 86.5 29.5t73 70.5t60.5 101t49 119.5t39.5 127.5t31 124.5t23.5 110t18 85.5l145 634h666z" />
<glyph unicode="&#x41c;" d="M405 1456l179 -912l516 912h85l-252 -1456h-54l123 713l117 660l-519 -903h-50l-182 903l-116 -670l-121 -703h-54l251 1456h77z" />
<glyph unicode="&#x41d;" d="M918 0h-51l125 722h-747l-125 -722h-51l251 1456h51l-117 -680h747l117 680h51z" />
<glyph unicode="&#x41e;" d="M1058 619q-13 -70 -36.5 -145t-59 -146t-82 -134t-104.5 -110.5t-128.5 -75.5t-152.5 -28q-83 0 -144 29.5t-104 79t-68.5 114t-37.5 135.5t-11 143.5t11 137.5l37 218q13 70 37 145t59 146t82 134t105.5 111t128.5 75.5t153 27.5t144.5 -29.5t104 -79t68 -114t37 -135.5 t10 -143.5t-11.5 -137.5zM1043 839q9 57 11.5 122.5t-5.5 130t-28.5 124.5t-57 105.5t-91 73t-129.5 27.5q-74 0 -137.5 -25.5t-116 -69.5t-94.5 -102t-74 -122.5t-53.5 -132.5t-33.5 -131l-39 -220q-9 -57 -11.5 -122.5t5.5 -130.5t28.5 -125t57 -106t90.5 -73.5t130 -27.5 q75 0 138.5 25.5t116 69.5t94.5 102t73.5 123t53 133t33.5 132z" />
<glyph unicode="&#x41f;" d="M910 0h-51l242 1402h-731l-242 -1402h-51l251 1456h831z" />
<glyph unicode="&#x420;" d="M291 615l-106 -615h-54l252 1456h426q90 -2 162.5 -35.5t120.5 -90t68.5 -133.5t5.5 -166q-15 -91 -59.5 -166.5t-110.5 -130.5t-149 -86t-174 -33h-382zM300 669h373q79 2 151.5 29t131.5 74t100 112.5t56 144.5q15 78 -1.5 145t-57 117t-103 79.5t-140.5 31.5h-382z " />
<glyph unicode="&#x421;" d="M1024 445q-26 -91 -74 -175t-115 -149t-152.5 -103.5t-187.5 -37.5q-83 1 -144.5 30.5t-104 78.5t-68 113.5t-37 135.5t-10.5 143.5t11 137.5l37 218q13 71 37 145.5t59.5 145.5t82.5 133.5t105.5 110t129 75.5t152.5 29q99 1 172 -38t119.5 -103.5t67.5 -148.5t18 -174 h-52q0 78 -17.5 152t-56 131.5t-100.5 92.5t-151 34q-74 -1 -137.5 -26.5t-116.5 -69.5t-95 -101.5t-74 -122t-54 -132.5t-34 -131l-39 -220q-9 -57 -11.5 -122t6 -130t29 -124.5t57 -105.5t90.5 -74t129 -29q92 -1 167 33.5t134 92t102 132t72 153.5h54z" />
<glyph unicode="&#x422;" d="M1230 1402h-465l-242 -1402h-54l244 1402h-465l8 54h982z" />
<glyph unicode="&#x423;" d="M604 451l31 45l631 959h68l-792 -1198q-34 -51 -75 -100.5t-89.5 -89.5t-105.5 -64t-123 -24q-23 1 -44.5 5t-43.5 9l21 49q18 -4 36 -7t37 -2q54 1 101 22t87 54t74 74.5t62 82.5l90 131l-410 1060h64z" />
<glyph unicode="&#x424;" d="M734 1266q107 -6 189 -50.5t134 -116.5t72 -165t3 -195q-18 -108 -68.5 -202.5t-126.5 -165.5t-173 -114t-207 -48l-39 -209h-51l38 209q-107 6 -188.5 51t-133.5 117t-71.5 165t-2.5 195q18 108 68.5 201.5t126.5 164.5t172.5 114t206.5 49l35 190h51zM1078 739 q17 93 1 176.5t-61 147.5t-118 104t-170 45l-169 -949q99 5 185.5 44t154.5 102.5t113.5 148.5t63.5 181zM165 737q-17 -93 -2 -176.5t59.5 -147.5t117 -104t169.5 -46l170 949q-98 -6 -184.5 -45t-154 -103t-113 -147.5t-62.5 -179.5z" />
<glyph unicode="&#x425;" d="M641 786l515 669h67l-554 -716l344 -739h-61l-320 700l-538 -700h-64l575 747l-332 710h62z" />
<glyph unicode="&#x426;" d="M363 1456h51l-242 -1402h736l243 1402h51l-242 -1402h107l-70 -405h-51l60 351h-892z" />
<glyph unicode="&#x427;" d="M1128 1456l-250 -1456h-51l126 718q-80 -23 -162 -42t-167 -18q-99 1 -166.5 37.5t-106 97.5t-49 142t3.5 170l62 351h51l-59 -351q-12 -77 -5 -147.5t37.5 -124.5t87.5 -87t145 -34q85 -1 168 18t164 42l120 684h51z" />
<glyph unicode="&#x428;" d="M337 1456l-242 -1402h383l243 1402h49l-243 -1402h383l243 1402h48l-251 -1456h-913l252 1456h48z" />
<glyph unicode="&#x429;" d="M341 1456l-242 -1402h383l243 1402h49l-243 -1402h383l243 1402h48l-242 -1402h72l-68 -405h-47l61 351h-940l252 1456h48z" />
<glyph unicode="&#x42a;" d="M189 1456h466l-116 -668h260q83 -2 143.5 -35t97.5 -87t49.5 -124.5t-0.5 -147.5q-13 -80 -48.5 -150.5t-89.5 -124t-124.5 -85.5t-154.5 -34h-320l243 1402h-414zM530 734l-118 -680h260q73 2 133.5 30t107 74.5t77.5 107.5t44 130q12 65 3.5 125t-37.5 106.5t-79 75.5 t-121 31h-270z" />
<glyph unicode="&#x42b;" d="M267 788h203q84 -2 144 -35t96 -87t47 -124t-2 -148q-13 -80 -47.5 -151t-87 -124t-122.5 -85t-154 -34h-262l253 1456h48zM258 734l-118 -680h203q74 3 134.5 30.5t105.5 73.5t75 107.5t42 130.5q12 65 5 125t-35 106.5t-77.5 75t-121.5 31.5h-213zM921 0h-48l251 1456 h48z" />
<glyph unicode="&#x42c;" d="M319 788h315q85 -2 156.5 -30.5t119.5 -80t69 -123.5t7 -160q-15 -90 -58.5 -162t-107 -123t-144 -79t-168.5 -30h-379l252 1456h53zM310 734l-118 -680h315q77 2 148 26.5t127.5 68.5t96 106.5t53.5 140.5q14 76 -3 137.5t-58 105.5t-102 68.5t-134 26.5h-325z" />
<glyph unicode="&#x42d;" d="M163 446q-2 -81 13.5 -156t53.5 -132t100.5 -91t154.5 -33q75 1 139 26.5t116.5 69.5t94 101.5t73 122.5t53 133t33.5 132l16 91h-550l7 54h552l13 75q10 57 12.5 122t-5 129.5t-28 124t-56.5 105.5t-90.5 73.5t-129.5 28.5q-93 1 -167.5 -32.5t-133 -90.5t-101 -131 t-70.5 -155h-52q24 93 70.5 177t113 148t152 101t188.5 37q84 -1 145.5 -30t104 -78.5t67.5 -113.5t36 -135t9.5 -144t-11.5 -138l-38 -218q-13 -71 -36.5 -146t-58 -146t-81 -134t-104.5 -110t-128.5 -75t-153.5 -28q-102 -1 -175 37.5t-119 103t-66 149t-14 176.5h51z" />
<glyph unicode="&#x42e;" d="M1081 619q-11 -59 -28 -129t-42.5 -141t-61 -137.5t-83 -118t-108 -82.5t-135.5 -31q-76 0 -126.5 33t-81 87t-43.5 123t-14.5 140t4.5 138t15 118l20 114h-186l-127 -733h-48l251 1456h48l-115 -669h184l10 50q11 59 28.5 129t43.5 141t61 137.5t82 118t107 82.5t136 31 t126.5 -33t81 -87t43.5 -122.5t15 -139.5t-4.5 -138.5t-14.5 -118.5zM1065 839q7 43 14.5 103t8.5 124.5t-7.5 128t-32 114t-66.5 82t-110 31.5t-120.5 -29t-95 -76.5t-72.5 -109t-53 -126t-37 -128t-24 -114.5l-39 -220q-7 -43 -14.5 -103t-8.5 -124.5t7 -128.5t32 -115 t66 -82.5t110 -31.5q67 0 120.5 29t95.5 76.5t73 109t53.5 126.5t37 128.5t24.5 115.5z" />
<glyph unicode="&#x42f;" d="M820 0l106 619h-463l-420 -619h-63l435 632l-2 4q-59 26 -102.5 65t-70 88t-35.5 107t1 122q15 97 61 177t114.5 137.5t155 89.5t184.5 34h406l-252 -1456h-55zM260 1020q-13 -71 0 -133t48 -108.5t91 -74.5t129 -30h407l127 728h-341q-86 -2 -163 -29.5t-138 -77 t-102.5 -119.5t-57.5 -156z" />
<glyph unicode="&#x430;" d="M856 0q-2 52 3 101.5t15 100.5q-43 -52 -95.5 -93.5t-112 -70t-124.5 -44t-133 -14.5q-63 1 -120 21.5t-97.5 58.5t-61 92t-9.5 122q10 65 39.5 114.5t73 86t97 61t111.5 39.5t118 21.5t116 7.5h263l28 158q10 69 -7.5 122t-55.5 89.5t-93.5 55.5t-120.5 19t-127.5 -17 t-116 -50.5t-93.5 -82.5t-59 -113l-54 2q19 75 63.5 133.5t105.5 98.5t133 61.5t147 21.5q76 0 141.5 -23t111.5 -67.5t67.5 -108t10.5 -143.5l-94 -542q-8 -53 -7.5 -104.5t0.5 -104.5l-1 -9h-62zM408 33q73 -2 141.5 16.5t129 53t112.5 83t93 107.5l46 256h-251 q-48 0 -101 -5.5t-106 -17.5t-102 -32t-89.5 -51t-68.5 -73.5t-38 -99.5q-10 -55 7 -98.5t50.5 -74t80 -47t96.5 -17.5z" />
<glyph unicode="&#x431;" d="M651 1002q101 0 179.5 -39t129.5 -105t73 -153t9 -183l-6 -42q-17 -99 -62.5 -189.5t-115.5 -159.5t-160 -110t-195 -41q-104 0 -182.5 42t-128.5 112t-70 160t-7 186l6 42l1 9l10 61q13 82 36.5 166.5t58 164.5t81.5 152t108 130t136 98.5t166 56.5q49 9 100 19.5 t95.5 30.5t79 53.5t51.5 88.5h54q-17 -66 -54 -109.5t-87.5 -70.5t-110 -42t-119.5 -24q-102 -15 -180 -65t-137.5 -121.5t-103.5 -157.5t-77 -174q78 98 186.5 156t235.5 58zM652 948q-90 0 -169.5 -34.5t-142.5 -93t-106 -136t-59 -162.5l-7 -42q-12 -84 4 -164 t58.5 -142.5t111 -101t160.5 -38.5q93 0 173.5 37t143 99t104.5 142.5t58 167.5l6 42q12 83 -5.5 160t-61.5 136t-112 94.5t-156 35.5z" />
<glyph unicode="&#x432;" d="M96 0l188 1082h376q65 -1 130 -15.5t114 -47t75 -85.5t13 -132q-9 -51 -30 -89.5t-52 -67.5t-70.5 -50t-85.5 -36l4 -3q48 -11 87 -34.5t64.5 -57t36.5 -77t3 -94.5q-11 -75 -49 -129.5t-93 -90.5t-122 -54t-136 -19h-453zM241 521l-81 -467h389q58 1 115 15t104.5 42.5 t81.5 73t46 107.5q11 61 -8.5 104t-57.5 70.5t-89 40.5t-102 14h-398zM250 575h352q57 1 112 14.5t101 40.5t78.5 70t44.5 105q9 45 1.5 79t-26.5 58.5t-47.5 40.5t-62.5 25.5t-71 13.5t-72 5h-331z" />
<glyph unicode="&#x433;" d="M1085 1027h-747l-177 -1027h-59l187 1082h803z" />
<glyph unicode="&#x434;" d="M102 54q126 141 202.5 305t117.5 347l85 376h564l-178 -1028h84l-64 -372h-54l54 318h-842l-55 -318h-44l62 372h68zM477 706q-20 -90 -46 -178t-62.5 -171.5t-85 -160t-114.5 -143.5l670 1l169 974h-459z" />
<glyph unicode="&#x435;" d="M536 -20q-72 0 -132 22t-107 60t-80 89.5t-52.5 111t-25 125t4.5 130.5l8 44q12 66 37 131.5t62 125.5t84.5 112t104.5 90t122 59.5t138 21.5q96 0 166 -39.5t113.5 -104.5t59 -148t3.5 -170l-10 -63h-821l-3 -15l-9 -44q-15 -86 -1 -172.5t57 -155.5t113.5 -112.5 t166.5 -44.5q103 -1 191 39t162 109l37 -29q-78 -81 -176.5 -126.5t-212.5 -45.5zM701 1048q-90 0 -166 -36t-136.5 -94.5t-105 -133.5t-72.5 -153h762l3 13q15 73 2.5 145.5t-49 129.5t-97 93t-141.5 36z" />
<glyph unicode="&#x436;" d="M709 528h-109l-91 -528h-50l91 528h-103l-471 -528h-64l486 555l-252 528h57l237 -501h119l86 500h50l-86 -500h115l410 499l63 -1l-436 -534l297 -546h-60z" />
<glyph unicode="&#x437;" d="M609 580q61 1 128 9.5t126.5 32.5t103.5 68t58 115q10 48 0 85t-34 64t-58 45t-73 29t-80 15.5t-78 4.5q-64 0 -130 -14t-124 -44t-101.5 -77t-61.5 -113h-60q24 77 72.5 133.5t112.5 94t139 55.5t152 19q45 0 93.5 -6.5t94 -21t84.5 -37.5t66 -56.5t39 -78t2 -100.5 q-9 -54 -35.5 -94.5t-65 -70.5t-85 -50.5t-94.5 -33.5q50 -12 93 -33.5t72.5 -54t43 -76t4.5 -99.5q-14 -86 -64.5 -144.5t-121 -95.5t-152.5 -53t-157 -16q-76 0 -148.5 18t-129 57t-91 99.5t-32.5 145.5h58q-9 -74 21 -124t81 -81t115 -45t125 -15q65 -1 136.5 10.5 t134 40.5t109 77.5t60.5 122.5q10 52 -1 90t-37 64.5t-63.5 42.5t-79.5 25t-85.5 12.5t-81.5 3.5h-169l7 55h162z" />
<glyph unicode="&#x438;" d="M1013 1081l57 1l-186 -1082h-55l169 979l-839 -979h-55l185 1082h55l-174 -986z" />
<glyph unicode="&#x439;" d="M1013 1081l57 1l-186 -1082h-55l169 979l-839 -979h-55l185 1082h55l-174 -986zM1020 1467q-13 -55 -40.5 -100.5t-66.5 -78t-89 -50.5t-108 -18q-57 0 -102 18t-76 50.5t-46.5 78t-13.5 101.5h53q-5 -92 43.5 -142t141.5 -50q94 1 159 52t91 139h54z" />
<glyph unicode="&#x43a;" d="M496 529h-213l-91 -529h-57l186 1082h57l-86 -500h216l538 500l88 -1l-578 -532l449 -549h-76z" />
<glyph unicode="&#x43b;" d="M1055 1082l-187 -1082h-56l177 1027h-511l-93 -437q-12 -54 -24.5 -117.5t-31.5 -128t-45.5 -125.5t-64.5 -108.5t-90.5 -77.5t-123.5 -33h-35l8 53h33q60 3 104.5 31.5t76.5 73t54 101t37.5 115t26 115t20.5 101.5l105 492h620z" />
<glyph unicode="&#x43c;" d="M494 85l536 996l57 1l-185 -1082h-50l163 945l-513 -945h-39l-189 979l-170 -979h-50l186 1082h63z" />
<glyph unicode="&#x43d;" d="M884 0h-55l90 529h-671l-91 -529h-54l186 1082h54l-86 -499h671l87 499h55z" />
<glyph unicode="&#x43e;" d="M129 562q19 101 65.5 198t117 173t163 122.5t203.5 46.5q74 0 133 -22t103.5 -60.5t75 -91t47 -112.5t20 -125t-6.5 -129l-7 -42q-18 -101 -64.5 -198t-117 -173t-163 -122.5t-203.5 -46.5q-74 0 -133 22t-103.5 60.5t-75 91t-47.5 112.5t-20.5 125t6.5 129zM176 520 q-14 -84 -2.5 -170.5t50 -156.5t105.5 -114.5t166 -44.5t181.5 42.5t146 111.5t105.5 156t60 176l8 42q9 56 7 113.5t-15.5 111.5t-39 101.5t-64 83t-90 56t-116.5 20.5q-98 0 -181 -42.5t-146.5 -111.5t-106 -156t-60.5 -176z" />
<glyph unicode="&#x43f;" d="M884 0h-55l177 1027h-671l-177 -1027h-55l187 1082h779z" />
<glyph unicode="&#x440;" d="M1007 531q-12 -64 -33 -130t-52.5 -127t-73 -114.5t-94 -93.5t-115.5 -63t-137 -23q-48 0 -94 12t-86.5 34.5t-74 55.5t-55.5 76l-101 -574h-53l258 1498h54l-35 -180q33 42 74 78.5t88.5 63.5t99.5 42.5t108 15.5q75 0 131.5 -24t95.5 -64.5t63 -95t35 -116t10 -125.5 t-10 -125zM955 552q9 52 11 109t-5.5 112t-26 105t-51 87.5t-81.5 60t-116 22.5q-63 0 -120 -20.5t-106.5 -55.5t-89.5 -82t-69 -100l-95 -534q12 -53 40 -94t67.5 -69.5t88 -43.5t101.5 -15q66 0 122.5 21.5t102.5 57.5t82.5 84t64.5 103t47 114t30 117z" />
<glyph unicode="&#x441;" d="M508 34q71 0 134 21t114.5 59.5t90 92.5t60.5 120h54q-22 -77 -65 -141t-102 -109.5t-131.5 -71t-153.5 -25.5q-74 0 -131.5 22.5t-100 61.5t-69.5 91.5t-41.5 112.5t-16 124.5t8.5 127.5l7 42q18 99 61 195.5t109 173t155 124t200 47.5q83 0 148 -29t109.5 -79.5 t65.5 -119.5t17 -149h-53q4 69 -13 128t-54 102.5t-92.5 68t-126.5 24.5q-67 0 -124.5 -19.5t-106 -54t-88 -81t-69.5 -100.5t-51 -113t-32 -118l-8 -42q-9 -55 -9.5 -112.5t10 -111.5t32.5 -101.5t58 -83t86.5 -56.5t117.5 -21z" />
<glyph unicode="&#x442;" d="M1176 1027h-476l-177 -1027h-57l177 1027h-450l7 55h983z" />
<glyph unicode="&#x443;" d="M510 74l18 31l597 976h66l-768 -1261q-31 -51 -68.5 -97.5t-82.5 -81.5t-98.5 -56.5t-117.5 -21.5q-23 0 -44.5 3t-44.5 8l5 51l38 -6t39 -3q53 0 99.5 17t85.5 46.5t72 68.5t59 82l106 177l-307 1076h61z" />
<glyph unicode="&#x444;" d="M129 562q18 101 62.5 194.5t111.5 167t156 121t196 56.5l77 435h54l-77 -435q104 -10 175.5 -60.5t113 -126t54 -167.5t-1.5 -185l-7 -42q-18 -101 -62 -194t-111 -166.5t-155 -121.5t-195 -57l-71 -397h-54l71 397q-104 9 -176 59.5t-114 126t-55 168t1 185.5zM176 520 q-14 -83 -4 -165.5t45 -150t97.5 -113.5t155.5 -56l181 1012q-94 -10 -172 -54t-137.5 -110.5t-99.5 -149.5t-58 -171zM996 562q13 82 4 164t-44.5 150t-97.5 114t-153 57l-181 -1012q94 10 171.5 54t137 110.5t99 149.5t56.5 171z" />
<glyph unicode="&#x445;" d="M607 603l446 478l74 -1l-492 -528l345 -552h-67l-316 507l-473 -507h-73l518 558l-328 525h69z" />
<glyph unicode="&#x446;" d="M339 1082h54l-177 -1028h647l178 1028h54l-177 -1028h89l-65 -375h-54l55 321h-788z" />
<glyph unicode="&#x447;" d="M885 0h-55l94 523q-81 -37 -167.5 -58.5t-176.5 -22.5q-100 -1 -174.5 25t-121.5 77t-64 127.5t-2 176.5l39 234h55l-40 -234q-14 -87 -0.5 -153t53 -111t104 -67.5t151.5 -20.5q89 2 177.5 18.5t169.5 56.5l89 511h55z" />
<glyph unicode="&#x448;" d="M274 1082l-177 -1028h383l178 1028h49l-177 -1028h377l179 1028h49l-187 -1082h-910l187 1082h49z" />
<glyph unicode="&#x449;" d="M273 1082l-177 -1028h383l178 1028h49l-177 -1028h377l179 1028h49l-178 -1028h86l-63 -375h-48l54 321h-948l187 1082h49z" />
<glyph unicode="&#x44a;" d="M147 1082h382l-72 -412h299q72 -2 131 -27t99.5 -69t58.5 -105t6 -134q-12 -75 -48.5 -136t-90 -104.5t-121 -68t-141.5 -26.5h-362l178 1028h-326zM449 616l-98 -562h298q63 2 120.5 22.5t104 57.5t79 88.5t44.5 114.5q12 61 -2 112t-47 87.5t-82 57t-109 22.5h-308z " />
<glyph unicode="&#x44b;" d="M240 670h243q69 -3 118 -32t79 -75.5t40 -105.5t0 -122q-11 -66 -40 -125.5t-73 -105.5t-102.5 -73.5t-127.5 -30.5h-303l187 1082h50zM231 616l-98 -562h242q59 3 108 26.5t86 62t61.5 88.5t35.5 106q10 51 4 100t-28.5 88t-62 63.5t-97.5 27.5h-251zM914 0h-49 l187 1082h49z" />
<glyph unicode="&#x44c;" d="M272 670h353q73 -2 141.5 -23.5t118.5 -63.5t75.5 -104t12.5 -144t-56.5 -144t-106 -104t-138.5 -64t-153 -23h-418l187 1082h55zM263 616l-98 -562h354q66 1 132 19t121 53.5t94.5 87.5t52.5 123q13 70 -8 122t-64 86.5t-101.5 51.5t-119.5 19h-363z" />
<glyph unicode="&#x44d;" d="M648 1048q-72 0 -138 -20t-120.5 -58t-94.5 -93.5t-59 -126.5h-57q21 81 65.5 146t106.5 110.5t138 70.5t159 25q75 0 135.5 -21.5t107 -59t79 -89t50.5 -111.5t21.5 -126t-6.5 -133l-7 -42q-19 -105 -66.5 -202.5t-120 -172.5t-167.5 -120t-209 -45q-86 0 -154.5 28 t-115 78t-69 120.5t-15.5 155.5h56q-9 -74 8.5 -134t57.5 -103.5t99 -67t133 -23.5q103 0 187.5 40.5t148.5 108t108 154.5t67 179h-607l8 54h603q14 88 2 174t-52.5 153.5t-110.5 109t-171 41.5z" />
<glyph unicode="&#x44e;" d="M174 557l237 -1l1 7q12 54 30 115t44 120.5t60 114.5t78 97t99 67t122 25q68 0 115 -26.5t78 -70t47 -100t21.5 -116.5t2.5 -119t-11 -108l-7 -42q-10 -54 -27 -115t-42 -121t-60 -115t-79 -97t-99.5 -67t-121.5 -25t-113 25t-78 67t-47.5 96.5t-22.5 112.5t-3.5 115.5 t10.5 106.5h-243l-87 -503h-49l187 1082h49zM461 520q-7 -40 -11 -91.5t-1 -105.5t14.5 -106t36 -92.5t64 -65.5t98.5 -25q58 0 106 23t86.5 61.5t69 88.5t53 104t37.5 108t24 101l7 42q7 40 11 91.5t1 105.5t-14.5 105.5t-36 92.5t-64 66t-97.5 25t-106 -23t-86.5 -61.5 t-69 -88.5t-53 -104t-38 -108.5t-24.5 -100.5z" />
<glyph unicode="&#x44f;" d="M1014 1082l-187 -1082h-55l77 450h-405l-359 -450h-68l363 458q-56 13 -99.5 41t-71 68t-38 90.5t-1.5 108.5q13 77 54 135.5t99.5 98t129.5 60t144 22.5h417zM224 764q-11 -58 2.5 -105t45.5 -80.5t78.5 -52.5t102.5 -21h406l90 522h-352q-62 -2 -123 -18.5 t-112.5 -48.5t-88 -81t-49.5 -115z" />
<glyph unicode="&#x450;" d="M536 -20q-72 0 -132 22t-107 60t-80 89.5t-52.5 111t-25 125t4.5 130.5l8 44q12 66 37 131.5t62 125.5t84.5 112t104.5 90t122 59.5t138 21.5q96 0 166 -39.5t113.5 -104.5t59 -148t3.5 -170l-10 -63h-821l-3 -15l-9 -44q-15 -86 -1 -172.5t57 -155.5t113.5 -112.5 t166.5 -44.5q103 -1 191 39t162 109l37 -29q-78 -81 -176.5 -126.5t-212.5 -45.5zM701 1048q-90 0 -166 -36t-136.5 -94.5t-105 -133.5t-72.5 -153h762l3 13q15 73 2.5 145.5t-49 129.5t-97 93t-141.5 36zM768 1248h-55l-144 268h62z" />
<glyph unicode="&#x451;" d="M536 -20q-72 0 -132 22t-107 60t-80 89.5t-52.5 111t-25 125t4.5 130.5l8 44q12 66 37 131.5t62 125.5t84.5 112t104.5 90t122 59.5t138 21.5q96 0 166 -39.5t113.5 -104.5t59 -148t3.5 -170l-10 -63h-821l-3 -15l-9 -44q-15 -86 -1 -172.5t57 -155.5t113.5 -112.5 t166.5 -44.5q103 -1 191 39t162 109l37 -29q-78 -81 -176.5 -126.5t-212.5 -45.5zM701 1048q-90 0 -166 -36t-136.5 -94.5t-105 -133.5t-72.5 -153h762l3 13q15 73 2.5 145.5t-49 129.5t-97 93t-141.5 36zM473 1421q3 20 22 37.5t39 17.5q11 0 20.5 -5t16.5 -13.5t10 -18.5 t2 -20q-3 -20 -22.5 -37t-39.5 -17q-21 1 -35.5 18.5t-12.5 37.5zM905 1421q3 20 22 37.5t39 17.5q21 0 36 -18.5t13 -38.5q-3 -20 -22.5 -37t-39.5 -17q-21 1 -36 18.5t-12 37.5z" />
<glyph unicode="&#x452;" d="M685 1261h-299l-78 -440q36 58 82.5 109t102 89t119.5 60.5t135 22.5q89 0 149.5 -33t95 -88.5t44 -128.5t-2.5 -152l-120 -700h-1l-15 -89q-13 -68 -41.5 -130.5t-72.5 -110.5t-103.5 -77t-133.5 -30q-35 0 -69 6t-68 15l20 50q29 -8 58 -13t59 -4q62 1 112 26t87 66 t61.5 93.5t35.5 108.5l86 503h1l50 286q11 67 5.5 130.5t-32.5 112t-77.5 78t-129.5 28.5q-71 -1 -142.5 -29.5t-134 -76.5t-109 -110.5t-67.5 -130.5l-121 -702h-55l217 1261h-219l8 54h221l38 221h54l-40 -221h298z" />
<glyph unicode="&#x453;" d="M1085 1027h-747l-177 -1027h-59l187 1082h803zM792 1492l68 -1l-225 -263l-61 1z" />
<glyph unicode="&#x454;" d="M510 34q71 0 134 21t114.5 59.5t90 92.5t60.5 120h54q-22 -77 -65 -141t-102 -109.5t-131.5 -71t-153.5 -25.5q-74 0 -131.5 22.5t-100 61.5t-69.5 91.5t-41.5 112.5t-16 124.5t8.5 127.5l7 42q18 99 61 195.5t109 173t155 124t200 47.5q83 0 148 -29t109.5 -79.5 t65.5 -119.5t17 -149h-53q4 69 -13 128t-54 102.5t-92.5 68t-126.5 24.5q-99 0 -178 -42t-138 -109.5t-97.5 -153.5t-56.5 -173h573l-7 -54h-576q-9 -55 -9 -112t10.5 -110.5t33 -100.5t58 -82.5t86 -56t117.5 -20.5z" />
<glyph unicode="&#x455;" d="M920 265q8 44 -2 78.5t-33 61.5t-56 47.5t-69.5 35.5t-74.5 25.5t-70 18.5q-39 9 -82 20.5t-83.5 27t-76.5 37.5t-61 52t-37 69.5t-4 90.5q10 72 53 124t102.5 85t129 48.5t134.5 15.5q73 0 140.5 -18t118.5 -56t80.5 -96t26.5 -139h-55q5 67 -20.5 115.5t-70 79.5 t-102.5 45.5t-117 14.5q-53 0 -112.5 -11.5t-112 -37t-91 -67t-50.5 -101.5q-8 -45 2 -78.5t33 -59t56 -43.5t70 -31.5t74.5 -22.5t69.5 -17q40 -10 83.5 -22.5t84 -30t76.5 -41.5t60.5 -56t36 -72.5t3.5 -92.5q-11 -77 -56 -130.5t-108 -88t-136.5 -50t-140.5 -15.5 q-71 0 -140.5 15.5t-125 51t-89.5 91.5t-32 137h54q0 -69 29.5 -115.5t77 -74.5t106.5 -39.5t119 -11.5q56 0 119 12.5t119 40t97 71.5t53 107z" />
<glyph unicode="&#x456;" d="M314 1082h440l-178 -1028h371l-7 -54h-812l8 54h385l170 974h-384zM709 1391q4 32 25 52.5t53 20.5q34 0 49.5 -22t10.5 -53q-5 -30 -26.5 -50.5t-53.5 -19.5q-32 2 -47.5 21.5t-10.5 50.5z" />
<glyph unicode="&#x457;" d="M314 1082h440l-178 -1028h371l-7 -54h-812l8 54h385l170 974h-384zM509 1461q3 20 22 37.5t39 17.5q11 0 20.5 -5t16.5 -13.5t10 -18.5t2 -20q-3 -20 -22.5 -37t-39.5 -17q-21 1 -35.5 18.5t-12.5 37.5zM941 1461q3 20 22 37.5t39 17.5q21 0 36 -18.5t13 -38.5 q-3 -20 -22.5 -37t-39.5 -17q-21 1 -36 18.5t-12 37.5z" />
<glyph unicode="&#x458;" d="M376 1082h463l-187 -1076q-16 -89 -53 -168.5t-94.5 -140t-134.5 -97t-173 -37.5q-51 -1 -100.5 4t-99.5 13l11 47q46 -6 92 -9t93 -2q86 1 154 32.5t119 84.5t84 123t48 150l177 1022h-406zM786 1392q5 32 26.5 52.5t53.5 20.5q34 0 49.5 -22t10.5 -53t-26.5 -50 t-53.5 -20q-32 0 -48.5 20t-11.5 52z" />
<glyph unicode="&#x459;" d="M751 1082l-78 -452h227q65 -3 112 -30t75.5 -70.5t38.5 -99t0 -115.5q-10 -63 -37.5 -119t-69.5 -98.5t-97.5 -68.5t-121.5 -29h-287l178 1027h-363l-74 -437q-8 -45 -16 -105.5t-21 -125t-33 -127.5t-51 -113.5t-75.5 -83t-106.5 -35.5h-30l7 54h28q50 4 86 35t61 78.5 t41 106t26 117t16.5 111t12.5 88.5l89 492h463zM664 576l-91 -522h227q55 3 100.5 25t81 57.5t58.5 82t33 98.5q9 48 3 93.5t-27 81.5t-58 58.5t-91 25.5h-236z" />
<glyph unicode="&#x45a;" d="M189 632h422l78 450h49l-78 -452h213q64 -3 108.5 -31t70.5 -72t33.5 -99.5t-1.5 -112.5q-10 -60 -35.5 -115.5t-65.5 -99t-93 -70.5t-117 -30h-272l101 578h-422l-100 -578h-49l187 1082h49zM651 576l-91 -522h213q54 3 97.5 25.5t76 58.5t54 82.5t30.5 96.5q9 46 5 91 t-22.5 81.5t-53 60t-87.5 26.5h-222z" />
<glyph unicode="&#x45b;" d="M730 1284h-367l-82 -463q36 58 82.5 109t102 89t119.5 60.5t135 22.5q89 0 149.5 -33t95 -88.5t44 -128.5t-2.5 -152l-120 -700h-55l121 700q11 67 5.5 130.5t-32.5 112t-77.5 78t-129.5 28.5q-71 -1 -142.5 -29.5t-134 -76.5t-109 -110.5t-67.5 -130.5l-121 -702h-55 l221 1284h-151l8 54h153l34 198h54l-35 -198h365z" />
<glyph unicode="&#x45c;" d="M496 529h-213l-91 -529h-57l186 1082h57l-86 -500h216l538 500l88 -1l-578 -532l449 -549h-76zM769 1491l68 -1l-225 -263l-61 1z" />
<glyph unicode="&#x45d;" d="M1013 1081l57 1l-186 -1082h-55l169 979l-839 -979h-55l185 1082h55l-174 -986zM756 1226h-55l-144 268h62z" />
<glyph unicode="&#x45e;" d="M510 74l18 31l597 976h66l-768 -1261q-31 -51 -68.5 -97.5t-82.5 -81.5t-98.5 -56.5t-117.5 -21.5q-23 0 -44.5 3t-44.5 8l5 51l38 -6t39 -3q53 0 99.5 17t85.5 46.5t72 68.5t59 82l106 177l-307 1076h61zM1030 1490q-13 -55 -40.5 -100.5t-66.5 -78t-89 -50.5t-108 -18 q-57 0 -102 18t-76 50.5t-46.5 78t-13.5 101.5h53q-5 -92 43.5 -142t141.5 -50q94 1 159 52t91 139h54z" />
<glyph unicode="&#x45f;" d="M344 1082l-178 -1028h671l177 1028h56l-186 -1082h-359l-60 -350h-55l60 350h-368l187 1082h55z" />
<glyph unicode="&#x460;" d="M1257 1456l-175 -1027q-8 -44 -20.5 -94.5t-31.5 -100t-45 -95.5t-61 -81t-79 -56.5t-99 -21.5q-51 0 -87 19.5t-59.5 52.5t-35.5 75.5t-16 86.5q-20 -43 -45.5 -84.5t-59 -74.5t-76 -54t-94.5 -21q-57 0 -94.5 22.5t-61 59.5t-34 84t-13 97t1.5 98.5t10 87.5l180 1027 h49l-176 -1027q-5 -30 -9.5 -71t-5 -84.5t6 -86.5t23.5 -77t46.5 -55t76.5 -21q46 0 83 19.5t66 51t51 73t38 85t26.5 87t17.5 79.5l180 1027h49l-175 -1027q-5 -30 -10 -71t-5 -84.5t6 -86.5t22.5 -77t46 -55t76.5 -21q46 0 83 19.5t66.5 51t51.5 73t38 85t26.5 87 t17.5 79.5l181 1027h48z" />
<glyph unicode="&#x461;" d="M1218 1082l-115 -673q-8 -46 -22 -95t-34.5 -97t-48.5 -91t-64 -75.5t-81 -52t-100 -19.5q-52 0 -90.5 18.5t-65 51t-41 75t-19.5 89.5q-21 -45 -49 -87t-64 -75t-80.5 -52.5t-98.5 -19.5q-56 0 -95.5 20.5t-65 54.5t-39 78t-18.5 92t-3 96t9 89l118 673h50l-114 -673 q-5 -32 -8.5 -72.5t-1.5 -82t10.5 -81.5t28 -71t50.5 -50t78 -19q46 0 84.5 17.5t69 46.5t54 67.5t41 80.5t29.5 84t19 80l117 673h51l-114 -673l-2 -11q-5 -32 -8 -71.5t-0.5 -80t12 -79t29 -68t50.5 -48t77 -18.5q69 0 120 37.5t87 94t57.5 122.5t32.5 122l117 673h51z " />
<glyph unicode="&#x462;" d="M703 1151h-322l-62 -363h315q85 -2 156.5 -30.5t119.5 -80t69 -123.5t7 -160q-15 -90 -58.5 -162t-107 -123t-144 -79t-168.5 -30h-379l199 1151h-196l8 54h197l44 251h53l-43 -251h320zM310 734l-118 -680h315q77 2 148 26.5t127.5 68.5t96 106.5t53.5 140.5 q14 76 -3 137.5t-58 105.5t-102 68.5t-134 26.5h-325z" />
<glyph unicode="&#x463;" d="M693 1082h-320l-72 -412h329q72 -2 136.5 -25.5t110 -66t67.5 -104t10 -139.5q-13 -79 -53.5 -140.5t-99 -104t-130 -65.5t-147.5 -25h-393l187 1082h-196l7 54h199l69 402h54l-69 -402h318zM292 616l-97 -562h328q65 2 127 21t113.5 55t87.5 87.5t49 119.5 q13 66 -5 117.5t-56 87t-92.5 54t-115.5 20.5h-339z" />
<glyph unicode="&#x464;" d="M239 794h197l8 44q12 60 30.5 131t45 141.5t63 136.5t84.5 117t109.5 81.5t137.5 31.5q62 0 109 -20t80 -55t53.5 -81.5t31 -98.5t11.5 -105.5t-5 -103.5h-48q0 42 -1.5 89t-8.5 92.5t-21.5 87t-40 73t-64.5 50t-95 18.5q-68 -1 -122.5 -29.5t-97 -75.5t-74.5 -107.5 t-55.5 -125.5t-39.5 -128.5t-27 -116.5l-9 -46h348l-8 -54h-346l-22 -120q-7 -44 -14 -104.5t-7 -125t9.5 -128t34.5 -114t68.5 -81.5t111.5 -32q85 -1 146.5 38t106 99.5t74.5 133t54 140.5h50q-17 -80 -51.5 -162.5t-87.5 -150t-126 -110t-166 -42.5q-77 0 -128.5 33 t-83 86.5t-45.5 121.5t-17 139t2.5 138.5t14.5 120.5l21 120h-199l-128 -740h-49l252 1456h49z" />
<glyph unicode="&#x465;" d="M886 534h-381l-8 -44q-8 -43 -12.5 -93t-2 -100.5t14 -98t36.5 -84t65.5 -58.5t99.5 -22q64 0 114 25.5t88.5 67t66 94t45.5 106.5h51q-14 -65 -45.5 -127.5t-78 -111t-107.5 -78.5t-133 -30q-67 0 -115 23.5t-79.5 63.5t-48.5 92t-23 109t-2.5 114.5t12.5 107.5l9 44 h-223l-93 -534h-49l185 1082h50l-84 -494l217 -1l1 6q12 54 29.5 113t43 115.5t58.5 107.5t76.5 89.5t98 61t121.5 22.5q51 0 90.5 -16t69 -43.5t49.5 -64.5t30.5 -79t13 -86.5t-2.5 -87.5h-51q3 53 -3 110t-27.5 104t-62 78t-106.5 31q-59 0 -106.5 -20.5t-85.5 -55 t-67 -80.5t-50.5 -96.5t-37 -103t-26.5 -99.5l-1 -6l384 1z" />
<glyph unicode="&#x466;" d="M898 508h-285l-88 -508h-52l87 508h-270l-265 -508h-59l756 1455l63 1l258 -1456h-56zM318 562h570l-130 747l-11 84l-44 -93z" />
<glyph unicode="&#x467;" d="M823 395h-223l-68 -395h-54l68 395h-227l-239 -395h-61l641 1081v2h52l271 -1083h-57zM351 449h457l-106 408l-26 149l-82 -157z" />
<glyph unicode="&#x468;" d="M972 508h-195l-88 -508h-48l88 508h-185l-218 -508h-53l215 508h-285l-88 -508h-48l251 1456h48l-154 -894h298l382 894h55l118 -1456h-50zM566 562h402l-59 742l-1 62l-24 -62z" />
<glyph unicode="&#x469;" d="M942 395h-176l-68 -395h-51l68 395h-178l-210 -395h-56l204 395h-301l-69 -395h-51l186 1082h51l-109 -633h320l329 629l-1 4h50l-2 -2l189 -1080h-52zM565 449h366l-74 409l-15 134l-65 -143z" />
<glyph unicode="&#x46a;" d="M682 749h107q78 -3 129.5 -33.5t79.5 -80t35 -113.5t-4 -133l-68 -389h-50l65 389q9 58 7 112t-22.5 96.5t-61.5 68.5t-109 29h-141l-120 -695h-49l120 695h-128q-68 -2 -119.5 -27t-88 -66.5t-59.5 -96t-35 -116.5l-69 -389h-50l64 389q13 72 41 136t72 113t104.5 79 t138.5 32h118l-218 707h775zM1049 1402h-609l184 -620l6 -29l20 31z" />
<glyph unicode="&#x46b;" d="M55 0l35 225q14 79 47 144t83.5 112.5t117 74.5t148.5 29l37 1l-211 496h730l-392 -498h30q80 -2 137.5 -29.5t92.5 -75.5t46.5 -113t0.5 -141l-40 -225h-51l37 225q10 66 3 121t-34 95t-74.5 63.5t-118.5 25.5l-67 1l-7 -9l-92 -522h-52l93 523l-2 7h-67 q-72 -2 -128.5 -24t-99 -62t-70.5 -95.5t-41 -123.5l-40 -225h-51zM933 1027h-543l187 -431l2 -11h10l8 12z" />
<glyph unicode="&#x46c;" d="M280 0l64 389q7 43 18 85t27.5 81.5t40.5 75t57 65.5l-281 -1l-120 -695h-46l251 1456h46l-122 -707h499l-132 707h585l-378 -707h74q72 -3 111 -39t55 -89.5t14.5 -115.5t-10.5 -116l-72 -389h-46l65 389q5 29 9.5 62t5 66t-5 64t-20 56t-40.5 40.5t-66 17.5h-99 l-121 -695h-46l120 695h-88q-60 -3 -100.5 -32.5t-66.5 -73.5t-41 -97t-24 -103l-70 -389h-47zM1083 1402h-444l109 -619l1 -14l8 14z" />
<glyph unicode="&#x46d;" d="M198 585h477l-145 497h566l-322 -498h20q75 -2 119.5 -35.5t66 -85t23.5 -114.5t-8 -124l-41 -225h-47l36 225q8 51 9.5 103.5t-12.5 96t-48.5 73t-99.5 32.5l-48 1l-4 -5l-93 -526h-48l95 527l-1 3h-48q-65 -2 -110 -29.5t-75.5 -70t-49 -96.5t-29.5 -109l-42 -225h-48 l35 225q15 88 51 168t107 138l-295 -1l-92 -530h-48l187 1082h48zM1002 1027h-406l125 -431l1 -9l4 10z" />
<glyph unicode="&#x46e;" d="M548 771q79 1 159 18t147.5 54t116 97t65.5 147q16 84 -9.5 143t-76.5 97t-120 56t-140 19h-330l7 54h323q83 -1 161.5 -24t137 -68.5t88 -115.5t13.5 -165q-12 -69 -45 -124t-80.5 -97t-106.5 -71.5t-122 -47.5q66 -17 118.5 -48.5t87 -76.5t48.5 -103t2 -129 q-11 -67 -41.5 -121t-74 -96.5t-98.5 -73.5t-115 -51.5t-123 -31t-123 -11.5h-80q-36 -1 -71.5 -8.5t-65.5 -24t-51.5 -43t-28.5 -66.5q-6 -35 4.5 -64t32 -52.5t49.5 -40.5t57 -29l-22 -50q-36 14 -70 36.5t-59 52.5t-38 66.5t-7 79.5q7 50 32.5 86.5t63 60.5t82.5 35.5 t91 13.5h80q80 1 164.5 19t157.5 57t126.5 101t71.5 151q12 63 2.5 112.5t-35 86t-65 62t-87 41.5t-100 23t-104.5 8h-123l8 56h116zM725 1681l226 215h54l-1 -13l-251 -249h-58l-175 252l1 11l55 1z" />
<glyph unicode="&#x46f;" d="M524 585q61 1 128 10.5t126 35t102.5 70.5t57.5 116q8 44 -2.5 76.5t-33.5 55.5t-56 38t-69.5 23.5t-74 12t-69.5 4.5h-278l7 55h271q41 -1 85.5 -6.5t87.5 -18t80.5 -32.5t64 -49.5t38.5 -70t4 -92.5q-9 -54 -35 -95t-63 -71.5t-82.5 -52t-93.5 -36.5q47 -12 88.5 -33.5 t71 -52.5t43 -72.5t4.5 -95.5q-9 -56 -36 -100.5t-66.5 -78t-88.5 -56.5t-101.5 -38t-106 -22t-102.5 -8h-39q-36 -1 -71.5 -8.5t-66 -24t-52 -43t-28.5 -66.5q-6 -36 5 -65t32.5 -52t49.5 -40t57 -29l-22 -50q-36 15 -70 37.5t-59 52t-38.5 66t-7.5 79.5q7 50 32.5 86.5 t63 60.5t83 35.5t91.5 13.5h40q63 1 134.5 12t136 39t112 75t62.5 120q10 51 -1.5 88t-38 62.5t-64.5 40.5t-79.5 23.5t-84.5 11.5t-79 3h-122l7 56h116zM698 1364l226 215h54l-1 -13l-251 -249h-58l-175 252l1 11l55 1z" />
<glyph unicode="&#x470;" d="M604 471q95 9 174 50.5t139 106t99.5 146.5t57.5 172l89 510h52l-87 -510q-19 -103 -63 -195.5t-111 -164.5t-156.5 -117.5t-198.5 -52.5l-74 -416h-52l74 416q-105 9 -178 57t-115.5 121.5t-55.5 164.5t2 187l89 510h53l-87 -510q-14 -84 -4.5 -165.5t45.5 -147 t99 -109.5t157 -53l172 985h52z" />
<glyph unicode="&#x471;" d="M713 1082l-183 -1048q108 10 189.5 61t139.5 128.5t94 172.5t53 192q22 125 12.5 249.5t-50.5 245.5h60q40 -120 47 -244t-14 -249q-19 -109 -59.5 -214.5t-105.5 -190.5t-157 -140t-213 -64l-71 -396h-52l71 396q-78 7 -134.5 37.5t-94.5 77t-59.5 105.5t-29.5 124.5 t-5.5 133t13.5 131.5l85 492h51l-84 -494q-9 -57 -13 -117.5t2 -119.5t23 -112.5t49 -96.5t81.5 -71t119.5 -36l183 1047h52z" />
<glyph unicode="&#x472;" d="M1058 619q-13 -70 -36.5 -145t-59 -146t-82 -134t-104.5 -110.5t-128.5 -75.5t-152.5 -28q-83 0 -144 29.5t-104 79t-68.5 114t-37.5 135.5t-11 143.5t11 137.5l37 218q13 70 37 145t59 146t82 134t105.5 111t128.5 75.5t153 27.5t144.5 -29.5t104 -79t68 -114t37 -135.5 t10 -143.5t-11.5 -137.5zM1018 701h-809l-14 -82q-9 -57 -11.5 -122.5t5.5 -130.5t28.5 -125t57 -106t90.5 -73.5t130 -27.5q75 0 138.5 25.5t116 69.5t94.5 102t73.5 123t53 133t33.5 132zM219 755h809l15 84q9 57 11.5 122.5t-5.5 130t-28.5 124.5t-57 105.5t-91 73 t-129.5 27.5q-74 0 -137.5 -25.5t-116 -69.5t-94.5 -102t-74 -122.5t-53.5 -132.5t-33.5 -131z" />
<glyph unicode="&#x473;" d="M129 562q19 101 65.5 198t117 173t163 122.5t203.5 46.5q74 0 133 -22t103.5 -60.5t75 -91t47 -112.5t20 -125t-6.5 -129l-7 -42q-18 -101 -64.5 -198t-117 -173t-163 -122.5t-203.5 -46.5q-74 0 -133 22t-103.5 60.5t-75 91t-47.5 112.5t-20.5 125t6.5 129zM678 1048 q-98 0 -180 -42t-146 -110.5t-106.5 -154.5t-60.5 -174h812q13 83 1 168.5t-50.5 155t-105.5 113.5t-164 44zM495 34q97 0 179.5 42t145.5 109.5t105.5 153.5t60.5 174h-811q-12 -84 -0.5 -169t50 -154t105.5 -112.5t165 -43.5z" />
<glyph unicode="&#x474;" d="M458 142l11 -83l44 87l527 1082q25 50 57 94.5t71.5 78t88.5 53.5t109 22h11l-8 -47h-8q-52 -2 -93.5 -21.5t-75 -50.5t-60 -70.5t-48.5 -82.5l-588 -1204h-65l-208 1457l57 -1z" />
<glyph unicode="&#x475;" d="M378 224l27 -150l87 159l361 701q17 32 39 62.5t50 53.5t61 37t73 14q23 -1 43.5 -6.5t41.5 -13.5l-20 -43q-17 7 -34 11.5t-36 4.5q-32 0 -58 -13t-47 -34t-38 -47t-31 -51l-474 -909h-52l1 2l-202 1081h57z" />
<glyph unicode="&#x476;" d="M458 142l11 -83l44 87l527 1082q25 50 57 94.5t71.5 78t88.5 53.5t109 22h11l-8 -47h-8q-52 -2 -93.5 -21.5t-75 -50.5t-60 -70.5t-48.5 -82.5l-588 -1204h-65l-208 1457l57 -1zM613 1504h-72l-244 265h85zM832 1504h-69l-200 265h81z" />
<glyph unicode="&#x477;" d="M378 224l27 -150l87 159l361 701q17 32 39 62.5t50 53.5t61 37t73 14q23 -1 43.5 -6.5t41.5 -13.5l-20 -43q-17 7 -34 11.5t-36 4.5q-32 0 -58 -13t-47 -34t-38 -47t-31 -51l-474 -909h-52l1 2l-202 1081h57zM498 1209h-72l-244 265h85zM717 1209h-69l-200 265h81z" />
<glyph unicode="&#x478;" d="M582 609q-8 -46 -19.5 -110.5t-29 -134t-43.5 -138.5t-63 -123.5t-87 -88.5t-115 -34q-67 0 -106 36t-58 93.5t-21.5 129t3 141.5t15.5 131t16 98l41 238q8 46 19.5 110.5t29.5 134t44 138.5t63 123.5t86.5 88.5t115.5 34q67 0 106 -36t58 -93.5t21.5 -129t-3.5 -141.5 t-16 -131t-16 -98zM570 849q5 27 14 80t16 116.5t8 130.5t-11.5 121.5t-41.5 89.5t-82 35q-54 0 -95.5 -32t-73 -83.5t-54 -115.5t-38 -127.5t-26 -120.5t-16.5 -94l-42 -240q-5 -27 -14 -80t-15.5 -117t-7.5 -131t11 -122t41 -90t81 -35q54 0 96 32t74 83.5t54 116 t38 128.5t25.5 121t16.5 94zM798 188l361 893h60l-508 -1261q-17 -39 -40 -84t-54 -83t-70.5 -64t-88.5 -26q-18 0 -34 3.5t-33 7.5l6 51q14 -3 29 -6t30 -3q39 0 71 22t57.5 54.5t44 70t31.5 67.5l88 231l-34 1021h57z" />
<glyph unicode="&#x479;" d="M66 564q8 45 20.5 102t31.5 117t45 117.5t62.5 102.5t83.5 72.5t107 27.5q62 0 100.5 -29t60 -76.5t28.5 -107t5.5 -119.5t-8 -114.5t-12.5 -92.5l-8 -45q-8 -45 -20.5 -102t-31 -117t-45 -117.5t-62.5 -102.5t-83.5 -72.5t-107.5 -27.5q-61 0 -99.5 29.5t-60 76.5 t-28.5 106.5t-6 119.5t7.5 114.5t12.5 92.5zM112 519q-5 -28 -11 -74.5t-9 -100.5t0 -109t18 -99.5t44 -73t78 -28.5q50 0 89.5 26t70 68t53.5 94.5t39 106.5t26.5 104t17.5 86l9 47q5 28 11.5 74.5t9.5 100t-0.5 108.5t-18 99.5t-44 72.5t-78.5 28t-88.5 -26t-70.5 -67.5 t-53.5 -94.5t-39 -106.5t-27.5 -103t-17 -85.5zM798 188l361 893h60l-508 -1261q-17 -39 -40 -84t-54 -83t-70.5 -64t-88.5 -26q-18 0 -34 3.5t-33 7.5l6 51q14 -3 29 -6t30 -3q39 0 71 22t57.5 54.5t44 70t31.5 67.5l88 231l-34 1021h57z" />
<glyph unicode="&#x47a;" d="M734 1291h-51l51 307h52zM486 -144h-52l52 307h52zM1058 619q-13 -70 -36.5 -145t-59 -146t-82 -134t-104.5 -110.5t-128.5 -75.5t-152.5 -28q-83 0 -144 29.5t-104 79t-68.5 114t-37.5 135.5t-11 143.5t11 137.5l37 218q13 70 37 145t59 146t82 134t105.5 111 t128.5 75.5t153 27.5t144.5 -29.5t104 -79t68 -114t37 -135.5t10 -143.5t-11.5 -137.5zM1043 839q9 57 11.5 122.5t-5.5 130t-28.5 124.5t-57 105.5t-91 73t-129.5 27.5q-74 0 -137.5 -25.5t-116 -69.5t-94.5 -102t-74 -122.5t-53.5 -132.5t-33.5 -131l-39 -220 q-9 -57 -11.5 -122.5t5.5 -130.5t28.5 -125t57 -106t90.5 -73.5t130 -27.5q75 0 138.5 25.5t116 69.5t94.5 102t73.5 123t53 133t33.5 132z" />
<glyph unicode="&#x47b;" d="M678 910h-54l57 337h54zM490 -176h-54l57 337h54zM129 562q19 101 65.5 198t117 173t163 122.5t203.5 46.5q74 0 133 -22t103.5 -60.5t75 -91t47 -112.5t20 -125t-6.5 -129l-7 -42q-18 -101 -64.5 -198t-117 -173t-163 -122.5t-203.5 -46.5q-74 0 -133 22t-103.5 60.5 t-75 91t-47.5 112.5t-20.5 125t6.5 129zM176 520q-14 -84 -2.5 -170.5t50 -156.5t105.5 -114.5t166 -44.5t181.5 42.5t146 111.5t105.5 156t60 176l8 42q9 56 7 113.5t-15.5 111.5t-39 101.5t-64 83t-90 56t-116.5 20.5q-98 0 -181 -42.5t-146.5 -111.5t-106 -156 t-60.5 -176z" />
<glyph unicode="&#x47c;" d="M985 1453q57 -5 96 -28t63.5 -58t37 -80t16 -93t0 -97t-10.5 -93l-100 -575q-8 -45 -21.5 -95.5t-33 -100.5t-46.5 -96t-63 -81t-81 -56t-100 -21q-53 0 -90 20t-61.5 53.5t-37.5 76.5t-17 89q-21 -44 -47.5 -87t-61.5 -76.5t-78.5 -54.5t-97.5 -21q-57 0 -96 22 t-63 58.5t-36 84t-15 97.5t0.5 99t9.5 89l100 575q13 75 38 152t66.5 140.5t103 106.5t147.5 51l-7 -54q-48 -6 -86 -26t-68 -50t-53 -68.5t-39.5 -81t-28 -86t-19.5 -84.5l-100 -575q-5 -31 -9.5 -72.5t-4 -85t7.5 -86.5t25 -76.5t48.5 -54.5t77.5 -21q46 0 83.5 18.5 t67.5 49t52.5 70.5t39.5 82.5t28.5 85t18.5 79.5l2 11l90 510h50l-86 -510l-2 -11q-5 -31 -9 -71.5t-3 -83t8.5 -84t25.5 -74t48.5 -52.5t76.5 -20q47 0 85 19t68 50.5t53 73t39.5 85.5t28 87.5t18.5 80.5l100 575q6 37 10.5 79t3.5 84t-9.5 81.5t-28 71.5t-52 53t-80.5 27z M1110 1617l-7 -44h-16q-32 2 -56 16.5t-44 35.5t-38 45t-38 44t-43.5 33t-53.5 13q-37 -1 -63 -18.5t-44 -44.5t-30 -59t-21 -61l-5 -18h-50l2 26q5 39 22 79.5t43.5 73.5t62 54t79.5 21q33 0 58 -13.5t45.5 -34.5t38.5 -46t38.5 -46.5t45 -37.5t57.5 -18h17zM689 1382 q31 29 47.5 61t25.5 73l21 99l49 -1l-16 -101q-11 -54 -39 -97.5t-73 -73.5z" />
</font>
</defs>
</svg>
