<?xml version="1.0" standalone="no"?>
<!DOCTYPE svg PUBLIC "-//W3C//DTD SVG 1.1//EN" "http://www.w3.org/Graphics/SVG/1.1/DTD/svg11.dtd" >
<svg xmlns="http://www.w3.org/2000/svg" xmlns:xlink="http://www.w3.org/1999/xlink" version="1.1">
<metadata></metadata>
<defs>
<font id="roboto_monothin" horiz-adv-x="1229" >
<font-face units-per-em="2048" ascent="1536" descent="-512" />
<missing-glyph horiz-adv-x="500" />
<glyph horiz-adv-x="0" />
<glyph horiz-adv-x="0" />
<glyph />
<glyph unicode="&#x9;" />
<glyph unicode=" " />
<glyph unicode="!" d="M619 401h-55v1055h55v-1055zM543 49q0 22 17 39t39 17q23 0 40.5 -16.5t17.5 -39.5t-18 -39t-40 -16t-39 16t-17 39z" />
<glyph unicode="&#x22;" d="M514 1393l-11 -271h-53l8 268l-2 146h60zM763 1393l-11 -271h-53l9 268l-2 146h59z" />
<glyph unicode="#" d="M752 410h-364l-74 -410h-56l74 410h-271v52h281l95 524h-300v54h310l75 416h56l-76 -416h365l76 416h56l-76 -416h254v-54h-264l-96 -524h285v-52h-294l-75 -410h-56zM398 462h363l96 524h-365z" />
<glyph unicode="$" d="M1015 344q1 82 -33 139.5t-87.5 98.5t-119 69t-128.5 51q-74 26 -146 57.5t-130 78t-93.5 112t-35.5 160.5q0 86 31.5 152.5t84.5 112.5t122 71.5t144 29.5v187h56v-187q88 -5 157.5 -37.5t118 -88.5t75.5 -133t30 -170h-55q-2 83 -28 152t-72 119t-111 78t-145 28 q-67 0 -130 -20t-112.5 -59t-80 -97.5t-31.5 -135.5q-1 -84 32 -142t86 -98.5t119 -67.5t131 -50q73 -26 145 -57.5t130 -78.5t94 -113t36 -159q0 -86 -31.5 -151.5t-83.5 -111.5t-120 -71.5t-142 -30.5v-189h-56v187q-94 3 -173.5 32t-138 83.5t-93 133.5t-38.5 181h55 q3 -92 35.5 -163t87.5 -118.5t128.5 -72t157.5 -23.5q64 0 128 20.5t115 60.5t82.5 98t32.5 133z" />
<glyph unicode="%" d="M44 1176q1 52 16 106t45 97t74.5 70.5t104.5 27.5t104.5 -27.5t74 -71t44.5 -97t16 -105.5v-77q-1 -52 -16 -105t-44 -96t-73.5 -70.5t-103.5 -27.5q-60 0 -105 27t-75 69.5t-45.5 96t-16.5 106.5v77zM99 1099q1 -42 12 -85.5t33.5 -79t57.5 -57.5t84 -22q48 0 82.5 23 t56.5 58t32.5 78.5t11.5 84.5v77q-1 42 -11.5 85.5t-33 79t-57 58.5t-83.5 23q-48 0 -83 -23t-57.5 -59t-33 -79.5t-11.5 -84.5v-77zM702 357q1 52 16 105.5t45 96.5t74 70.5t104 27.5t104.5 -27t74.5 -70.5t45.5 -97t16.5 -105.5v-78q-1 -52 -16 -105.5t-45 -96.5 t-74 -70.5t-104 -27.5t-104.5 27t-74.5 70.5t-45.5 96.5t-16.5 106v78zM757 279q1 -42 11.5 -85.5t33 -79t57.5 -58t84 -22.5t83.5 22.5t56.5 58t32.5 79t11.5 85.5v78q-1 43 -11 86.5t-32.5 78.5t-57.5 57.5t-85 22.5t-84.5 -22.5t-56.5 -57.5t-32 -79t-11 -86v-78z M316 131l-43 31l622 1138l43 -31z" />
<glyph unicode="&#x26;" d="M451 802q-31 40 -59 83t-49 88.5t-33.5 94t-12.5 99.5q0 63 20 119.5t57 98.5t90 67t119 25q56 0 104 -20t82.5 -55.5t53.5 -84t19 -104.5q0 -45 -16.5 -86.5t-42 -78.5t-57.5 -69.5t-64 -60.5l-141 -121l438 -534q51 82 78 178t31 191h54q0 -113 -30.5 -218t-93.5 -198 l177 -216h-65l-145 175q-40 -42 -84 -77.5t-93.5 -61.5t-103.5 -41t-113 -15q-84 0 -158 25t-129.5 73t-87.5 117t-32 157q0 63 21 120.5t54.5 108.5t76.5 96.5t88 84.5zM571 34q58 0 109.5 13t96.5 37.5t83 59t69 75.5l-417 506l-31 38l-46 -40q-39 -35 -78 -76.5t-70 -88 t-50 -98.5t-19 -108q1 -75 29.5 -134t76.5 -100t112 -62.5t135 -21.5zM352 1169q0 -47 11 -91.5t30 -86.5t44 -81t53 -75l147 125q28 24 54.5 52t47.5 59.5t34 67t13 74.5q0 44 -15 82t-42 66.5t-64.5 45t-81.5 16.5q-54 0 -97 -20.5t-72.5 -55.5t-45.5 -81t-16 -97z" />
<glyph unicode="'" d="M603 1367l-15 -245h-50l10 243l-1 171h56v-169z" />
<glyph unicode="(" d="M406 586q0 87 9.5 183.5t29.5 194.5t51.5 193.5t77.5 181.5t107 159t139 125l19 -43q-72 -50 -128 -120t-98 -153t-71 -175t-47 -185.5t-26.5 -184.5t-8.5 -172v-26q1 -81 9 -172t26 -184.5t47 -185.5t71 -175t98 -153.5t128 -120.5l-19 -43q-79 53 -140.5 125.5 t-107.5 158.5t-77.5 181t-51 192.5t-28.5 194t-9 184.5v20z" />
<glyph unicode=")" d="M798 566q-1 -88 -9.5 -184.5t-28 -194t-51 -192.5t-77.5 -181t-107.5 -158.5t-140.5 -125.5l-19 43q72 50 128 120.5t98 153.5t71 175t47 185.5t26 184.5t9 172v26q-1 81 -9 172t-26 184.5t-47 185.5t-71 175t-98 153t-128 120l19 43q78 -52 139 -125t107 -159 t77.5 -181.5t51.5 -193.5t29 -194.5t10 -183.5v-20z" />
<glyph unicode="*" d="M604 1017l-396 124l19 54l395 -133l2 394h59l-8 -395l383 143l22 -53l-392 -137l281 -317l-50 -33l-274 322l-258 -325l-47 32z" />
<glyph unicode="+" d="M636 702h481v-53h-481v-503h-55v503h-462v53h462v504h55v-504z" />
<glyph unicode="," d="M559 27q-2 -81 -27 -151.5t-79 -130.5l-37 32q42 57 65 116.5t24 131.5v134h54v-132z" />
<glyph unicode="-" horiz-adv-x="1230" d="M958 639h-718v54h718v-54z" />
<glyph unicode="." d="M589 52q0 25 18 42.5t40 17.5q23 0 41.5 -17.5t18.5 -42.5q0 -24 -18.5 -41t-41.5 -17q-22 0 -40 17t-18 41z" />
<glyph unicode="/" d="M365 -125h-59l608 1581h59z" />
<glyph unicode="0" d="M1063 594q-1 -71 -10.5 -144t-31 -141t-55.5 -128t-83 -104.5t-114.5 -70.5t-149.5 -26q-83 0 -148.5 26t-115 70.5t-84.5 104.5t-56.5 128t-32 141t-10.5 144v268q0 70 10 143t31.5 141.5t56 128.5t83.5 105t114.5 71t149.5 26t149.5 -26t114.5 -70.5t83.5 -104.5 t56.5 -128.5t31.5 -141.5t10.5 -144v-268zM226 596q0 -52 5.5 -105.5t18.5 -106.5l725 731q-18 63 -48 119t-73.5 98t-102 66.5t-134.5 24.5t-134 -24t-101.5 -65.5t-73 -97t-47.5 -118t-26.5 -128.5t-8.5 -128v-266zM1009 862q-1 48 -5.5 97.5t-14.5 98.5l-724 -730 q19 -60 49 -113.5t73 -93.5t100.5 -63.5t131.5 -23.5q75 0 133.5 24.5t101.5 66t72.5 97t47.5 118t26 128.5t9 128v266z" />
<glyph unicode="1" d="M711 0h-55v1386l-426 -199v60l462 209h19v-1456z" />
<glyph unicode="2" d="M1019 0h-871v54l477 550q42 49 88 104t84.5 116t63.5 126.5t25 134.5q0 79 -26.5 141.5t-74 106t-112.5 66.5t-142 23q-81 0 -147 -30t-113.5 -81.5t-74.5 -120t-30 -145.5h-54q3 88 34.5 166.5t86.5 137t130.5 93t167.5 34.5q89 0 164 -26.5t130 -77.5t85.5 -123.5 t30.5 -163.5q0 -78 -29.5 -151t-73.5 -141t-96.5 -130t-100.5 -117l-422 -492h800v-54z" />
<glyph unicode="3" d="M414 770h111q70 1 140.5 20.5t126.5 58.5t91 97.5t35 138.5q0 78 -27 140.5t-75 106t-113.5 67t-141.5 23.5q-78 0 -145.5 -25t-117.5 -70.5t-80 -109.5t-33 -143h-54q3 90 37 164t92 127t135 82t166 29q88 0 163 -28t130.5 -79.5t86.5 -124.5t31 -163q0 -67 -23 -121.5 t-61.5 -96.5t-90 -71.5t-109.5 -47.5q65 -15 122.5 -44t100.5 -73t68 -104t25 -137q0 -94 -34 -169t-92.5 -127.5t-138 -81t-169.5 -28.5q-95 0 -179 30t-147.5 85.5t-102 134t-41.5 175.5h54q3 -85 37.5 -153.5t91 -117t130.5 -74.5t157 -26q80 0 149.5 23t120.5 67.5 t80.5 109t29.5 148.5q0 92 -36.5 155t-96 102t-136 56.5t-156.5 18.5h-111v56z" />
<glyph unicode="4" d="M853 451h252v-54h-252v-397h-54v397h-706v30l695 1029h65v-1005zM177 451h622v940l-84 -138z" />
<glyph unicode="5" d="M281 762l68 694h710v-53h-661l-59 -584q63 49 144 73t161 24q98 0 177 -35t135.5 -96t87 -143.5t30.5 -177.5q0 -98 -24 -185.5t-74.5 -154t-128 -105.5t-183.5 -39q-92 0 -167.5 29.5t-131 82.5t-89.5 127t-44 164h55q9 -80 38.5 -144t77.5 -110t113.5 -70.5 t147.5 -24.5q94 0 161.5 34.5t110.5 93t63 136t20 164.5q0 84 -26 156.5t-74.5 126.5t-117.5 85.5t-156 31.5q-92 1 -173 -26.5t-150 -89.5z" />
<glyph unicode="6" d="M870 1476v-54h-19q-153 -1 -269 -56.5t-195.5 -149.5t-123 -219t-50.5 -266q30 52 74 94t97.5 71.5t114 45t123.5 15.5q101 0 179.5 -39t132 -105t81.5 -152.5t28 -180.5q0 -90 -26.5 -179.5t-78.5 -160.5t-129 -115.5t-177 -44.5q-109 0 -196.5 41t-148.5 111.5 t-94.5 163.5t-34.5 196v168q1 108 20 210.5t56.5 193t94.5 166t134 130t173.5 85t214.5 31.5h19zM615 903q-67 0 -132.5 -20.5t-120.5 -58.5t-95 -91t-55 -119v-121q1 -92 30 -175.5t83 -147t131.5 -101t175.5 -36.5q88 1 154.5 41.5t111.5 104.5t68 143.5t23 157.5 q0 85 -24.5 161.5t-72 134.5t-117.5 92.5t-160 34.5z" />
<glyph unicode="7" d="M1068 1422l-641 -1422h-55l634 1402h-868v54h930v-34z" />
<glyph unicode="8" d="M1062 1086q0 -65 -22 -120t-59.5 -98t-88 -74t-107.5 -49q64 -17 122 -49.5t101.5 -78.5t69.5 -106t26 -132q0 -98 -38 -172.5t-102.5 -125t-148.5 -76t-174 -25.5q-91 0 -175 25.5t-148.5 75.5t-102.5 124.5t-38 173.5q0 72 25 132t68 106t100 78.5t121 49.5 q-57 18 -106.5 48.5t-86.5 74t-58.5 98t-21.5 120.5q0 90 32.5 162.5t89.5 123t133.5 77.5t163.5 27q86 0 163.5 -27t135.5 -77.5t92 -123t34 -162.5zM1049 374q0 83 -35.5 147t-93.5 108t-131.5 66.5t-149.5 22.5t-149 -22.5t-130.5 -66t-93 -108t-35.5 -147.5 q0 -85 35 -149t93 -106.5t131.5 -63.5t150.5 -21t150.5 21.5t130.5 64t92 106.5t35 148zM1008 1091q0 75 -31.5 136.5t-83 104.5t-118.5 66.5t-138 23.5q-73 0 -139 -23t-116.5 -65.5t-80 -104t-29.5 -138.5t31 -136t82 -100t117 -62t137 -21q70 0 136.5 21.5t118 62.5 t83 100t31.5 135z" />
<glyph unicode="9" d="M391 34q154 1 267.5 54t189 144.5t112.5 216t38 269.5v16q-27 -59 -68.5 -108t-95 -84.5t-117 -54.5t-135.5 -19q-99 0 -177 42.5t-132 111.5t-82.5 157t-28.5 179q0 93 28 185.5t82.5 166t134.5 119.5t183 47q83 0 149.5 -21.5t117.5 -61t87.5 -93t60.5 -117.5 t35 -135.5t12 -144.5v-163q-1 -159 -40.5 -297.5t-120.5 -240.5t-205 -161.5t-295 -60.5h-34l2 54h32zM582 522q73 0 140.5 24t123 66.5t95 101.5t57.5 129v59q-1 97 -22.5 190.5t-69.5 167t-124.5 118.5t-187.5 44q-60 -1 -112 -20t-94 -52.5t-74 -78.5t-54 -96.5t-33 -107 t-11 -109.5q0 -80 24.5 -158t71 -139.5t115 -100t155.5 -38.5z" />
<glyph unicode=":" d="M647 52q0 25 18 42.5t40 17.5q23 0 41.5 -17.5t18.5 -42.5q0 -24 -18.5 -41t-41.5 -17q-22 0 -40 17t-18 41zM647 928q0 25 18 42.5t40 17.5q23 0 41.5 -17.5t18.5 -42.5q0 -24 -18.5 -41t-41.5 -17q-22 0 -40 17t-18 41z" />
<glyph unicode=";" d="M648 928q0 25 18 42.5t40 17.5q23 0 41.5 -17.5t18.5 -42.5q0 -24 -18.5 -41t-41.5 -17q-22 0 -40 17t-18 41zM713 27q-2 -81 -27 -151.5t-79 -130.5l-37 32q42 57 65 116.5t24 131.5v134h54v-132z" />
<glyph unicode="&#x3c;" d="M236 666l792 -345v-59l-866 379v50l866 378v-58z" />
<glyph unicode="=" d="M1066 843h-891v54h891v-54zM1066 436h-891v54h891v-54z" />
<glyph unicode="&#x3e;" d="M973 668l-784 345l-1 59l865 -378v-50l-865 -379l1 59z" />
<glyph unicode="?" d="M569 400q3 55 14 101t31.5 87t51 78t71.5 74q43 39 81 79t66 84t43.5 95.5t15.5 113.5q0 69 -22.5 126t-62.5 98.5t-97 64t-126 22.5q-70 0 -129.5 -21.5t-103 -61.5t-69.5 -97t-29 -127h-55q5 81 35.5 147t81.5 113.5t119.5 73.5t149.5 26q80 0 146.5 -27t114.5 -76 t74.5 -116t26.5 -147q0 -66 -18 -123.5t-49.5 -108t-74 -95.5t-91.5 -85q-72 -60 -105.5 -132t-34.5 -166h-55zM544 49q0 23 17.5 39.5t39.5 16.5t40 -16.5t18 -39.5t-18 -39t-40 -16t-39.5 16t-17.5 39z" />
<glyph unicode="@" d="M1172 762q-1 -37 -6 -87t-15.5 -104t-29 -106t-46 -93.5t-66 -67t-90.5 -25.5q-44 0 -74 19t-49 49t-29 67t-13 74q-18 -39 -40.5 -76.5t-50.5 -67t-62 -47.5t-73 -18q-48 0 -81.5 23t-55 59.5t-33 82.5t-16 92.5t-4 88t2.5 70.5q7 87 30 172t64 152t102.5 108t145.5 40 q31 0 55 -8t44.5 -20.5t38.5 -28.5t38 -33l-2 -2l-51 -503q-1 -27 0 -67.5t11.5 -78.5t34.5 -65t69 -27q42 0 72.5 24t52 62t35 85.5t21 95t11 90t4.5 71.5q5 143 -16 263t-72 206t-134.5 134t-203.5 48q-70 0 -139 -20t-132.5 -60.5t-118 -101.5t-96 -142.5t-67 -184.5 t-29.5 -227q-3 -72 3.5 -147.5t26.5 -146t57 -133t95.5 -109t141 -73.5t195.5 -27q33 0 69.5 6.5t73.5 17.5t70.5 25.5t60.5 30.5l22 -46q-28 -20 -65 -36t-77.5 -28t-81 -18.5t-75.5 -6.5q-123 0 -214 28t-155 77.5t-104.5 116.5t-62.5 144t-29.5 160t-4.5 165 q3 103 22 202t54.5 187t88 162t122.5 128t158 84t194 30q104 0 180.5 -28.5t130.5 -78.5t87.5 -117.5t52 -146t24 -165t3.5 -172.5zM394 695q-2 -20 -3 -55t1.5 -75t9.5 -81.5t22.5 -75t40 -54.5t61.5 -21q48 0 84.5 31t64 76.5t48 98t36.5 94.5l46 419q-13 12 -25.5 23 t-27 19t-32.5 13t-40 5q-53 1 -93.5 -19t-71 -52.5t-52 -75.5t-35.5 -89.5t-22 -93.5t-12 -87z" />
<glyph unicode="A" d="M939 435h-619l-142 -435h-56l477 1456h62l477 -1456h-56zM337 489h585l-292 893z" />
<glyph unicode="B" d="M217 0v1456h362q87 -1 168.5 -23.5t144.5 -68t101 -115.5t38 -166q0 -65 -17.5 -116t-50 -90.5t-78 -68t-100.5 -49.5l1 -5q64 -14 120 -45t97.5 -77t65.5 -104.5t24 -126.5q1 -92 -32.5 -165t-92 -125t-136.5 -80.5t-165 -30.5h-450zM270 719v-665h397q75 1 143 25.5 t119 68.5t81 107.5t29 143.5q0 75 -31 134t-81.5 99.5t-115.5 62.5t-135 24h-406zM270 773h329q73 1 141 19.5t120.5 57t84 97t31.5 140.5q0 84 -34 143.5t-90 97t-127.5 55.5t-145.5 19h-309v-629z" />
<glyph unicode="C" d="M1082 446q-11 -96 -46.5 -181t-94.5 -148.5t-140.5 -100.5t-184.5 -36q-84 0 -151 28t-119.5 75t-90 110t-62.5 134t-37 145.5t-13 146.5v218q1 71 13 146.5t37 146t63 133.5t90 110t119 74.5t151 28.5q102 1 184 -35.5t141 -99.5t94.5 -148t46.5 -181h-53 q-14 84 -45.5 159t-82.5 131t-121.5 88.5t-163.5 31.5q-75 -1 -135.5 -26.5t-106.5 -69t-79.5 -101.5t-55 -122.5t-31.5 -132.5t-11 -131v-220q1 -64 11 -132t31.5 -132.5t54.5 -122.5t79.5 -102t106.5 -70t136 -26q94 -1 165 31.5t121.5 88.5t81.5 131.5t45 160.5h53z" />
<glyph unicode="D" d="M200 0v1456h366q85 -2 158.5 -28t133.5 -70.5t106.5 -105t78.5 -130.5t49 -148t18 -157v-178q-1 -79 -18 -157t-49 -148t-78.5 -130.5t-106.5 -105t-133.5 -70.5t-158.5 -28h-366zM252 1402v-1348h314q78 2 144 26t120 65t96 96.5t70.5 120t43.5 135t16 142.5v181 q-2 107 -35 210t-95.5 185t-153 133t-206.5 54h-314z" />
<glyph unicode="E" d="M950 722h-677v-668h772v-54h-825v1456h825v-54h-772v-626h677v-54z" />
<glyph unicode="F" d="M964 716h-682v-716h-52v1456h827v-54h-775v-630h682v-56z" />
<glyph unicode="G" d="M1079 156q-40 -49 -91.5 -82.5t-109.5 -54.5t-120 -30t-123 -9q-85 1 -154.5 28t-124.5 73t-96 108t-68.5 133t-41.5 147t-15 151v238q1 72 14.5 145.5t40 142t66.5 128.5t93.5 105t121 71t149.5 26q93 0 171.5 -31t138 -86.5t97.5 -131t50 -165.5h-53q-17 78 -51 144 t-84.5 114t-117.5 75t-151 27q-74 0 -134.5 -24t-108 -65t-82.5 -96t-58 -117.5t-35 -129t-13 -130.5v-240q1 -67 13 -136.5t36 -134t60 -122t85.5 -100t112 -67.5t139.5 -26q52 -1 107 6t107 24t97.5 45.5t79.5 71.5v424h-394v55h446z" />
<glyph unicode="H" d="M1052 0h-51v722h-772v-722h-51v1456h51v-680h772v680h51v-1456z" />
<glyph unicode="I" d="M212 1456h806v-56h-381v-1346h381v-54h-806v54h367v1346h-367v56z" />
<glyph unicode="J" d="M947 1456h55v-1014q-2 -95 -34 -178.5t-89 -146.5t-137 -100t-178 -37q-97 0 -175.5 30t-135.5 85.5t-89.5 133t-38.5 172.5h55q4 -84 32.5 -152t78 -116t119 -74t154.5 -25q86 1 156 33.5t120 88t78 129.5t30 157z" />
<glyph unicode="K" d="M494 764l-213 -211v-553h-52v1456h52v-839l217 230l557 609h74l-597 -654l643 -802h-67z" />
<glyph unicode="L" d="M297 54h770v-54h-825v1456h55v-1402z" />
<glyph unicode="M" d="M265 1456l349 -915l369 915h84v-1456h-54v708l2 675l-377 -913h-50l-349 903l1 -665v-708h-54v1456h79z" />
<glyph unicode="N" d="M1051 0h-50l-772 1364l2 -1364h-51v1456h50l771 -1361l-2 1361h52v-1456z" />
<glyph unicode="O" d="M1086 619q-1 -71 -13 -146t-36 -146t-61.5 -134t-89.5 -110.5t-119.5 -75t-150.5 -27.5t-150.5 27.5t-120 75t-90.5 110.5t-62.5 134t-37 146t-13.5 146v218q1 71 13 146t36.5 146t62 134t90 110.5t119.5 75t151 27.5t151 -27.5t119.5 -75t90 -110.5t62 -134t36.5 -146 t13 -146v-218zM1033 839q-1 64 -11 132t-31 132.5t-54 122.5t-79.5 101.5t-107 69t-136.5 25.5t-136 -25.5t-106.5 -69t-79 -101.5t-53.5 -123t-31 -133t-11 -131v-220q1 -64 11 -132t31 -133t54 -123t79.5 -102t107 -69.5t136.5 -25.5t136.5 25.5t106.5 69.5t79 102t54 123 t30.5 133t10.5 132v220z" />
<glyph unicode="P" d="M296 615v-615h-54v1456h444q93 -2 173 -32.5t139 -86t92.5 -133t33.5 -173.5t-34 -172t-93 -130t-139 -83.5t-172 -30.5h-390zM296 669h390q79 1 149 26.5t122 72t82.5 112.5t30.5 149q0 84 -29.5 152t-81 116.5t-122 75.5t-151.5 29h-390v-733z" />
<glyph unicode="Q" d="M1121 619q-1 -84 -18.5 -170.5t-53 -165t-88 -143t-124.5 -105.5l247 -263l-38 -35l-261 273q-37 -14 -78 -22t-86 -8q-85 0 -155.5 26.5t-126 73t-96.5 108.5t-68.5 133t-41 147t-14.5 151v218q1 74 14.5 150.5t40.5 147.5t68 133t96.5 108.5t125.5 73t155 26.5 t155 -26.5t125.5 -73t96.5 -108.5t68.5 -133t41.5 -147.5t15 -150.5v-218zM1067 839q-1 67 -13 136.5t-35.5 134t-60 121.5t-86 99.5t-112.5 67t-141 24.5t-140.5 -24.5t-112 -67t-85.5 -99.5t-59.5 -122t-35.5 -134t-13 -136v-220q1 -67 13 -136.5t35.5 -134.5t60 -122.5 t86 -100t112.5 -67t141 -24.5t141 24.5t112.5 67t85.5 100t59.5 122.5t35 134.5t12.5 136.5v220z" />
<glyph unicode="R" d="M707 623h-428v-623h-52v1456h395q90 -2 170 -32.5t139.5 -85.5t94 -131.5t34.5 -170.5q0 -76 -22.5 -137.5t-62.5 -110.5t-95.5 -86t-121.5 -63l357 -625v-14h-55zM279 677h387q74 2 136.5 31t107.5 77.5t70.5 113t25.5 137.5q0 83 -30.5 150t-82.5 114.5t-122.5 73.5 t-149.5 28h-342v-725z" />
<glyph unicode="S" d="M1044 349q1 86 -37 146.5t-97 102.5t-131.5 70.5t-141.5 49.5q-50 15 -102 34t-101 43t-92 54.5t-75 70t-50.5 89t-17.5 111.5q0 88 39.5 155t102.5 111.5t141.5 67t158.5 22.5q91 0 170.5 -29.5t138.5 -82.5t94.5 -129t39.5 -169h-53q-8 79 -39.5 144.5t-82.5 112.5 t-119 73t-149 26q-68 0 -137 -18t-125 -55t-91 -93.5t-36 -133.5q-1 -55 16.5 -99t47.5 -78.5t69.5 -61.5t84.5 -47.5t91.5 -36.5t90.5 -29q78 -23 157.5 -56t144 -81.5t105 -117.5t40.5 -164q0 -94 -39 -163.5t-102.5 -115.5t-144.5 -69t-166 -23q-95 0 -182 26.5 t-154 78.5t-109 128.5t-46 177.5h53q9 -89 46.5 -155.5t96 -111.5t134 -67.5t161.5 -22.5q73 0 144.5 18.5t127.5 56.5t90.5 97.5t34.5 142.5z" />
<glyph unicode="T" d="M1123 1402h-479v-1402h-54l2 1402h-480v54h1011v-54z" />
<glyph unicode="U" d="M1054 1456l1 -987q-2 -97 -31.5 -185.5t-86 -156t-137.5 -107.5t-184 -40q-104 0 -185 40t-137 107.5t-86.5 156t-31.5 185.5l1 987h51l1 -987q1 -85 27.5 -163.5t76 -139t121 -96.5t162.5 -36t162 36.5t120 97t75 139t28 162.5l1 987h52z" />
<glyph unicode="V" d="M588 142l22 -78l22 78l426 1314h57l-474 -1456h-62l-473 1456h56z" />
<glyph unicode="W" d="M329 330l28 -184l30 184l225 1123v3h50l-1 -3l224 -1123l29 -186l30 186l181 1126h49l-233 -1456h-50v3l-235 1211l-20 106l-19 -106l-238 -1211l1 -3h-50l-233 1456h50z" />
<glyph unicode="X" d="M633 785l424 671h65l-455 -713l472 -743h-63l-443 701l-443 -701h-62l472 743l-455 713h65z" />
<glyph unicode="Y" d="M597 602l446 854h63l-482 -903v-553h-52l-1 553l-481 903h67z" />
<glyph unicode="Z" d="M212 54h829v-54h-897l-1 44l801 1359h-766v53h836l1 -38z" />
<glyph unicode="[" d="M774 1610h-241v-1868h241v-54h-296v1976h296v-54z" />
<glyph unicode="\" d="M282 1456h58l608 -1581h-58z" />
<glyph unicode="]" d="M455 1664h295v-1976h-295v54h239v1868h-239v54z" />
<glyph unicode="^" d="M615 1382l-296 -723h-59l329 797h52l329 -797h-61z" />
<glyph unicode="_" d="M1037 -54h-846v54h846v-54z" />
<glyph unicode="`" d="M737 1250h-58l-187 266h65z" />
<glyph unicode="a" d="M989 0q-12 51 -16 101t-5 101q-35 -55 -83.5 -97t-105.5 -69.5t-121 -41.5t-131 -14q-65 0 -127 19.5t-110 56.5t-77 92t-29 126q0 97 47 160.5t121.5 101t166.5 52.5t182 16h267v158q-2 73 -30 127t-74.5 89t-108 52.5t-129.5 17.5q-60 0 -122.5 -16t-113.5 -48.5 t-85 -82t-37 -117.5l-54 2q4 79 42.5 138t97 98.5t130 59.5t142.5 20q80 0 151.5 -21.5t125.5 -64t85.5 -107t33.5 -149.5v-542q1 -55 10 -105t19 -104l1 -9h-63zM527 33q71 -1 137.5 15.5t124 49.5t103.5 82t76 113v256h-264q-51 -1 -105.5 -6t-106.5 -17t-98.5 -32 t-81 -51t-55 -73.5t-19.5 -99.5q0 -57 26 -101.5t67.5 -74.5t93 -45.5t102.5 -15.5z" />
<glyph unicode="b" d="M1053 531q-1 -63 -11 -128.5t-31 -126.5t-54.5 -115t-81 -94t-109 -63.5t-139.5 -23.5q-49 0 -99 12t-96.5 35t-86 56.5t-67.5 76.5v-160h-54v1536h54v-638q27 46 65 84t83 64.5t95.5 41t103.5 14.5q79 0 141.5 -23t109.5 -62.5t80.5 -93.5t55 -115t31 -126.5 t10.5 -129.5v-21zM997 552q-1 55 -9 113.5t-25.5 113.5t-45.5 104t-69.5 85.5t-96 58t-125.5 21.5q-60 0 -115 -19t-100.5 -54t-80 -83.5t-52.5 -106.5v-524q19 -55 56.5 -97.5t84.5 -71.5t101 -43.5t108 -14.5q70 0 125 21.5t95.5 58.5t69 86t46 104t25 113t8.5 114v21z " />
<glyph unicode="c" d="M630 34q69 0 130.5 19t109 56.5t77.5 92.5t38 126h54q-8 -81 -43 -145.5t-89.5 -109.5t-126 -69t-150.5 -24q-114 0 -198.5 46t-140.5 121.5t-83.5 172.5t-28.5 200v42q1 102 28.5 199.5t83 173t139.5 121.5t198 46q85 0 157.5 -27t126.5 -76.5t87 -119t40 -154.5h-54 q-6 73 -35 132.5t-76.5 102t-110 65.5t-135.5 23q-103 0 -177 -41.5t-122.5 -110t-71.5 -156t-24 -178.5v-42q1 -93 24 -180t71.5 -155t123 -109.5t178.5 -41.5z" />
<glyph unicode="d" d="M176 552q0 64 10 129.5t31.5 126.5t55 115t80.5 93.5t109.5 62.5t141.5 23q53 0 103.5 -14.5t95.5 -41.5t83 -65t65 -85v640h54v-1536h-54v162q-28 -44 -67.5 -77.5t-86 -57t-96.5 -35.5t-99 -12q-78 0 -140 23.5t-109 63.5t-80.5 94t-54.5 115t-31.5 126.5t-10.5 128.5 v21zM232 531q0 -55 8 -113.5t25.5 -113.5t46 -104t69 -86t95 -58.5t125.5 -21.5q53 0 106.5 14.5t100.5 42.5t84.5 69.5t58.5 94.5v535q-19 58 -54 105.5t-80.5 81.5t-100 52.5t-113.5 18.5q-71 0 -125.5 -21.5t-96 -58t-69.5 -85.5t-45.5 -104t-26 -113.5t-8.5 -113.5v-21z " />
<glyph unicode="e" d="M658 -20q-111 0 -201.5 44.5t-155 119.5t-100.5 172t-37 202v44q1 101 34 198t94 173t148 122.5t197 46.5q98 0 177 -37t134.5 -100.5t85.5 -147.5t31 -177v-63h-847v-15v-44q1 -93 33 -180.5t89.5 -155t138 -108t179.5 -41.5q101 -1 185.5 35t149.5 114l39 -27 q-69 -90 -165.5 -132.5t-208.5 -42.5zM637 1048q-90 0 -162 -34.5t-124.5 -92.5t-85 -133.5t-42.5 -156.5h788v13q0 80 -27.5 153t-76.5 129t-118 89t-152 33z" />
<glyph unicode="f" horiz-adv-x="1230" d="M1004 1027h-445l4 -1027h-63l3 1027h-293v55h293l1 95q2 118 39 192t96 115.5t134 57t153 15.5q48 0 94 -3.5t92 -13.5l-8 -52q-44 9 -87.5 12t-88.5 3q-43 0 -87 -4.5t-84.5 -17t-76 -35t-62 -59t-42.5 -88t-17 -122.5v-95h445v-55z" />
<glyph unicode="g" d="M178 552q0 64 10 129.5t31.5 126.5t55 115t80.5 93.5t109.5 62.5t141.5 23q52 0 102.5 -14.5t95.5 -41.5t83 -65t65 -84v185h55v-1067q-1 -93 -28 -175t-79 -143.5t-127.5 -97t-174.5 -35.5q-109 0 -198.5 48.5t-155.5 133.5l38 36q61 -74 138 -119.5t176 -45.5 q88 0 154.5 31t111 85t67 126.5t23.5 155.5v145q-28 -43 -67.5 -76.5t-85.5 -56.5t-96 -35t-99 -12q-78 0 -139.5 23.5t-109 63.5t-81 94t-54.5 115t-31.5 126.5t-10.5 128.5v21zM233 531q1 -55 9 -113.5t25.5 -113.5t45.5 -104t69 -86t95.5 -58.5t125.5 -21.5q54 0 108 15 t101.5 44t84 71.5t55.5 97.5v521q-18 59 -52 107.5t-79.5 83.5t-100.5 54.5t-115 19.5q-71 0 -126 -21.5t-96 -58t-69.5 -85t-46 -103.5t-26 -113.5t-8.5 -114.5v-21z" />
<glyph unicode="h" d="M268 821q26 60 66 111.5t91.5 89t113.5 59t133 21.5q93 0 161 -30t112 -83.5t65.5 -127.5t22.5 -161v-700h-55v700q-1 76 -18.5 140.5t-55 111t-95.5 72.5t-140 25q-73 -1 -139 -29t-119.5 -75t-90.5 -110t-52 -133v-702h-55v1536h55v-715z" />
<glyph unicode="i" d="M239 1082h451v-1028h384v-54h-835v54h397v974h-397v54zM590 1390q0 14 3 27.5t11 24t21.5 16.5t34.5 6q20 0 33.5 -6t22 -16.5t12 -24t3.5 -27.5q0 -27 -15.5 -49t-55.5 -22q-41 0 -55.5 22t-14.5 49z" />
<glyph unicode="j" d="M303 1082h474v-1076q0 -99 -26.5 -181t-77.5 -140t-124 -90t-166 -32q-29 0 -54 1t-49 3t-48.5 5t-52.5 8l4 48q19 -3 46.5 -5.5t55 -4t53 -2t41.5 -0.5q68 0 130.5 20.5t110 67t75.5 120.5t28 182v1022h-420v54zM670 1391q0 14 3 27.5t11.5 24t22 16.5t34.5 6 q20 0 33.5 -6t22 -16.5t12 -24t3.5 -27.5q0 -27 -15.5 -49t-55.5 -22q-42 0 -56.5 22t-14.5 49z" />
<glyph unicode="k" d="M483 586l-4 -3l-167 -136v-447h-55v1536h55v-1031l137 122l524 455h80l-528 -460l561 -622h-72z" />
<glyph unicode="l" d="M239 1536h455v-1482h380v-54h-835v54h401v1428h-401v54z" />
<glyph unicode="m" d="M135 1082l2 -142q31 70 92.5 115t163.5 47q54 0 93.5 -13.5t67.5 -36.5t45 -53.5t26 -63.5q16 33 41 63t59.5 53t77.5 37t95 14q53 0 92.5 -13.5t66.5 -36.5t44 -53.5t27 -64t13.5 -68.5t3.5 -66l-2 -800h-49l-2 800q0 35 -5.5 79t-25.5 82.5t-59 64t-106 23.5 q-66 -2 -110.5 -22t-73.5 -51t-45.5 -68t-27.5 -72q0 -5 0.5 -8.5t0.5 -7.5l-2 -820h-49l-2 820q-1 35 -7 75.5t-26.5 75t-59 57t-103.5 21.5q-70 -2 -114.5 -26t-72.5 -61.5t-42.5 -83.5t-24.5 -90l-2 -788h-49v1082h49z" />
<glyph unicode="n" d="M267 822q26 60 65.5 111.5t91 88.5t113.5 58.5t133 21.5q93 0 160.5 -30t111.5 -83.5t65 -127.5t22 -161l1 -700h-55v700q-1 76 -18.5 140.5t-54.5 111t-95 72.5t-140 25q-73 -1 -139 -29t-119 -75t-90 -110t-52 -133v-702h-55v1082h55v-260v0z" />
<glyph unicode="o" d="M141 562q1 104 33 201.5t92 172.5t147.5 120.5t200.5 45.5t200.5 -45t148 -120t92.5 -172.5t33 -202.5v-42q-1 -104 -32.5 -201.5t-91.5 -172.5t-147.5 -120.5t-200.5 -45.5t-201 45t-148.5 120t-92.5 172.5t-33 202.5v42zM195 520q1 -92 29.5 -179.5t82 -155.5 t131.5 -109.5t178 -41.5t177 41.5t130.5 110t81.5 155.5t29 179v42q-1 91 -29.5 178.5t-82 155.5t-131.5 110t-177 42t-176.5 -42t-131 -110t-82 -155.5t-29.5 -178.5v-42z" />
<glyph unicode="p" d="M1049 531q0 -63 -10.5 -128.5t-31.5 -126.5t-54.5 -115t-80.5 -94t-109 -63.5t-140 -23.5q-49 0 -99 12t-96 34.5t-86 55.5t-68 76v-574h-54v1498h54v-180q27 46 65.5 83t83.5 63t95.5 40t102.5 14q79 0 141.5 -23t109.5 -62.5t80.5 -93.5t55 -115t31 -126.5t10.5 -129.5 v-21zM994 552q0 56 -8.5 114.5t-26 113.5t-46 103.5t-69.5 85t-96 58t-126 21.5q-59 0 -113.5 -18.5t-100.5 -52.5t-80.5 -81.5t-53.5 -105.5v-534q20 -54 57.5 -95.5t84.5 -69.5t101 -42.5t107 -14.5q70 0 125 21.5t96 58.5t69 86t45.5 104t25.5 113t9 114v21z" />
<glyph unicode="q" d="M177 552q0 64 10 129.5t31.5 126.5t55 115t80.5 93.5t109.5 62.5t141.5 23q52 0 102.5 -14t95.5 -40t83 -63t66 -83v180h54v-1498h-54v573q-29 -42 -69 -75t-86 -55.5t-96 -34.5t-98 -12q-78 0 -139.5 23.5t-109 63.5t-81 94t-54.5 115t-31.5 126.5t-10.5 128.5v21z M233 531q0 -55 8 -113.5t25.5 -113.5t46 -104t69 -86t95 -58.5t125.5 -21.5q53 0 106.5 14.5t100.5 42.5t84.5 69.5t58.5 94.5v536q-20 57 -55 104t-81 81t-100.5 53t-111.5 19q-71 0 -125.5 -21.5t-96 -58t-69.5 -85.5t-45.5 -104t-26 -113.5t-8.5 -113.5v-21z" />
<glyph unicode="r" d="M935 1102q36 0 72 -4.5t69 -11.5l-6 -51q-29 5 -64.5 9.5t-70.5 4.5q-83 0 -161.5 -18.5t-143 -61t-112 -111t-69.5 -167.5l3 -691h-62v1082h53l6 -188v-69q60 133 185 205.5t301 71.5z" />
<glyph unicode="s" d="M1003 265q0 44 -17 79.5t-46 62.5t-66.5 47.5t-78.5 35t-81 25t-74 17.5q-41 9 -87 19.5t-90 26t-84.5 36.5t-70.5 51t-48 70.5t-17 93.5q0 50 18 89.5t47.5 70t69 52t83 35t88.5 20t86 6.5q76 0 149 -17t131.5 -54t96.5 -95.5t44 -142.5h-56q-2 69 -37 117.5t-88.5 79 t-117 44.5t-122.5 14q-50 0 -108.5 -10.5t-109.5 -35.5t-85 -66.5t-35 -104.5q-1 -46 16 -80t45.5 -59.5t66 -43.5t77.5 -31t80.5 -22t74.5 -16q64 -14 134.5 -35t130 -56t97.5 -89t38 -135q0 -53 -19 -94.5t-50 -73t-72.5 -54t-87 -36t-93 -20t-91.5 -6.5q-48 0 -98 6.5 t-97.5 21t-90 37.5t-75.5 55.5t-54 76t-25 98.5h55q8 -71 46.5 -117.5t93 -74t119.5 -38.5t126 -11q34 0 74 5t79.5 16.5t76.5 29t65.5 43.5t45.5 59.5t18 77.5z" />
<glyph unicode="t" d="M573 1374l-1 -292h390v-55h-390v-768q2 -63 22.5 -105.5t56.5 -69t84.5 -38.5t106.5 -12q81 0 159 9l11 -51q-41 -8 -82 -10t-83 -2q-72 0 -132 14.5t-104 47.5t-69 86t-27 131v768h-318v55h318v292h58z" />
<glyph unicode="u" d="M964 0l1 193q-52 -100 -148.5 -156.5t-235.5 -56.5q-94 0 -162.5 32t-113 87.5t-66.5 131.5t-23 164v687h54v-689q1 -75 19 -140t55.5 -114t95.5 -77t139 -28q78 0 143 20.5t114.5 59t82 94t46.5 125.5l-1 749h56v-1082h-56z" />
<glyph unicode="v" d="M612 79l435 1003h61l-469 -1082h-55l-468 1082h61z" />
<glyph unicode="w" d="M310 313l42 -213l53 213l193 769h50l193 -769l52 -213l43 213l176 769h57l-249 -1082h-49l-213 813l-35 172l-38 -172l-210 -813h-49l-249 1082h57z" />
<glyph unicode="x" d="M628 602l383 480h72l-421 -527l443 -555h-70l-408 508l-406 -508h-71l443 555l-421 527h72z" />
<glyph unicode="y" d="M623 74l13 30l440 978h65l-569 -1262q-25 -56 -55.5 -102.5t-70 -81t-90.5 -54t-117 -19.5q-44 0 -90 11l-2 51q20 -3 41 -6t42 -3q54 0 98 15.5t79 44t62 68t48 86.5l75 172l-508 1080h63z" />
<glyph unicode="z" d="M217 54h894v-54h-974l1 44l825 983h-790v55h870l-1 -48z" />
<glyph unicode="{" d="M970 -441q-169 55 -259.5 168t-92.5 293v245q-2 134 -75 203.5t-204 74.5l-1 23v20l1 23q130 5 203.5 74t75.5 202v247q2 180 92.5 294.5t258.5 170.5l16 -45q-149 -50 -230 -156t-83 -264v-247q-2 -131 -69 -208.5t-180 -100.5q113 -24 180 -102.5t69 -208.5v-245 q1 -80 23.5 -145t63.5 -116.5t99.5 -90t131.5 -63.5z" />
<glyph unicode="|" d="M642 -270h-54v1726h54v-1726z" />
<glyph unicode="}" d="M338 -395q73 25 131 63.5t99 90.5t63.5 117t23.5 144v245q2 131 68.5 209t180.5 102q-113 23 -180 100.5t-69 208.5v247q-2 158 -82.5 264t-229.5 156l15 45q169 -56 259 -170.5t92 -294.5v-247q2 -133 75.5 -202t203.5 -74v-23h1l-1 -10l1 -10h-1v-23q-131 -5 -204 -75 t-75 -203v-245q-2 -180 -92.5 -293t-259.5 -168z" />
<glyph unicode="~" d="M1157 752q-2 -60 -19.5 -116t-50.5 -98.5t-83 -68.5t-116 -26q-46 0 -86 12.5t-76 33.5t-69.5 48t-66.5 56q-27 24 -55.5 47t-59 41t-64 28.5t-72.5 10.5q-57 0 -96.5 -21.5t-65 -57t-37.5 -82t-14 -97.5h-55q2 61 18.5 117.5t49.5 99.5t82.5 69t117.5 26 q46 0 86.5 -12.5t77 -33.5t70.5 -48t66 -56q27 -24 55 -47t58.5 -41t64 -29t71.5 -11q56 0 95.5 21.5t65 57t38 82t14.5 96.5z" />
<glyph unicode="&#xa0;" />
<glyph unicode="&#xa1;" d="M594 696h55v-1055h-55v1055zM670 1048q0 -22 -17 -39t-40 -17q-22 0 -39.5 16.5t-17.5 39.5t17.5 39t39.5 16t39.5 -16t17.5 -39z" />
<glyph unicode="&#xa2;" d="M635 34q69 0 130.5 19t109 56.5t77.5 92.5t38 126h54q-7 -76 -38.5 -137.5t-80.5 -106t-113 -70.5t-137 -32v-227h-56v226q-110 3 -191.5 50t-135.5 122t-80.5 170.5t-27.5 196.5v42q1 101 27.5 196.5t80.5 170.5t135.5 122t191.5 50v217h56v-218q77 -7 142 -36.5 t113 -78.5t78 -115t36 -145h-54q-6 73 -35 132.5t-76.5 102t-110 65.5t-135.5 23q-103 0 -177 -41.5t-122.5 -110t-71.5 -156t-24 -178.5v-42q1 -93 24 -180t71.5 -155t123 -109.5t178.5 -41.5z" />
<glyph unicode="&#xa3;" d="M419 667l10 -331q1 -37 -1 -74.5t-9.5 -74t-21.5 -70.5t-37 -63h758l1 -54h-960v54h120q35 16 55 50t29 74.5t11 82.5t1 75l-10 331h-210v54h208l-9 318q0 84 22.5 163t68 139.5t114.5 97.5t161 37q87 0 155 -29.5t116 -81t74 -122.5t28 -154h-54q-3 72 -24.5 133.5 t-62 106t-98.5 69t-134 24.5q-81 0 -140 -32.5t-97.5 -86t-56.5 -122.5t-18 -142l9 -318h370v-54h-368z" />
<glyph unicode="&#xa4;" d="M982 152q-63 -78 -150 -125t-198 -47q-110 0 -197 47t-151 124l-149 -177l-38 39l154 182q-31 45 -54.5 95.5t-39 103.5t-23.5 107t-8 107q0 54 8.5 110t25.5 111t41.5 106.5t57.5 96.5l-162 193l38 39l159 -189q63 72 147.5 115.5t190.5 43.5t190.5 -44t147.5 -116 l162 191l39 -40l-165 -196q65 -91 98 -201.5t33 -219.5q0 -105 -31 -212t-92 -198l157 -185l-39 -40zM183 608q0 -64 13 -131.5t39 -131t64.5 -120.5t88.5 -99.5t111.5 -67.5t134.5 -25t134.5 25t111.5 67.5t88.5 99.5t64.5 120.5t39 131t13 131.5q0 63 -13 130.5t-39 131 t-64.5 120t-88.5 99t-111.5 67.5t-134.5 25t-134.5 -24.5t-111.5 -67t-88.5 -99t-64 -120.5t-39 -131t-13.5 -131z" />
<glyph unicode="&#xa5;" d="M1091 1456h66l-488 -780h423v-55h-451v-240h451v-55h-451v-326h-54v326h-448v55h448v240h-448v55h419l-485 780h65l451 -718l23 -51h5l24 51z" />
<glyph unicode="&#xa6;" d="M576 -270v752h54v-752h-54zM630 698h-54v758h54v-758z" />
<glyph unicode="&#xa7;" d="M1102 431q-1 -67 -28 -114.5t-70 -79t-98 -49.5t-111 -25q52 -20 100 -47t84 -64t57.5 -86.5t21.5 -114.5q0 -92 -40 -157.5t-104.5 -107.5t-144.5 -61.5t-161 -19.5q-101 0 -188.5 28t-152 82.5t-102.5 135t-41 185.5l54 2q3 -93 37.5 -164t92 -119t134.5 -72t166 -24 q68 0 138 16t127 50.5t93 89.5t37 134t-36 132.5t-94 89t-125.5 57t-132.5 38.5q-51 13 -106.5 28.5t-109.5 37t-103 49.5t-86 66.5t-59 88.5t-21 115q0 65 24 113t63 81t89.5 52.5t105.5 28.5q-49 20 -92 47t-75.5 63.5t-51 83.5t-18.5 109q0 91 40.5 157t105.5 108t145 62 t160 20q101 0 183.5 -29.5t141.5 -85t92.5 -135.5t36.5 -181h-54q-3 85 -33.5 154.5t-84 119t-125.5 76.5t-157 27q-46 0 -93 -6.5t-91 -21t-82.5 -37t-67.5 -55t-46 -75t-17 -95.5q0 -54 16.5 -96t46 -74.5t69 -56.5t83.5 -42.5t90 -32.5t90 -26q50 -14 105 -29t108 -35 t101.5 -46.5t85 -63.5t57.5 -86t21 -113zM598 766q-26 7 -51.5 14.5t-51.5 15.5q-56 -4 -111 -18t-99.5 -42t-72 -73t-28.5 -110q-1 -58 19.5 -102.5t55.5 -77.5t81 -57.5t96 -42.5t100.5 -32t95.5 -26l65 -19q54 2 115 13t113 37.5t87 70.5t36 111q1 57 -20 100.5 t-56.5 77.5t-82 58.5t-97 43.5t-101 32.5t-93.5 25.5z" />
<glyph unicode="&#xa8;" d="M334 1421q0 22 16.5 39t38.5 17t39 -17t17 -39t-17 -38.5t-39 -16.5t-38.5 16.5t-16.5 38.5zM779 1421q0 22 16.5 39t38.5 17t39 -17t17 -39t-17 -38.5t-39 -16.5t-38.5 16.5t-16.5 38.5z" />
<glyph unicode="&#xa9;" d="M845 456q1 -38 -10 -79.5t-38 -76t-71.5 -56.5t-108.5 -22q-48 0 -85 15.5t-64 40t-45.5 56.5t-29.5 66t-16.5 67.5t-5.5 61.5v48q0 28 5.5 60.5t16.5 65.5t29.5 64t46 55t64 38.5t84.5 14.5q64 0 108.5 -20.5t71.5 -53t38.5 -72.5t10.5 -78h-48q-4 27 -12 57t-27 55.5 t-53 42t-89 16.5q-59 0 -96 -26.5t-58.5 -64.5t-29.5 -80t-8 -73v-49q1 -32 8.5 -75t28.5 -82t58.5 -66.5t96.5 -28.5q55 -1 89 17t53 45t27 58.5t11 58.5h48zM139 551q0 -56 12.5 -116t38 -117.5t64.5 -109t93 -90.5t122.5 -61.5t153.5 -22.5q84 0 153 23t122.5 61.5 t92.5 90t64.5 109t38 117.5t12.5 116q0 54 -12.5 112t-38 113.5t-64.5 105.5t-93 87.5t-122.5 59.5t-152.5 22t-153 -22t-122.5 -59.5t-93 -87.5t-65 -105.5t-38 -113.5t-12.5 -112zM84 551q0 62 14 127t43 127t73 116.5t104 95.5t136 65t169 24t169 -24t135.5 -65 t103.5 -95.5t73 -116.5t43 -127t14 -127q0 -64 -14 -131.5t-43 -131t-72.5 -120t-103.5 -98.5t-136 -66.5t-169 -24.5t-169 24.5t-136 67t-104 98.5t-73 119.5t-43 131t-14 131.5z" />
<glyph unicode="&#xaa;" d="M852 705q-9 30 -14.5 60.5t-7.5 62.5q-42 -63 -109 -99.5t-143 -37.5q-48 0 -94.5 12t-82.5 38t-58 65.5t-22 93.5q0 67 31 111t79 71t106.5 38t113.5 12h178v69q-2 48 -15.5 88.5t-39.5 70t-64 46t-89 16.5q-46 0 -89 -9t-77 -30t-56 -55.5t-25 -84.5h-55q4 60 31 103.5 t69 72.5t94 43t108 14q62 0 110 -21t81.5 -57.5t51.5 -87t20 -110.5v-314q0 -47 7 -91.5t20 -89.5h-59zM579 746q34 0 74 11.5t76 32t63 50t37 66.5v172h-177q-44 -1 -92.5 -7.5t-89.5 -25t-68 -52.5t-27 -89q0 -43 17.5 -73.5t46 -49t65.5 -27t75 -8.5z" />
<glyph unicode="&#xab;" d="M346 525l294 -379h-70l-295 370v19l295 370h70zM681 525l294 -379h-70l-295 370v19l295 370h70z" />
<glyph unicode="&#xac;" d="M1000 396h-54v304h-739v53h793v-357z" />
<glyph unicode="&#xad;" horiz-adv-x="1230" d="M958 639h-718v54h718v-54z" />
<glyph unicode="&#xae;" d="M81 539q0 64 14 130.5t43 128.5t73 116t104 94.5t136 64t169 23.5t169 -23.5t135.5 -64t103.5 -94.5t73 -116t43 -128.5t14 -130.5t-14 -130.5t-43 -129t-72.5 -117t-103.5 -95.5t-136 -64.5t-169 -23.5t-169 23.5t-136 64.5t-104 95.5t-73 117t-43 129t-14 130.5z M135 539q0 -56 12.5 -115t38 -115.5t65 -106t93 -87t122.5 -59.5t154 -22q127 0 218 47.5t150 121.5t87 163t28 173q0 56 -12.5 115t-38 114.5t-64.5 105.5t-93 87t-122.5 58.5t-152.5 21.5q-85 0 -153.5 -21.5t-122.5 -58.5t-93.5 -87t-65 -105.5t-38 -114.5t-12.5 -115z M481 498v-262h-53v610h202q100 -2 154.5 -49.5t53.5 -128.5q-1 -60 -37 -99.5t-102 -54.5l159 -278h-58l-149 262h-170zM481 550h159q38 1 65.5 10.5t44.5 26t25.5 37.5t8.5 45q1 56 -38 87.5t-116 34.5h-149v-241z" />
<glyph unicode="&#xaf;" d="M928 1403h-627v53h627v-53z" />
<glyph unicode="&#xb0;" d="M380 1236q0 48 18.5 91.5t51 76.5t75.5 52.5t91 19.5t90 -20t73.5 -53t50 -76.5t18.5 -90.5q0 -48 -18 -91t-49.5 -75.5t-74 -51.5t-90.5 -19t-91 19t-75.5 51t-51 75.5t-18.5 91.5zM435 1236q0 -38 14 -71t38.5 -57.5t57.5 -38.5t71 -14t70 14t55.5 39t37 57.5 t13.5 70.5q0 37 -13 71t-36.5 59t-55.5 40t-71 15t-72 -14.5t-57 -40t-38 -59t-14 -71.5z" />
<glyph unicode="&#xb1;" d="M653 805h419v-54h-419v-462h-54v462h-443v54h443v462h54v-462zM1047 -1h-835v54h835v-54z" />
<glyph unicode="&#xb2;" d="M911 667h-543v44l290 295q24 24 50.5 51.5t49.5 58t38 64t15 70.5q0 42 -15.5 73.5t-42.5 52.5t-62.5 31.5t-74.5 10.5q-45 0 -83.5 -12.5t-67 -36.5t-45.5 -59t-20 -81h-54q3 55 25 99.5t58.5 75t84.5 47t102 16.5q49 0 94 -14t79.5 -41t55 -67.5t20.5 -93.5 q0 -43 -18 -82.5t-44.5 -75.5t-57.5 -68.5t-59 -60.5l-251 -248h476v-49z" />
<glyph unicode="&#xb3;" d="M541 1092h71q37 1 76 9t71.5 27t54 49t21.5 74q0 42 -17 73.5t-45.5 52t-65 30.5t-74.5 10q-41 0 -77.5 -10.5t-65 -31.5t-47 -53t-22.5 -74h-53q4 53 27 93.5t59 68.5t82 42t97 14q49 0 95.5 -13.5t82.5 -41t57 -68.5t21 -95q0 -36 -13.5 -65t-36 -51t-51.5 -37.5 t-61 -25.5q36 -8 69 -23t57.5 -38.5t39.5 -55.5t15 -75q0 -56 -23.5 -97.5t-61.5 -69.5t-86.5 -41.5t-98.5 -13.5q-54 0 -104 14t-89 42.5t-64.5 71.5t-29.5 100h54q4 -46 24.5 -79.5t53 -56t72.5 -33.5t83 -11q40 0 79 10t69.5 31t49 54t18.5 78q0 50 -22.5 82t-58 50.5 t-78 26t-83.5 8.5h-71v49z" />
<glyph unicode="&#xb4;" d="M674 1516h66l-191 -266h-59z" />
<glyph unicode="&#xb5;" d="M276 1082v-642q2 -75 17 -148t50.5 -130.5t93.5 -92.5t145 -35q97 0 165 31.5t111.5 85.5t65.5 127t28 156v648h54v-1082h-51l-3 220q-22 -53 -54.5 -96.5t-77 -75.5t-101.5 -50t-128 -18q-53 0 -100 13.5t-87 38.5t-72.5 59.5t-55.5 76.5v-584h-52v1498h52z" />
<glyph unicode="&#xb6;" d="M871 0v520h-125q-104 1 -194 34t-156 93.5t-103.5 146.5t-37.5 194t38 194t104 146.5t155.5 93.5t193.5 34h179v-1456h-54z" />
<glyph unicode="&#xb7;" d="M565 706q0 22 16.5 39t38.5 17t39 -17t17 -39t-17 -38.5t-39 -16.5t-38.5 16.5t-16.5 38.5z" />
<glyph unicode="&#xb8;" d="M618 0l-11 -76q36 -5 68.5 -17t56.5 -32.5t38 -50t14 -69.5q0 -56 -28 -92t-70.5 -57t-92.5 -30.5t-94 -10.5l-7 49q33 1 73.5 7.5t76.5 22t61 42.5t26 69q1 39 -17.5 61.5t-47 35.5t-62 18t-62.5 9l25 121h53z" />
<glyph unicode="&#xb9;" d="M728 665h-54v722l-248 -81v53l293 97h9v-791z" />
<glyph unicode="&#xba;" d="M310 1141q1 67 22 128t59.5 107t94.5 73t128 27t128 -27t95 -73t60 -107t22 -128v-117q-1 -67 -21.5 -127.5t-59.5 -106.5t-94.5 -73t-127.5 -27t-128.5 26.5t-95.5 72.5t-60 106.5t-22 128.5v117zM364 1024q1 -58 17.5 -109t48 -89t78 -60t108.5 -22q61 0 107 22.5 t77.5 61t48 89t17.5 107.5v117q-1 57 -17.5 108t-48.5 89.5t-78.5 61t-107.5 22.5t-107 -23t-77.5 -61.5t-48 -89.5t-17.5 -107v-117z" />
<glyph unicode="&#xbb;" d="M319 940l294 -380v-19l-294 -370h-70l293 379l-293 390h70zM664 940l294 -380v-19l-294 -370h-70l293 379l-293 390h70z" />
<glyph unicode="&#xbc;" d="M361.217 676h-48.6016v649.817l-223.206 -72.9014v47.7012l263.707 87.3018h8.10059v-711.919zM331 139l-50 31l534 1138l51 -31zM979.119 227.706h132.304v-44.1006h-132.304v-183.605h-47.7012v183.605h-380.711l-0.899414 28.8008l375.31 497.713h54.002v-482.413z M612.809 227.706h318.609v426.611l-39.6016 -63.9014z" />
<glyph unicode="&#xbd;" d="M306 139l-50 31l534 1138l51 -31zM368.217 672h-48.6016v649.817l-223.206 -72.9014v47.7012l263.707 87.3018h8.10059v-711.919zM1119.32 0h-488.714v39.6016l261.007 265.507q21.6016 21.6006 45.4521 46.3516q23.8506 24.75 44.5508 52.2012 q20.7002 27.4502 34.2012 57.6016q13.5 30.1504 13.5 63.4512q0 37.8018 -13.9502 66.1523t-38.251 47.251t-56.252 28.3506q-31.9502 9.4502 -67.0518 9.4502q-40.501 0 -75.1514 -11.25q-34.6514 -11.25 -60.3018 -32.8506q-25.6514 -21.6006 -40.9512 -53.1016 q-15.3008 -31.501 -18.001 -72.9023h-48.6006q2.69922 49.502 22.5 89.5527t52.6514 67.502q32.8506 27.4502 76.0518 42.3008t91.8027 14.8506q44.1016 0 84.6025 -12.6006t71.5518 -36.9004q31.0508 -24.3008 49.502 -60.752q18.4502 -36.4512 18.4502 -84.1523 q0 -38.7012 -16.2002 -74.252q-16.2012 -35.5508 -40.0518 -67.9521q-23.8506 -32.4004 -51.751 -61.6514t-53.1016 -54.4512l-225.906 -223.206h428.412v-44.1016z" />
<glyph unicode="&#xbe;" d="M408 131l-50 31l534 1138l51 -31zM1001.12 228.706h132.304v-44.1006h-132.304v-183.605h-47.7012v183.605h-380.711l-0.899414 28.8008l375.31 497.713h54.002v-482.413zM634.809 228.706h318.609v426.611l-39.6016 -63.9014zM256.413 1053.41h63.9014 q33.3008 0.900391 68.4023 8.10059q35.1006 7.2002 64.3516 24.3008t48.6016 44.1006q19.3496 27.001 19.3496 66.6025q0 37.8008 -15.2998 66.1514q-15.3008 28.3506 -40.9512 46.8018q-25.6504 18.4502 -58.502 27.4502q-32.8506 9 -67.0518 9q-36.9004 0 -69.752 -9.4502 q-32.8506 -9.4502 -58.501 -28.3506q-25.6514 -18.9004 -42.3018 -47.7012t-20.25 -66.6016h-47.7012q3.59961 47.7012 24.3008 84.1523q20.7002 36.4512 53.1006 61.6514q32.4014 25.2002 73.8027 37.8008q41.4004 12.6006 87.3018 12.6006q44.1016 0 85.9521 -12.1504 q41.8516 -12.1504 74.2529 -36.9014q32.4004 -24.75 51.3008 -61.6514q18.9004 -36.9004 18.9004 -85.502q0 -32.4014 -12.1504 -58.502t-32.4004 -45.9014q-20.251 -19.7998 -46.3516 -33.751q-26.1006 -13.9502 -54.9014 -22.9502q32.4014 -7.2002 62.1016 -20.7002 q29.7012 -13.501 51.752 -34.6514q22.0498 -21.1504 35.5508 -49.9512q13.5 -28.8008 13.5 -67.502q0 -50.4014 -21.1504 -87.7529q-21.1504 -37.3506 -55.3516 -62.5508q-34.2012 -25.2012 -77.8525 -37.3516q-43.6504 -12.1504 -88.6523 -12.1504 q-48.6006 0 -93.6025 12.6006q-45.001 12.6006 -80.1016 38.251q-35.1016 25.6504 -58.0518 64.3516q-22.9512 38.7012 -26.5508 90.0029h48.6016q3.59961 -41.4014 22.0508 -71.5527q18.4502 -30.1504 47.7012 -50.4014q29.25 -20.25 65.252 -30.1504 q36 -9.90039 74.7012 -9.90039q36.001 0 71.1025 9q35.1006 9.00098 62.5518 27.9014q27.4502 18.9004 44.1006 48.6006q16.6504 29.7012 16.6504 70.2021q0 45.001 -20.25 73.8018q-20.251 28.8008 -52.2012 45.4521q-31.9512 16.6504 -70.2021 23.4004t-75.1523 7.65039 h-63.9014v44.1006z" />
<glyph unicode="&#xbf;" d="M667 695q-1 -49 -7 -88t-20.5 -73t-38 -65.5t-59.5 -65.5q-47 -45 -88.5 -90.5t-72.5 -95.5t-48.5 -107.5t-17.5 -126.5q0 -68 21 -125.5t59.5 -98.5t93.5 -64t125 -23q69 0 123.5 23t92.5 64t59.5 97.5t25.5 122.5h54q-3 -78 -28.5 -144t-71 -114t-110 -75t-145.5 -27 q-80 0 -145.5 28t-111.5 77t-71 116t-25 145q0 72 20 136t54.5 120.5t80.5 107t98 96.5q31 28 50.5 55t30.5 57t14.5 63.5t3.5 74.5h54zM580 1046q0 22 17 38.5t39 16.5t38.5 -16.5t16.5 -38.5t-16.5 -39t-38.5 -17t-39 17t-17 39z" />
<glyph unicode="&#xc0;" d="M939 435h-619l-142 -435h-56l477 1456h62l477 -1456h-56zM337 489h585l-292 893zM672 1569h-58l-187 266h65z" />
<glyph unicode="&#xc1;" d="M939 435h-619l-142 -435h-56l477 1456h62l477 -1456h-56zM337 489h585l-292 893zM778 1835h66l-191 -266h-59z" />
<glyph unicode="&#xc2;" d="M939 435h-619l-142 -435h-56l477 1456h62l477 -1456h-56zM337 489h585l-292 893zM887 1593v-10h-68l-187 196l-185 -196h-64v14l230 239h40z" />
<glyph unicode="&#xc3;" d="M939 435h-619l-142 -435h-56l477 1456h62l477 -1456h-56zM337 489h585l-292 893zM937 1806q-2 -37 -14 -70.5t-34 -59t-52.5 -41t-70.5 -15.5q-29 0 -53 9.5t-46 23.5t-42.5 30t-42 30t-45 23t-50.5 9q-29 0 -50 -10t-35 -27t-22 -39.5t-11 -48.5h-54q2 37 14.5 69.5 t34 57t52.5 38.5t71 14q42 0 76 -19.5t65.5 -43t64 -42.5t73.5 -19q29 0 50 11t35 29t21.5 41.5t10.5 49.5h54z" />
<glyph unicode="&#xc4;" d="M939 435h-619l-142 -435h-56l477 1456h62l477 -1456h-56zM337 489h585l-292 893zM343 1740q0 22 16.5 39t38.5 17t39 -17t17 -39t-17 -38.5t-39 -16.5t-38.5 16.5t-16.5 38.5zM788 1740q0 22 16.5 39t38.5 17t39 -17t17 -39t-17 -38.5t-39 -16.5t-38.5 16.5t-16.5 38.5z " />
<glyph unicode="&#xc5;" d="M939 435h-619l-142 -435h-56l477 1456h62l477 -1456h-56zM337 489h585l-292 893zM465 1701q0 34 12 65.5t34 55.5t52 38.5t65 14.5t65 -14.5t52 -38.5t34.5 -55.5t12.5 -65.5t-12.5 -65t-34.5 -54t-52 -37t-65 -14t-65 14t-51.5 37t-34 54t-12.5 65zM519 1701 q0 -23 8 -44t22.5 -37t34.5 -25.5t44 -9.5t44.5 9.5t35 25.5t22.5 37t8 44q0 24 -8 45.5t-22.5 38t-34.5 26.5t-45 10q-24 0 -44.5 -10t-34.5 -26.5t-22 -38t-8 -45.5z" />
<glyph unicode="&#xc6;" d="M1148 0h-476l-11 425h-372l-158 -425h-53l544 1456h488v-54h-427l16 -616h361v-54h-359l17 -678h430v-54zM309 478h351l-23 880z" />
<glyph unicode="&#xc7;" d="M1082 446q-11 -96 -46.5 -181t-94.5 -148.5t-140.5 -100.5t-184.5 -36q-84 0 -151 28t-119.5 75t-90 110t-62.5 134t-37 145.5t-13 146.5v218q1 71 13 146.5t37 146t63 133.5t90 110t119 74.5t151 28.5q102 1 184 -35.5t141 -99.5t94.5 -148t46.5 -181h-53 q-14 84 -45.5 159t-82.5 131t-121.5 88.5t-163.5 31.5q-75 -1 -135.5 -26.5t-106.5 -69t-79.5 -101.5t-55 -122.5t-31.5 -132.5t-11 -131v-220q1 -64 11 -132t31.5 -132.5t54.5 -122.5t79.5 -102t106.5 -70t136 -26q94 -1 165 31.5t121.5 88.5t81.5 131.5t45 160.5h53z M637 -9l-11 -76q36 -5 68.5 -17t56.5 -32.5t38 -50t14 -69.5q0 -56 -28 -92t-70.5 -57t-92.5 -30.5t-94 -10.5l-7 49q33 1 73.5 7.5t76.5 22t61 42.5t26 69q1 39 -17.5 61.5t-47 35.5t-62 18t-62.5 9l25 121h53z" />
<glyph unicode="&#xc8;" d="M950 722h-677v-668h772v-54h-825v1456h825v-54h-772v-626h677v-54zM569 1569h-58l-187 266h65z" />
<glyph unicode="&#xc9;" d="M950 722h-677v-668h772v-54h-825v1456h825v-54h-772v-626h677v-54zM675 1835h66l-191 -266h-59z" />
<glyph unicode="&#xca;" d="M950 722h-677v-668h772v-54h-825v1456h825v-54h-772v-626h677v-54zM784 1593v-10h-68l-187 196l-185 -196h-64v14l230 239h40z" />
<glyph unicode="&#xcb;" d="M950 722h-677v-668h772v-54h-825v1456h825v-54h-772v-626h677v-54zM241 1740q0 22 16.5 39t38.5 17t39 -17t17 -39t-17 -38.5t-39 -16.5t-38.5 16.5t-16.5 38.5zM686 1740q0 22 16.5 39t38.5 17t39 -17t17 -39t-17 -38.5t-39 -16.5t-38.5 16.5t-16.5 38.5z" />
<glyph unicode="&#xcc;" d="M212 1456h806v-56h-381v-1346h381v-54h-806v54h367v1346h-367v56zM675 1569h-58l-187 266h65z" />
<glyph unicode="&#xcd;" d="M212 1456h806v-56h-381v-1346h381v-54h-806v54h367v1346h-367v56zM781 1835h66l-191 -266h-59z" />
<glyph unicode="&#xce;" d="M212 1456h806v-56h-381v-1346h381v-54h-806v54h367v1346h-367v56zM890 1593v-10h-68l-187 196l-185 -196h-64v14l230 239h40z" />
<glyph unicode="&#xcf;" d="M212 1456h806v-56h-381v-1346h381v-54h-806v54h367v1346h-367v56zM346 1740q0 22 16.5 39t38.5 17t39 -17t17 -39t-17 -38.5t-39 -16.5t-38.5 16.5t-16.5 38.5zM791 1740q0 22 16.5 39t38.5 17t39 -17t17 -39t-17 -38.5t-39 -16.5t-38.5 16.5t-16.5 38.5z" />
<glyph unicode="&#xd0;" horiz-adv-x="1259" d="M230 0v713h-275v54h275v689h366q85 -2 158.5 -28t133.5 -70.5t106.5 -105t78.5 -130.5t49 -148t18 -157v-178q-1 -79 -18 -157t-49 -148t-78.5 -130.5t-106.5 -105t-133.5 -70.5t-158.5 -28h-366zM542 713h-260v-659h314q78 2 144 26t120 65t96 96.5t70.5 120t43.5 135 t16 142.5v181q-2 107 -35 210t-95.5 185t-153 133t-206.5 54h-314v-635h260v-54z" />
<glyph unicode="&#xd1;" d="M1051 0h-50l-772 1364l2 -1364h-51v1456h50l771 -1361l-2 1361h52v-1456zM939 1806q-2 -37 -14 -70.5t-34 -59t-52.5 -41t-70.5 -15.5q-29 0 -53 9.5t-46 23.5t-42.5 30t-42 30t-45 23t-50.5 9q-29 0 -50 -10t-35 -27t-22 -39.5t-11 -48.5h-54q2 37 14.5 69.5t34 57 t52.5 38.5t71 14q42 0 76 -19.5t65.5 -43t64 -42.5t73.5 -19q29 0 50 11t35 29t21.5 41.5t10.5 49.5h54z" />
<glyph unicode="&#xd2;" d="M1086 619q-1 -71 -13 -146t-36 -146t-61.5 -134t-89.5 -110.5t-119.5 -75t-150.5 -27.5t-150.5 27.5t-120 75t-90.5 110.5t-62.5 134t-37 146t-13.5 146v218q1 71 13 146t36.5 146t62 134t90 110.5t119.5 75t151 27.5t151 -27.5t119.5 -75t90 -110.5t62 -134t36.5 -146 t13 -146v-218zM1033 839q-1 64 -11 132t-31 132.5t-54 122.5t-79.5 101.5t-107 69t-136.5 25.5t-136 -25.5t-106.5 -69t-79 -101.5t-53.5 -123t-31 -133t-11 -131v-220q1 -64 11 -132t31 -133t54 -123t79.5 -102t107 -69.5t136.5 -25.5t136.5 25.5t106.5 69.5t79 102t54 123 t30.5 133t10.5 132v220zM663 1590h-58l-187 266h65z" />
<glyph unicode="&#xd3;" d="M1086 619q-1 -71 -13 -146t-36 -146t-61.5 -134t-89.5 -110.5t-119.5 -75t-150.5 -27.5t-150.5 27.5t-120 75t-90.5 110.5t-62.5 134t-37 146t-13.5 146v218q1 71 13 146t36.5 146t62 134t90 110.5t119.5 75t151 27.5t151 -27.5t119.5 -75t90 -110.5t62 -134t36.5 -146 t13 -146v-218zM1033 839q-1 64 -11 132t-31 132.5t-54 122.5t-79.5 101.5t-107 69t-136.5 25.5t-136 -25.5t-106.5 -69t-79 -101.5t-53.5 -123t-31 -133t-11 -131v-220q1 -64 11 -132t31 -133t54 -123t79.5 -102t107 -69.5t136.5 -25.5t136.5 25.5t106.5 69.5t79 102t54 123 t30.5 133t10.5 132v220zM769 1856h66l-191 -266h-59z" />
<glyph unicode="&#xd4;" d="M1086 619q-1 -71 -13 -146t-36 -146t-61.5 -134t-89.5 -110.5t-119.5 -75t-150.5 -27.5t-150.5 27.5t-120 75t-90.5 110.5t-62.5 134t-37 146t-13.5 146v218q1 71 13 146t36.5 146t62 134t90 110.5t119.5 75t151 27.5t151 -27.5t119.5 -75t90 -110.5t62 -134t36.5 -146 t13 -146v-218zM1033 839q-1 64 -11 132t-31 132.5t-54 122.5t-79.5 101.5t-107 69t-136.5 25.5t-136 -25.5t-106.5 -69t-79 -101.5t-53.5 -123t-31 -133t-11 -131v-220q1 -64 11 -132t31 -133t54 -123t79.5 -102t107 -69.5t136.5 -25.5t136.5 25.5t106.5 69.5t79 102t54 123 t30.5 133t10.5 132v220zM878 1614v-10h-68l-187 196l-185 -196h-64v14l230 239h40z" />
<glyph unicode="&#xd5;" d="M1086 619q-1 -71 -13 -146t-36 -146t-61.5 -134t-89.5 -110.5t-119.5 -75t-150.5 -27.5t-150.5 27.5t-120 75t-90.5 110.5t-62.5 134t-37 146t-13.5 146v218q1 71 13 146t36.5 146t62 134t90 110.5t119.5 75t151 27.5t151 -27.5t119.5 -75t90 -110.5t62 -134t36.5 -146 t13 -146v-218zM1033 839q-1 64 -11 132t-31 132.5t-54 122.5t-79.5 101.5t-107 69t-136.5 25.5t-136 -25.5t-106.5 -69t-79 -101.5t-53.5 -123t-31 -133t-11 -131v-220q1 -64 11 -132t31 -133t54 -123t79.5 -102t107 -69.5t136.5 -25.5t136.5 25.5t106.5 69.5t79 102t54 123 t30.5 133t10.5 132v220zM928 1827q-2 -37 -14 -70.5t-34 -59t-52.5 -41t-70.5 -15.5q-29 0 -53 9.5t-46 23.5t-42.5 30t-42 30t-45 23t-50.5 9q-29 0 -50 -10t-35 -27t-22 -39.5t-11 -48.5h-54q2 37 14.5 69.5t34 57t52.5 38.5t71 14q42 0 76 -19.5t65.5 -43t64 -42.5 t73.5 -19q29 0 50 11t35 29t21.5 41.5t10.5 49.5h54z" />
<glyph unicode="&#xd6;" d="M1086 619q-1 -71 -13 -146t-36 -146t-61.5 -134t-89.5 -110.5t-119.5 -75t-150.5 -27.5t-150.5 27.5t-120 75t-90.5 110.5t-62.5 134t-37 146t-13.5 146v218q1 71 13 146t36.5 146t62 134t90 110.5t119.5 75t151 27.5t151 -27.5t119.5 -75t90 -110.5t62 -134t36.5 -146 t13 -146v-218zM1033 839q-1 64 -11 132t-31 132.5t-54 122.5t-79.5 101.5t-107 69t-136.5 25.5t-136 -25.5t-106.5 -69t-79 -101.5t-53.5 -123t-31 -133t-11 -131v-220q1 -64 11 -132t31 -133t54 -123t79.5 -102t107 -69.5t136.5 -25.5t136.5 25.5t106.5 69.5t79 102t54 123 t30.5 133t10.5 132v220zM334 1761q0 22 16.5 39t38.5 17t39 -17t17 -39t-17 -38.5t-39 -16.5t-38.5 16.5t-16.5 38.5zM779 1761q0 22 16.5 39t38.5 17t39 -17t17 -39t-17 -38.5t-39 -16.5t-38.5 16.5t-16.5 38.5z" />
<glyph unicode="&#xd7;" d="M212 36l384 393l-357 364l39 39l356 -364l357 364l39 -39l-357 -364l385 -393l-39 -37l-384 391l-384 -391z" />
<glyph unicode="&#xd8;" d="M1074 619q-1 -71 -13 -146t-36 -146t-61.5 -134t-89.5 -110.5t-119.5 -75t-150.5 -27.5q-91 0 -163 32.5t-126 87.5l-102 -175h-64l128 219q-38 48 -65 105.5t-45 119.5t-27 125.5t-10 124.5v218q1 71 13 146t36.5 146t62 134t90 110.5t119.5 75t151 27.5q58 0 109 -14 t93.5 -39t78 -59.5t64.5 -76.5l122 208h64l-154 -262q48 -90 70.5 -193.5t24.5 -202.5v-218zM185 619q0 -54 7.5 -110.5t22 -112t37 -107.5t54.5 -97l612 1045q-25 40 -57 74t-71 59t-86 38.5t-102 13.5q-76 0 -136 -25.5t-106.5 -69t-79 -101.5t-53.5 -123t-31 -133 t-11 -131v-220zM1021 839q-1 84 -18 173t-55 168l-605 -1033q48 -52 112 -82.5t149 -30.5q76 0 136.5 25.5t106.5 69.5t79 102t54 123t30.5 133t10.5 132v220z" />
<glyph unicode="&#xd9;" d="M1054 1456l1 -987q-2 -97 -31.5 -185.5t-86 -156t-137.5 -107.5t-184 -40q-104 0 -185 40t-137 107.5t-86.5 156t-31.5 185.5l1 987h51l1 -987q1 -85 27.5 -163.5t76 -139t121 -96.5t162.5 -36t162 36.5t120 97t75 139t28 162.5l1 987h52zM655 1569h-58l-187 266h65z" />
<glyph unicode="&#xda;" d="M1054 1456l1 -987q-2 -97 -31.5 -185.5t-86 -156t-137.5 -107.5t-184 -40q-104 0 -185 40t-137 107.5t-86.5 156t-31.5 185.5l1 987h51l1 -987q1 -85 27.5 -163.5t76 -139t121 -96.5t162.5 -36t162 36.5t120 97t75 139t28 162.5l1 987h52zM761 1835h66l-191 -266h-59z " />
<glyph unicode="&#xdb;" d="M1054 1456l1 -987q-2 -97 -31.5 -185.5t-86 -156t-137.5 -107.5t-184 -40q-104 0 -185 40t-137 107.5t-86.5 156t-31.5 185.5l1 987h51l1 -987q1 -85 27.5 -163.5t76 -139t121 -96.5t162.5 -36t162 36.5t120 97t75 139t28 162.5l1 987h52zM870 1593v-10h-68l-187 196 l-185 -196h-64v14l230 239h40z" />
<glyph unicode="&#xdc;" d="M1054 1456l1 -987q-2 -97 -31.5 -185.5t-86 -156t-137.5 -107.5t-184 -40q-104 0 -185 40t-137 107.5t-86.5 156t-31.5 185.5l1 987h51l1 -987q1 -85 27.5 -163.5t76 -139t121 -96.5t162.5 -36t162 36.5t120 97t75 139t28 162.5l1 987h52zM327 1740q0 22 16.5 39t38.5 17 t39 -17t17 -39t-17 -38.5t-39 -16.5t-38.5 16.5t-16.5 38.5zM772 1740q0 22 16.5 39t38.5 17t39 -17t17 -39t-17 -38.5t-39 -16.5t-38.5 16.5t-16.5 38.5z" />
<glyph unicode="&#xdd;" d="M597 602l446 854h63l-482 -903v-553h-52l-1 553l-481 903h67zM742 1824h66l-191 -266h-59z" />
<glyph unicode="&#xde;" d="M268 1456v-313h371q91 -1 173 -28t143.5 -78.5t97.5 -126.5t36 -172t-36 -172t-97.5 -126t-143.5 -78t-173 -28h-371v-334h-54v1456h54zM268 1089v-701h371q77 1 148.5 24t126.5 67.5t88 108.5t33 148q0 85 -32.5 150t-87 110t-126 68.5t-150.5 24.5h-371z" />
<glyph unicode="&#xdf;" d="M271 0h-53v1143q1 74 19 144.5t57 125.5t101.5 88.5t152.5 33.5q63 0 119.5 -21.5t99.5 -58.5t69 -87.5t26 -110.5q1 -58 -17 -110t-39 -103t-39 -104t-17 -111q1 -52 24.5 -93t58.5 -78t76 -73.5t75.5 -79.5t57.5 -96t23 -122t-28 -125.5t-75 -97t-107.5 -63 t-126.5 -22.5q-38 0 -79 5t-81 16t-77 27.5t-67 40.5l24 49q57 -40 130 -62.5t143 -22.5q57 0 110 18.5t93 53t63.5 83t23.5 109.5q0 60 -23.5 106t-58 85t-75 74.5t-75 75t-58 86.5t-24.5 108q-1 58 15.5 110.5t37 104t37.5 104t16 109.5q-1 45 -21 85t-53.5 70t-77.5 48 t-93 19q-80 1 -134.5 -27.5t-88 -75.5t-48.5 -108.5t-16 -126.5v-1143z" />
<glyph unicode="&#xe0;" d="M989 0q-12 51 -16 101t-5 101q-35 -55 -83.5 -97t-105.5 -69.5t-121 -41.5t-131 -14q-65 0 -127 19.5t-110 56.5t-77 92t-29 126q0 97 47 160.5t121.5 101t166.5 52.5t182 16h267v158q-2 73 -30 127t-74.5 89t-108 52.5t-129.5 17.5q-60 0 -122.5 -16t-113.5 -48.5 t-85 -82t-37 -117.5l-54 2q4 79 42.5 138t97 98.5t130 59.5t142.5 20q80 0 151.5 -21.5t125.5 -64t85.5 -107t33.5 -149.5v-542q1 -55 10 -105t19 -104l1 -9h-63zM527 33q71 -1 137.5 15.5t124 49.5t103.5 82t76 113v256h-264q-51 -1 -105.5 -6t-106.5 -17t-98.5 -32 t-81 -51t-55 -73.5t-19.5 -99.5q0 -57 26 -101.5t67.5 -74.5t93 -45.5t102.5 -15.5zM686 1250h-58l-187 266h65z" />
<glyph unicode="&#xe1;" d="M989 0q-12 51 -16 101t-5 101q-35 -55 -83.5 -97t-105.5 -69.5t-121 -41.5t-131 -14q-65 0 -127 19.5t-110 56.5t-77 92t-29 126q0 97 47 160.5t121.5 101t166.5 52.5t182 16h267v158q-2 73 -30 127t-74.5 89t-108 52.5t-129.5 17.5q-60 0 -122.5 -16t-113.5 -48.5 t-85 -82t-37 -117.5l-54 2q4 79 42.5 138t97 98.5t130 59.5t142.5 20q80 0 151.5 -21.5t125.5 -64t85.5 -107t33.5 -149.5v-542q1 -55 10 -105t19 -104l1 -9h-63zM527 33q71 -1 137.5 15.5t124 49.5t103.5 82t76 113v256h-264q-51 -1 -105.5 -6t-106.5 -17t-98.5 -32 t-81 -51t-55 -73.5t-19.5 -99.5q0 -57 26 -101.5t67.5 -74.5t93 -45.5t102.5 -15.5zM792 1516h66l-191 -266h-59z" />
<glyph unicode="&#xe2;" d="M989 0q-12 51 -16 101t-5 101q-35 -55 -83.5 -97t-105.5 -69.5t-121 -41.5t-131 -14q-65 0 -127 19.5t-110 56.5t-77 92t-29 126q0 97 47 160.5t121.5 101t166.5 52.5t182 16h267v158q-2 73 -30 127t-74.5 89t-108 52.5t-129.5 17.5q-60 0 -122.5 -16t-113.5 -48.5 t-85 -82t-37 -117.5l-54 2q4 79 42.5 138t97 98.5t130 59.5t142.5 20q80 0 151.5 -21.5t125.5 -64t85.5 -107t33.5 -149.5v-542q1 -55 10 -105t19 -104l1 -9h-63zM527 33q71 -1 137.5 15.5t124 49.5t103.5 82t76 113v256h-264q-51 -1 -105.5 -6t-106.5 -17t-98.5 -32 t-81 -51t-55 -73.5t-19.5 -99.5q0 -57 26 -101.5t67.5 -74.5t93 -45.5t102.5 -15.5zM900 1274v-10h-68l-187 196l-185 -196h-64v14l230 239h40z" />
<glyph unicode="&#xe3;" d="M989 0q-12 51 -16 101t-5 101q-35 -55 -83.5 -97t-105.5 -69.5t-121 -41.5t-131 -14q-65 0 -127 19.5t-110 56.5t-77 92t-29 126q0 97 47 160.5t121.5 101t166.5 52.5t182 16h267v158q-2 73 -30 127t-74.5 89t-108 52.5t-129.5 17.5q-60 0 -122.5 -16t-113.5 -48.5 t-85 -82t-37 -117.5l-54 2q4 79 42.5 138t97 98.5t130 59.5t142.5 20q80 0 151.5 -21.5t125.5 -64t85.5 -107t33.5 -149.5v-542q1 -55 10 -105t19 -104l1 -9h-63zM527 33q71 -1 137.5 15.5t124 49.5t103.5 82t76 113v256h-264q-51 -1 -105.5 -6t-106.5 -17t-98.5 -32 t-81 -51t-55 -73.5t-19.5 -99.5q0 -57 26 -101.5t67.5 -74.5t93 -45.5t102.5 -15.5zM951 1486q-2 -37 -14 -70.5t-34 -59t-52.5 -41t-70.5 -15.5q-29 0 -53 9.5t-46 23.5t-42.5 30t-42 30t-45 23t-50.5 9q-29 0 -50 -10t-35 -27t-22 -39.5t-11 -48.5h-54q2 37 14.5 69.5 t34 57t52.5 38.5t71 14q42 0 76 -19.5t65.5 -43t64 -42.5t73.5 -19q29 0 50 11t35 29t21.5 41.5t10.5 49.5h54z" />
<glyph unicode="&#xe4;" d="M989 0q-12 51 -16 101t-5 101q-35 -55 -83.5 -97t-105.5 -69.5t-121 -41.5t-131 -14q-65 0 -127 19.5t-110 56.5t-77 92t-29 126q0 97 47 160.5t121.5 101t166.5 52.5t182 16h267v158q-2 73 -30 127t-74.5 89t-108 52.5t-129.5 17.5q-60 0 -122.5 -16t-113.5 -48.5 t-85 -82t-37 -117.5l-54 2q4 79 42.5 138t97 98.5t130 59.5t142.5 20q80 0 151.5 -21.5t125.5 -64t85.5 -107t33.5 -149.5v-542q1 -55 10 -105t19 -104l1 -9h-63zM527 33q71 -1 137.5 15.5t124 49.5t103.5 82t76 113v256h-264q-51 -1 -105.5 -6t-106.5 -17t-98.5 -32 t-81 -51t-55 -73.5t-19.5 -99.5q0 -57 26 -101.5t67.5 -74.5t93 -45.5t102.5 -15.5zM357 1421q0 22 16.5 39t38.5 17t39 -17t17 -39t-17 -38.5t-39 -16.5t-38.5 16.5t-16.5 38.5zM802 1421q0 22 16.5 39t38.5 17t39 -17t17 -39t-17 -38.5t-39 -16.5t-38.5 16.5t-16.5 38.5z " />
<glyph unicode="&#xe5;" d="M989 0q-12 51 -16 101t-5 101q-35 -55 -83.5 -97t-105.5 -69.5t-121 -41.5t-131 -14q-65 0 -127 19.5t-110 56.5t-77 92t-29 126q0 97 47 160.5t121.5 101t166.5 52.5t182 16h267v158q-2 73 -30 127t-74.5 89t-108 52.5t-129.5 17.5q-60 0 -122.5 -16t-113.5 -48.5 t-85 -82t-37 -117.5l-54 2q4 79 42.5 138t97 98.5t130 59.5t142.5 20q80 0 151.5 -21.5t125.5 -64t85.5 -107t33.5 -149.5v-542q1 -55 10 -105t19 -104l1 -9h-63zM527 33q71 -1 137.5 15.5t124 49.5t103.5 82t76 113v256h-264q-51 -1 -105.5 -6t-106.5 -17t-98.5 -32 t-81 -51t-55 -73.5t-19.5 -99.5q0 -57 26 -101.5t67.5 -74.5t93 -45.5t102.5 -15.5zM479 1382q0 34 12 65.5t34 55.5t52 38.5t65 14.5t65 -14.5t52 -38.5t34.5 -55.5t12.5 -65.5t-12.5 -65t-34.5 -54t-52 -37t-65 -14t-65 14t-51.5 37t-34 54t-12.5 65zM533 1382 q0 -23 8 -44t22.5 -37t34.5 -25.5t44 -9.5t44.5 9.5t35 25.5t22.5 37t8 44q0 24 -8 45.5t-22.5 38t-34.5 26.5t-45 10q-24 0 -44.5 -10t-34.5 -26.5t-22 -38t-8 -45.5z" />
<glyph unicode="&#xe6;" d="M893 -20q-60 0 -106.5 16.5t-81.5 44.5t-60.5 65t-41.5 78q-20 -44 -49 -81t-66.5 -64.5t-81.5 -43t-94 -15.5q-65 0 -113.5 25t-81 67t-49 97t-16.5 115q0 72 21 134.5t60.5 109t98 74t133.5 28.5h199l-1 190q0 36 -6.5 76t-28.5 74t-63.5 56t-111.5 22q-57 0 -101 -17 t-73.5 -46.5t-44 -69t-12.5 -84.5h-52q-2 61 18.5 111.5t58.5 85.5t91 54.5t115 19.5q66 0 111.5 -17.5t75.5 -46t46.5 -66t23.5 -76.5q16 42 40.5 79.5t57.5 65.5t76.5 44.5t97.5 16.5q58 0 102 -16.5t76.5 -45t54.5 -66.5t35.5 -80.5t19.5 -87t6 -86.5l-2 -143h-556v-177 q0 -34 5 -74.5t16 -81t30.5 -78.5t50 -67t73 -47t100.5 -18q40 0 75 11t64 29t53 41.5t44 48.5l28 -42q-48 -66 -111.5 -104t-152.5 -38zM566 228l1 1l23 -5q-14 45 -20 90t-6 86v175h-198q-63 -1 -111.5 -25t-81.5 -64t-50 -93t-17 -113q0 -48 12.5 -93t37.5 -79.5 t63.5 -55t91.5 -20.5q47 0 88.5 17t74.5 45t57 63t35 71l-1 130l-1 217v69q1 56 11 122.5t35 129.5q4 -20 5 -39.5t2 -38.5l-1 -186h2v-55h-2v-359h1q-3 -9 -6.5 -17.5t-7.5 -16.5l-7 20l-29 -21zM618 632h507l-2 92q-3 50 -13 107t-36 105t-72 80t-120 32q-55 0 -96 -20 t-70 -52.5t-48 -74.5t-30 -87t-15.5 -89.5t-4.5 -80.5v-12zM564 575v55h27v2h25v-55h-23v-2h-29zM616 218l-26 6l6 -20z" />
<glyph unicode="&#xe7;" d="M630 34q69 0 130.5 19t109 56.5t77.5 92.5t38 126h54q-8 -81 -43 -145.5t-89.5 -109.5t-126 -69t-150.5 -24q-114 0 -198.5 46t-140.5 121.5t-83.5 172.5t-28.5 200v42q1 102 28.5 199.5t83 173t139.5 121.5t198 46q85 0 157.5 -27t126.5 -76.5t87 -119t40 -154.5h-54 q-6 73 -35 132.5t-76.5 102t-110 65.5t-135.5 23q-103 0 -177 -41.5t-122.5 -110t-71.5 -156t-24 -178.5v-42q1 -93 24 -180t71.5 -155t123 -109.5t178.5 -41.5zM653 -9l-11 -76q36 -5 68.5 -17t56.5 -32.5t38 -50t14 -69.5q0 -56 -28 -92t-70.5 -57t-92.5 -30.5t-94 -10.5 l-7 49q33 1 73.5 7.5t76.5 22t61 42.5t26 69q1 39 -17.5 61.5t-47 35.5t-62 18t-62.5 9l25 121h53z" />
<glyph unicode="&#xe8;" d="M658 -20q-111 0 -201.5 44.5t-155 119.5t-100.5 172t-37 202v44q1 101 34 198t94 173t148 122.5t197 46.5q98 0 177 -37t134.5 -100.5t85.5 -147.5t31 -177v-63h-847v-15v-44q1 -93 33 -180.5t89.5 -155t138 -108t179.5 -41.5q101 -1 185.5 35t149.5 114l39 -27 q-69 -90 -165.5 -132.5t-208.5 -42.5zM637 1048q-90 0 -162 -34.5t-124.5 -92.5t-85 -133.5t-42.5 -156.5h788v13q0 80 -27.5 153t-76.5 129t-118 89t-152 33zM673 1249h-58l-187 266h65z" />
<glyph unicode="&#xe9;" d="M658 -20q-111 0 -201.5 44.5t-155 119.5t-100.5 172t-37 202v44q1 101 34 198t94 173t148 122.5t197 46.5q98 0 177 -37t134.5 -100.5t85.5 -147.5t31 -177v-63h-847v-15v-44q1 -93 33 -180.5t89.5 -155t138 -108t179.5 -41.5q101 -1 185.5 35t149.5 114l39 -27 q-69 -90 -165.5 -132.5t-208.5 -42.5zM637 1048q-90 0 -162 -34.5t-124.5 -92.5t-85 -133.5t-42.5 -156.5h788v13q0 80 -27.5 153t-76.5 129t-118 89t-152 33zM779 1515h66l-191 -266h-59z" />
<glyph unicode="&#xea;" d="M658 -20q-111 0 -201.5 44.5t-155 119.5t-100.5 172t-37 202v44q1 101 34 198t94 173t148 122.5t197 46.5q98 0 177 -37t134.5 -100.5t85.5 -147.5t31 -177v-63h-847v-15v-44q1 -93 33 -180.5t89.5 -155t138 -108t179.5 -41.5q101 -1 185.5 35t149.5 114l39 -27 q-69 -90 -165.5 -132.5t-208.5 -42.5zM637 1048q-90 0 -162 -34.5t-124.5 -92.5t-85 -133.5t-42.5 -156.5h788v13q0 80 -27.5 153t-76.5 129t-118 89t-152 33zM888 1273v-10h-68l-187 196l-185 -196h-64v14l230 239h40z" />
<glyph unicode="&#xeb;" d="M658 -20q-111 0 -201.5 44.5t-155 119.5t-100.5 172t-37 202v44q1 101 34 198t94 173t148 122.5t197 46.5q98 0 177 -37t134.5 -100.5t85.5 -147.5t31 -177v-63h-847v-15v-44q1 -93 33 -180.5t89.5 -155t138 -108t179.5 -41.5q101 -1 185.5 35t149.5 114l39 -27 q-69 -90 -165.5 -132.5t-208.5 -42.5zM637 1048q-90 0 -162 -34.5t-124.5 -92.5t-85 -133.5t-42.5 -156.5h788v13q0 80 -27.5 153t-76.5 129t-118 89t-152 33zM344 1420q0 22 16.5 39t38.5 17t39 -17t17 -39t-17 -38.5t-39 -16.5t-38.5 16.5t-16.5 38.5zM789 1420 q0 22 16.5 39t38.5 17t39 -17t17 -39t-17 -38.5t-39 -16.5t-38.5 16.5t-16.5 38.5z" />
<glyph unicode="&#xec;" d="M239 1082h451v-1028h384v-54h-835v54h397v974h-397v54zM703 1289h-58l-187 266h65z" />
<glyph unicode="&#xed;" d="M239 1082h451v-1028h384v-54h-835v54h397v974h-397v54zM809 1555h66l-191 -266h-59z" />
<glyph unicode="&#xee;" d="M239 1082h451v-1028h384v-54h-835v54h397v974h-397v54zM917 1313v-10h-68l-187 196l-185 -196h-64v14l230 239h40z" />
<glyph unicode="&#xef;" d="M239 1082h451v-1028h384v-54h-835v54h397v974h-397v54zM374 1460q0 22 16.5 39t38.5 17t39 -17t17 -39t-17 -38.5t-39 -16.5t-38.5 16.5t-16.5 38.5zM819 1460q0 22 16.5 39t38.5 17t39 -17t17 -39t-17 -38.5t-39 -16.5t-38.5 16.5t-16.5 38.5z" />
<glyph unicode="&#xf0;" d="M746 1301q127 -128 195 -298t69 -388v-80q-1 -64 -13.5 -130.5t-38 -128t-64 -115.5t-90.5 -94t-118.5 -63.5t-147.5 -23.5q-93 0 -173.5 38t-139 104t-92.5 154t-34 189q0 103 31 192t91 155t147.5 103.5t200.5 37.5q55 0 109 -11.5t103 -33.5t91 -55.5t72 -76.5 q-23 155 -85.5 278t-162.5 220l-235 -125l-29 48l220 117q-78 66 -172.5 118.5t-206.5 94.5l20 50q122 -45 224.5 -103.5t185.5 -132.5l225 120l30 -48zM956 617q0 33 -3 65q-24 53 -67 93t-95.5 66.5t-110.5 40t-111 13.5q-100 0 -177 -33.5t-130 -91.5t-80 -136.5 t-27 -168.5t30 -168t82 -135.5t122.5 -90.5t152.5 -33q73 0 132 21.5t105 57.5t79 84.5t54.5 104t32 114t11.5 115.5v82z" />
<glyph unicode="&#xf1;" d="M267 822q26 60 65.5 111.5t91 88.5t113.5 58.5t133 21.5q93 0 160.5 -30t111.5 -83.5t65 -127.5t22 -161l1 -700h-55v700q-1 76 -18.5 140.5t-54.5 111t-95 72.5t-140 25q-73 -1 -139 -29t-119 -75t-90 -110t-52 -133v-702h-55v1082h55v-260v0zM915 1484 q-2 -37 -14 -70.5t-34 -59t-52.5 -41t-70.5 -15.5q-29 0 -53 9.5t-46 23.5t-42.5 30t-42 30t-45 23t-50.5 9q-29 0 -50 -10t-35 -27t-22 -39.5t-11 -48.5h-54q2 37 14.5 69.5t34 57t52.5 38.5t71 14q42 0 76 -19.5t65.5 -43t64 -42.5t73.5 -19q29 0 50 11t35 29t21.5 41.5 t10.5 49.5h54z" />
<glyph unicode="&#xf2;" d="M141 562q1 104 33 201.5t92 172.5t147.5 120.5t200.5 45.5t200.5 -45t148 -120t92.5 -172.5t33 -202.5v-42q-1 -104 -32.5 -201.5t-91.5 -172.5t-147.5 -120.5t-200.5 -45.5t-201 45t-148.5 120t-92.5 172.5t-33 202.5v42zM195 520q1 -92 29.5 -179.5t82 -155.5 t131.5 -109.5t178 -41.5t177 41.5t130.5 110t81.5 155.5t29 179v42q-1 91 -29.5 178.5t-82 155.5t-131.5 110t-177 42t-176.5 -42t-131 -110t-82 -155.5t-29.5 -178.5v-42zM659 1248h-58l-187 266h65z" />
<glyph unicode="&#xf3;" d="M141 562q1 104 33 201.5t92 172.5t147.5 120.5t200.5 45.5t200.5 -45t148 -120t92.5 -172.5t33 -202.5v-42q-1 -104 -32.5 -201.5t-91.5 -172.5t-147.5 -120.5t-200.5 -45.5t-201 45t-148.5 120t-92.5 172.5t-33 202.5v42zM195 520q1 -92 29.5 -179.5t82 -155.5 t131.5 -109.5t178 -41.5t177 41.5t130.5 110t81.5 155.5t29 179v42q-1 91 -29.5 178.5t-82 155.5t-131.5 110t-177 42t-176.5 -42t-131 -110t-82 -155.5t-29.5 -178.5v-42zM765 1514h66l-191 -266h-59z" />
<glyph unicode="&#xf4;" d="M141 562q1 104 33 201.5t92 172.5t147.5 120.5t200.5 45.5t200.5 -45t148 -120t92.5 -172.5t33 -202.5v-42q-1 -104 -32.5 -201.5t-91.5 -172.5t-147.5 -120.5t-200.5 -45.5t-201 45t-148.5 120t-92.5 172.5t-33 202.5v42zM195 520q1 -92 29.5 -179.5t82 -155.5 t131.5 -109.5t178 -41.5t177 41.5t130.5 110t81.5 155.5t29 179v42q-1 91 -29.5 178.5t-82 155.5t-131.5 110t-177 42t-176.5 -42t-131 -110t-82 -155.5t-29.5 -178.5v-42zM874 1272v-10h-68l-187 196l-185 -196h-64v14l230 239h40z" />
<glyph unicode="&#xf5;" d="M141 562q1 104 33 201.5t92 172.5t147.5 120.5t200.5 45.5t200.5 -45t148 -120t92.5 -172.5t33 -202.5v-42q-1 -104 -32.5 -201.5t-91.5 -172.5t-147.5 -120.5t-200.5 -45.5t-201 45t-148.5 120t-92.5 172.5t-33 202.5v42zM195 520q1 -92 29.5 -179.5t82 -155.5 t131.5 -109.5t178 -41.5t177 41.5t130.5 110t81.5 155.5t29 179v42q-1 91 -29.5 178.5t-82 155.5t-131.5 110t-177 42t-176.5 -42t-131 -110t-82 -155.5t-29.5 -178.5v-42zM924 1484q-2 -37 -14 -70.5t-34 -59t-52.5 -41t-70.5 -15.5q-29 0 -53 9.5t-46 23.5t-42.5 30 t-42 30t-45 23t-50.5 9q-29 0 -50 -10t-35 -27t-22 -39.5t-11 -48.5h-54q2 37 14.5 69.5t34 57t52.5 38.5t71 14q42 0 76 -19.5t65.5 -43t64 -42.5t73.5 -19q29 0 50 11t35 29t21.5 41.5t10.5 49.5h54z" />
<glyph unicode="&#xf6;" d="M141 562q1 104 33 201.5t92 172.5t147.5 120.5t200.5 45.5t200.5 -45t148 -120t92.5 -172.5t33 -202.5v-42q-1 -104 -32.5 -201.5t-91.5 -172.5t-147.5 -120.5t-200.5 -45.5t-201 45t-148.5 120t-92.5 172.5t-33 202.5v42zM195 520q1 -92 29.5 -179.5t82 -155.5 t131.5 -109.5t178 -41.5t177 41.5t130.5 110t81.5 155.5t29 179v42q-1 91 -29.5 178.5t-82 155.5t-131.5 110t-177 42t-176.5 -42t-131 -110t-82 -155.5t-29.5 -178.5v-42zM331 1419q0 22 16.5 39t38.5 17t39 -17t17 -39t-17 -38.5t-39 -16.5t-38.5 16.5t-16.5 38.5z M776 1419q0 22 16.5 39t38.5 17t39 -17t17 -39t-17 -38.5t-39 -16.5t-38.5 16.5t-16.5 38.5z" />
<glyph unicode="&#xf7;" d="M1113 686h-998v52h998v-52zM571 1079q0 22 16.5 39t38.5 17t39 -17t17 -39t-17 -38.5t-39 -16.5t-38.5 16.5t-16.5 38.5zM571 301q0 22 16.5 39t38.5 17t39 -17t17 -39t-17 -38.5t-39 -16.5t-38.5 16.5t-16.5 38.5z" />
<glyph unicode="&#xf8;" d="M141 562q1 104 33 201.5t92 172.5t147.5 120.5t200.5 45.5q99 0 182 -37l75 154h63l-88 -180q58 -35 103 -86.5t75.5 -114t46.5 -133t17 -143.5v-42q-1 -104 -32.5 -201.5t-91.5 -172.5t-147.5 -120.5t-200.5 -45.5q-73 0 -135 19t-114 54l-96 -198h-63l113 233 q-44 38 -77 86.5t-55.5 104t-34.5 117t-13 124.5v42zM1034 562q-1 63 -15 125.5t-41 118.5t-66 102.5t-90 79.5l-430 -885q46 -33 102 -51t122 -18q100 0 177 41.5t130.5 110t81.5 155.5t29 179v42zM195 520q2 -109 40.5 -209.5t111.5 -170.5l425 875q-35 16 -74.5 24.5 t-83.5 8.5q-99 0 -176.5 -42t-131 -110t-82 -155.5t-29.5 -178.5v-42z" />
<glyph unicode="&#xf9;" d="M964 0l1 193q-52 -100 -148.5 -156.5t-235.5 -56.5q-94 0 -162.5 32t-113 87.5t-66.5 131.5t-23 164v687h54v-689q1 -75 19 -140t55.5 -114t95.5 -77t139 -28q78 0 143 20.5t114.5 59t82 94t46.5 125.5l-1 749h56v-1082h-56zM625 1250h-58l-187 266h65z" />
<glyph unicode="&#xfa;" d="M964 0l1 193q-52 -100 -148.5 -156.5t-235.5 -56.5q-94 0 -162.5 32t-113 87.5t-66.5 131.5t-23 164v687h54v-689q1 -75 19 -140t55.5 -114t95.5 -77t139 -28q78 0 143 20.5t114.5 59t82 94t46.5 125.5l-1 749h56v-1082h-56zM731 1516h66l-191 -266h-59z" />
<glyph unicode="&#xfb;" d="M964 0l1 193q-52 -100 -148.5 -156.5t-235.5 -56.5q-94 0 -162.5 32t-113 87.5t-66.5 131.5t-23 164v687h54v-689q1 -75 19 -140t55.5 -114t95.5 -77t139 -28q78 0 143 20.5t114.5 59t82 94t46.5 125.5l-1 749h56v-1082h-56zM840 1274v-10h-68l-187 196l-185 -196h-64v14 l230 239h40z" />
<glyph unicode="&#xfc;" d="M964 0l1 193q-52 -100 -148.5 -156.5t-235.5 -56.5q-94 0 -162.5 32t-113 87.5t-66.5 131.5t-23 164v687h54v-689q1 -75 19 -140t55.5 -114t95.5 -77t139 -28q78 0 143 20.5t114.5 59t82 94t46.5 125.5l-1 749h56v-1082h-56zM297 1421q0 22 16.5 39t38.5 17t39 -17 t17 -39t-17 -38.5t-39 -16.5t-38.5 16.5t-16.5 38.5zM742 1421q0 22 16.5 39t38.5 17t39 -17t17 -39t-17 -38.5t-39 -16.5t-38.5 16.5t-16.5 38.5z" />
<glyph unicode="&#xfd;" d="M623 74l13 30l440 978h65l-569 -1262q-25 -56 -55.5 -102.5t-70 -81t-90.5 -54t-117 -19.5q-44 0 -90 11l-2 51q20 -3 41 -6t42 -3q54 0 98 15.5t79 44t62 68t48 86.5l75 172l-508 1080h63zM777 1516h66l-191 -266h-59z" />
<glyph unicode="&#xfe;" d="M1049 531q-1 -63 -10.5 -128.5t-30 -126.5t-52 -115t-76.5 -94t-104 -63.5t-133 -23.5q-52 0 -105 12t-101.5 35t-90.5 56.5t-72 77.5v-577h-54v1952h54v-638q28 46 68.5 84t88.5 64.5t101.5 41t108.5 14.5q75 0 134.5 -23t104.5 -62.5t77 -93.5t52 -115t29.5 -126.5 t10.5 -129.5v-21zM994 552q0 56 -8 114.5t-24.5 113.5t-43.5 103.5t-66 85t-91 58t-119 21.5q-63 0 -120.5 -19t-106 -53t-85 -82t-56.5 -106v-530q21 -54 60 -96t89 -70.5t107 -43t114 -14.5q67 0 118.5 21.5t90.5 58.5t65.5 86t43 104t24 113t8.5 114v21z" />
<glyph unicode="&#xff;" d="M623 74l13 30l440 978h65l-569 -1262q-25 -56 -55.5 -102.5t-70 -81t-90.5 -54t-117 -19.5q-44 0 -90 11l-2 51q20 -3 41 -6t42 -3q54 0 98 15.5t79 44t62 68t48 86.5l75 172l-508 1080h63zM342 1421q0 22 16.5 39t38.5 17t39 -17t17 -39t-17 -38.5t-39 -16.5t-38.5 16.5 t-16.5 38.5zM787 1421q0 22 16.5 39t38.5 17t39 -17t17 -39t-17 -38.5t-39 -16.5t-38.5 16.5t-16.5 38.5z" />
<glyph unicode="&#x100;" d="M939 435h-619l-142 -435h-56l477 1456h62l477 -1456h-56zM337 489h585l-292 893zM931 1733h-627v53h627v-53z" />
<glyph unicode="&#x101;" d="M989 0q-12 51 -16 101t-5 101q-35 -55 -83.5 -97t-105.5 -69.5t-121 -41.5t-131 -14q-65 0 -127 19.5t-110 56.5t-77 92t-29 126q0 97 47 160.5t121.5 101t166.5 52.5t182 16h267v158q-2 73 -30 127t-74.5 89t-108 52.5t-129.5 17.5q-60 0 -122.5 -16t-113.5 -48.5 t-85 -82t-37 -117.5l-54 2q4 79 42.5 138t97 98.5t130 59.5t142.5 20q80 0 151.5 -21.5t125.5 -64t85.5 -107t33.5 -149.5v-542q1 -55 10 -105t19 -104l1 -9h-63zM527 33q71 -1 137.5 15.5t124 49.5t103.5 82t76 113v256h-264q-51 -1 -105.5 -6t-106.5 -17t-98.5 -32 t-81 -51t-55 -73.5t-19.5 -99.5q0 -57 26 -101.5t67.5 -74.5t93 -45.5t102.5 -15.5zM945 1413h-627v53h627v-53z" />
<glyph unicode="&#x102;" d="M939 435h-619l-142 -435h-56l477 1456h62l477 -1456h-56zM337 489h585l-292 893zM907 1810q-3 -59 -25 -105t-59 -78t-86.5 -48.5t-107.5 -16.5t-107.5 16.5t-86.5 48.5t-59.5 78t-25.5 105h54q3 -49 20.5 -85t47 -60t69.5 -35.5t88 -11.5q46 0 86 12t69.5 36t47.5 60 t21 84h54z" />
<glyph unicode="&#x103;" d="M989 0q-12 51 -16 101t-5 101q-35 -55 -83.5 -97t-105.5 -69.5t-121 -41.5t-131 -14q-65 0 -127 19.5t-110 56.5t-77 92t-29 126q0 97 47 160.5t121.5 101t166.5 52.5t182 16h267v158q-2 73 -30 127t-74.5 89t-108 52.5t-129.5 17.5q-60 0 -122.5 -16t-113.5 -48.5 t-85 -82t-37 -117.5l-54 2q4 79 42.5 138t97 98.5t130 59.5t142.5 20q80 0 151.5 -21.5t125.5 -64t85.5 -107t33.5 -149.5v-542q1 -55 10 -105t19 -104l1 -9h-63zM527 33q71 -1 137.5 15.5t124 49.5t103.5 82t76 113v256h-264q-51 -1 -105.5 -6t-106.5 -17t-98.5 -32 t-81 -51t-55 -73.5t-19.5 -99.5q0 -57 26 -101.5t67.5 -74.5t93 -45.5t102.5 -15.5zM921 1490q-3 -59 -25 -105t-59 -78t-86.5 -48.5t-107.5 -16.5t-107.5 16.5t-86.5 48.5t-59.5 78t-25.5 105h54q3 -49 20.5 -85t47 -60t69.5 -35.5t88 -11.5q46 0 86 12t69.5 36t47.5 60 t21 84h54z" />
<glyph unicode="&#x104;" d="M661 1456l477 -1456q-29 -22 -63.5 -48t-64.5 -56t-50.5 -65.5t-20.5 -76.5q1 -45 28 -69.5t72 -25.5q32 -1 61 10t55 28l16 -48q-30 -21 -62.5 -32.5t-69.5 -11.5q-34 0 -62.5 10.5t-48.5 29.5t-31.5 46.5t-11.5 62.5q0 40 19 76.5t48 68t63 59t64 50.5l-140 427h-619 l-142 -435h-56l477 1456h62zM337 489h585l-292 893z" />
<glyph unicode="&#x105;" d="M984 19q-9 46 -12 91.5t-4 91.5q-35 -55 -83.5 -97t-105.5 -69.5t-121 -41.5t-131 -14q-65 0 -127 19.5t-110 56.5t-77 92t-29 126q0 97 47 160.5t121.5 101t166.5 52.5t182 16h267v158q-2 73 -30 127t-74.5 89t-108 52.5t-129.5 17.5q-60 0 -122.5 -16t-113.5 -48.5 t-85 -82t-37 -117.5l-54 2q4 79 42.5 138t97 98.5t130 59.5t142.5 20q80 0 151.5 -21.5t125.5 -64t85.5 -107t33.5 -149.5v-542q1 -55 10 -105t19 -104l1 -9h-23q-29 -22 -63.5 -48t-64.5 -56t-50.5 -65.5t-20.5 -76.5q1 -45 28 -69.5t72 -25.5q32 -1 61 10t55 28l16 -48 q-30 -21 -62.5 -32.5t-69.5 -11.5q-34 0 -62.5 10.5t-48.5 29.5t-31.5 46.5t-11.5 62.5q0 43 21.5 81.5t52.5 71.5t67.5 61t66.5 51zM527 33q71 -1 137.5 15.5t124 49.5t103.5 82t76 113v256h-264q-51 -1 -105.5 -6t-106.5 -17t-98.5 -32t-81 -51t-55 -73.5t-19.5 -99.5 q0 -57 26 -101.5t67.5 -74.5t93 -45.5t102.5 -15.5z" />
<glyph unicode="&#x106;" d="M1082 446q-11 -96 -46.5 -181t-94.5 -148.5t-140.5 -100.5t-184.5 -36q-84 0 -151 28t-119.5 75t-90 110t-62.5 134t-37 145.5t-13 146.5v218q1 71 13 146.5t37 146t63 133.5t90 110t119 74.5t151 28.5q102 1 184 -35.5t141 -99.5t94.5 -148t46.5 -181h-53 q-14 84 -45.5 159t-82.5 131t-121.5 88.5t-163.5 31.5q-75 -1 -135.5 -26.5t-106.5 -69t-79.5 -101.5t-55 -122.5t-31.5 -132.5t-11 -131v-220q1 -64 11 -132t31.5 -132.5t54.5 -122.5t79.5 -102t106.5 -70t136 -26q94 -1 165 31.5t121.5 88.5t81.5 131.5t45 160.5h53z M765 1856h66l-191 -266h-59z" />
<glyph unicode="&#x107;" d="M630 34q69 0 130.5 19t109 56.5t77.5 92.5t38 126h54q-8 -81 -43 -145.5t-89.5 -109.5t-126 -69t-150.5 -24q-114 0 -198.5 46t-140.5 121.5t-83.5 172.5t-28.5 200v42q1 102 28.5 199.5t83 173t139.5 121.5t198 46q85 0 157.5 -27t126.5 -76.5t87 -119t40 -154.5h-54 q-6 73 -35 132.5t-76.5 102t-110 65.5t-135.5 23q-103 0 -177 -41.5t-122.5 -110t-71.5 -156t-24 -178.5v-42q1 -93 24 -180t71.5 -155t123 -109.5t178.5 -41.5zM786 1514h66l-191 -266h-59z" />
<glyph unicode="&#x108;" d="M1082 446q-11 -96 -46.5 -181t-94.5 -148.5t-140.5 -100.5t-184.5 -36q-84 0 -151 28t-119.5 75t-90 110t-62.5 134t-37 145.5t-13 146.5v218q1 71 13 146.5t37 146t63 133.5t90 110t119 74.5t151 28.5q102 1 184 -35.5t141 -99.5t94.5 -148t46.5 -181h-53 q-14 84 -45.5 159t-82.5 131t-121.5 88.5t-163.5 31.5q-75 -1 -135.5 -26.5t-106.5 -69t-79.5 -101.5t-55 -122.5t-31.5 -132.5t-11 -131v-220q1 -64 11 -132t31.5 -132.5t54.5 -122.5t79.5 -102t106.5 -70t136 -26q94 -1 165 31.5t121.5 88.5t81.5 131.5t45 160.5h53z M874 1614v-10h-68l-187 196l-185 -196h-64v14l230 239h40z" />
<glyph unicode="&#x109;" d="M630 34q69 0 130.5 19t109 56.5t77.5 92.5t38 126h54q-8 -81 -43 -145.5t-89.5 -109.5t-126 -69t-150.5 -24q-114 0 -198.5 46t-140.5 121.5t-83.5 172.5t-28.5 200v42q1 102 28.5 199.5t83 173t139.5 121.5t198 46q85 0 157.5 -27t126.5 -76.5t87 -119t40 -154.5h-54 q-6 73 -35 132.5t-76.5 102t-110 65.5t-135.5 23q-103 0 -177 -41.5t-122.5 -110t-71.5 -156t-24 -178.5v-42q1 -93 24 -180t71.5 -155t123 -109.5t178.5 -41.5zM894 1272v-10h-68l-187 196l-185 -196h-64v14l230 239h40z" />
<glyph unicode="&#x10a;" d="M1082 446q-11 -96 -46.5 -181t-94.5 -148.5t-140.5 -100.5t-184.5 -36q-84 0 -151 28t-119.5 75t-90 110t-62.5 134t-37 145.5t-13 146.5v218q1 71 13 146.5t37 146t63 133.5t90 110t119 74.5t151 28.5q102 1 184 -35.5t141 -99.5t94.5 -148t46.5 -181h-53 q-14 84 -45.5 159t-82.5 131t-121.5 88.5t-163.5 31.5q-75 -1 -135.5 -26.5t-106.5 -69t-79.5 -101.5t-55 -122.5t-31.5 -132.5t-11 -131v-220q1 -64 11 -132t31.5 -132.5t54.5 -122.5t79.5 -102t106.5 -70t136 -26q94 -1 165 31.5t121.5 88.5t81.5 131.5t45 160.5h53z M557 1737q0 22 16.5 39t40.5 17t41 -16.5t17 -39.5q-1 -23 -17.5 -39t-40.5 -16t-40.5 16t-16.5 39z" />
<glyph unicode="&#x10b;" d="M630 34q69 0 130.5 19t109 56.5t77.5 92.5t38 126h54q-8 -81 -43 -145.5t-89.5 -109.5t-126 -69t-150.5 -24q-114 0 -198.5 46t-140.5 121.5t-83.5 172.5t-28.5 200v42q1 102 28.5 199.5t83 173t139.5 121.5t198 46q85 0 157.5 -27t126.5 -76.5t87 -119t40 -154.5h-54 q-6 73 -35 132.5t-76.5 102t-110 65.5t-135.5 23q-103 0 -177 -41.5t-122.5 -110t-71.5 -156t-24 -178.5v-42q1 -93 24 -180t71.5 -155t123 -109.5t178.5 -41.5zM578 1395q0 22 16.5 39t40.5 17t41 -16.5t17 -39.5q-1 -23 -17.5 -39t-40.5 -16t-40.5 16t-16.5 39z" />
<glyph unicode="&#x10c;" d="M1082 446q-11 -96 -46.5 -181t-94.5 -148.5t-140.5 -100.5t-184.5 -36q-84 0 -151 28t-119.5 75t-90 110t-62.5 134t-37 145.5t-13 146.5v218q1 71 13 146.5t37 146t63 133.5t90 110t119 74.5t151 28.5q102 1 184 -35.5t141 -99.5t94.5 -148t46.5 -181h-53 q-14 84 -45.5 159t-82.5 131t-121.5 88.5t-163.5 31.5q-75 -1 -135.5 -26.5t-106.5 -69t-79.5 -101.5t-55 -122.5t-31.5 -132.5t-11 -131v-220q1 -64 11 -132t31.5 -132.5t54.5 -122.5t79.5 -102t106.5 -70t136 -26q94 -1 165 31.5t121.5 88.5t81.5 131.5t45 160.5h53z M616 1644l194 217h53v-13l-218 -250h-59l-220 252v11h57z" />
<glyph unicode="&#x10d;" d="M630 34q69 0 130.5 19t109 56.5t77.5 92.5t38 126h54q-8 -81 -43 -145.5t-89.5 -109.5t-126 -69t-150.5 -24q-114 0 -198.5 46t-140.5 121.5t-83.5 172.5t-28.5 200v42q1 102 28.5 199.5t83 173t139.5 121.5t198 46q85 0 157.5 -27t126.5 -76.5t87 -119t40 -154.5h-54 q-6 73 -35 132.5t-76.5 102t-110 65.5t-135.5 23q-103 0 -177 -41.5t-122.5 -110t-71.5 -156t-24 -178.5v-42q1 -93 24 -180t71.5 -155t123 -109.5t178.5 -41.5zM637 1301l194 217h53v-13l-218 -250h-59l-220 252v11h57z" />
<glyph unicode="&#x10e;" d="M200 0v1456h366q85 -2 158.5 -28t133.5 -70.5t106.5 -105t78.5 -130.5t49 -148t18 -157v-178q-1 -79 -18 -157t-49 -148t-78.5 -130.5t-106.5 -105t-133.5 -70.5t-158.5 -28h-366zM252 1402v-1348h314q78 2 144 26t120 65t96 96.5t70.5 120t43.5 135t16 142.5v181 q-2 107 -35 210t-95.5 185t-153 133t-206.5 54h-314zM555 1623l194 217h53v-13l-218 -250h-59l-220 252v11h57z" />
<glyph unicode="&#x10f;" horiz-adv-x="1379" d="M176 552q0 64 10 129.5t31.5 126.5t55 115t80.5 93.5t109.5 62.5t141.5 23q53 0 103.5 -14.5t95.5 -41.5t83 -65t65 -85v640h54v-1536h-54v162q-28 -44 -67.5 -77.5t-86 -57t-96.5 -35.5t-99 -12q-78 0 -140 23.5t-109 63.5t-80.5 94t-54.5 115t-31.5 126.5t-10.5 128.5 v21zM232 531q0 -55 8 -113.5t25.5 -113.5t46 -104t69 -86t95 -58.5t125.5 -21.5q53 0 106.5 14.5t100.5 42.5t84.5 69.5t58.5 94.5v535q-19 58 -54 105.5t-80.5 81.5t-100 52.5t-113.5 18.5q-71 0 -125.5 -21.5t-96 -58t-69.5 -85.5t-45.5 -104t-26 -113.5t-8.5 -113.5v-21z M1336 1433q-2 -80 -26.5 -151t-78.5 -131l-37 32q42 57 64 116.5t24 131.5v105h54v-103z" />
<glyph unicode="&#x110;" horiz-adv-x="1259" d="M230 0v713h-275v54h275v689h366q85 -2 158.5 -28t133.5 -70.5t106.5 -105t78.5 -130.5t49 -148t18 -157v-178q-1 -79 -18 -157t-49 -148t-78.5 -130.5t-106.5 -105t-133.5 -70.5t-158.5 -28h-366zM542 713h-260v-659h314q78 2 144 26t120 65t96 96.5t70.5 120t43.5 135 t16 142.5v181q-2 107 -35 210t-95.5 185t-153 133t-206.5 54h-314v-635h260v-54z" />
<glyph unicode="&#x111;" horiz-adv-x="1259" d="M1190 1281h-185v-1281h-54v162q-28 -44 -67.5 -77.5t-86 -57t-96.5 -35.5t-99 -12q-78 0 -140 23.5t-109 63.5t-80.5 94t-54.5 115t-31.5 126.5t-10.5 128.5v21q0 64 10 129.5t31.5 126.5t55 115t80.5 93.5t109.5 62.5t141.5 23q53 0 103.5 -14.5t95.5 -41.5t83 -65 t65 -85v385h-348v54h348v201h54v-201h185v-54zM232 531q0 -55 8 -113.5t25.5 -113.5t46 -104t69 -86t95 -58.5t125.5 -21.5q53 0 106.5 14.5t100.5 42.5t84.5 69.5t58.5 94.5v535q-19 58 -54 105.5t-80.5 81.5t-100 52.5t-113.5 18.5q-71 0 -125.5 -21.5t-96 -58 t-69.5 -85.5t-45.5 -104t-26 -113.5t-8.5 -113.5v-21z" />
<glyph unicode="&#x112;" d="M950 722h-677v-668h772v-54h-825v1456h825v-54h-772v-626h677v-54zM829 1733h-627v53h627v-53z" />
<glyph unicode="&#x113;" d="M658 -20q-111 0 -201.5 44.5t-155 119.5t-100.5 172t-37 202v44q1 101 34 198t94 173t148 122.5t197 46.5q98 0 177 -37t134.5 -100.5t85.5 -147.5t31 -177v-63h-847v-15v-44q1 -93 33 -180.5t89.5 -155t138 -108t179.5 -41.5q101 -1 185.5 35t149.5 114l39 -27 q-69 -90 -165.5 -132.5t-208.5 -42.5zM637 1048q-90 0 -162 -34.5t-124.5 -92.5t-85 -133.5t-42.5 -156.5h788v13q0 80 -27.5 153t-76.5 129t-118 89t-152 33zM932 1412h-627v53h627v-53z" />
<glyph unicode="&#x114;" d="M950 722h-677v-668h772v-54h-825v1456h825v-54h-772v-626h677v-54zM805 1810q-3 -59 -25 -105t-59 -78t-86.5 -48.5t-107.5 -16.5t-107.5 16.5t-86.5 48.5t-59.5 78t-25.5 105h54q3 -49 20.5 -85t47 -60t69.5 -35.5t88 -11.5q46 0 86 12t69.5 36t47.5 60t21 84h54z" />
<glyph unicode="&#x115;" d="M658 -20q-111 0 -201.5 44.5t-155 119.5t-100.5 172t-37 202v44q1 101 34 198t94 173t148 122.5t197 46.5q98 0 177 -37t134.5 -100.5t85.5 -147.5t31 -177v-63h-847v-15v-44q1 -93 33 -180.5t89.5 -155t138 -108t179.5 -41.5q101 -1 185.5 35t149.5 114l39 -27 q-69 -90 -165.5 -132.5t-208.5 -42.5zM637 1048q-90 0 -162 -34.5t-124.5 -92.5t-85 -133.5t-42.5 -156.5h788v13q0 80 -27.5 153t-76.5 129t-118 89t-152 33zM908 1489q-3 -59 -25 -105t-59 -78t-86.5 -48.5t-107.5 -16.5t-107.5 16.5t-86.5 48.5t-59.5 78t-25.5 105h54 q3 -49 20.5 -85t47 -60t69.5 -35.5t88 -11.5q46 0 86 12t69.5 36t47.5 60t21 84h54z" />
<glyph unicode="&#x116;" d="M950 722h-677v-668h772v-54h-825v1456h825v-54h-772v-626h677v-54zM468 1716q0 22 16.5 39t40.5 17t41 -16.5t17 -39.5q-1 -23 -17.5 -39t-40.5 -16t-40.5 16t-16.5 39z" />
<glyph unicode="&#x117;" d="M658 -20q-111 0 -201.5 44.5t-155 119.5t-100.5 172t-37 202v44q1 101 34 198t94 173t148 122.5t197 46.5q98 0 177 -37t134.5 -100.5t85.5 -147.5t31 -177v-63h-847v-15v-44q1 -93 33 -180.5t89.5 -155t138 -108t179.5 -41.5q101 -1 185.5 35t149.5 114l39 -27 q-69 -90 -165.5 -132.5t-208.5 -42.5zM637 1048q-90 0 -162 -34.5t-124.5 -92.5t-85 -133.5t-42.5 -156.5h788v13q0 80 -27.5 153t-76.5 129t-118 89t-152 33zM571 1396q0 22 16.5 39t40.5 17t41 -16.5t17 -39.5q-1 -23 -17.5 -39t-40.5 -16t-40.5 16t-16.5 39z" />
<glyph unicode="&#x118;" d="M950 722h-677v-668h772v-54h-131q-29 -22 -63.5 -48t-64.5 -56t-50.5 -65.5t-20.5 -76.5q1 -45 28 -69.5t72 -25.5q32 -1 61 10t55 28l16 -48q-30 -21 -62.5 -32.5t-69.5 -11.5q-34 0 -62.5 10.5t-48.5 29.5t-31.5 46.5t-11.5 62.5q0 39 17.5 74t44.5 65.5t59 57t62 49.5 h-624v1456h825v-54h-772v-626h677v-54z" />
<glyph unicode="&#x119;" d="M658 -20q-111 0 -201.5 44.5t-155 119.5t-100.5 172t-37 202v44q1 101 34 198t94 173t148 122.5t197 46.5q98 0 177 -37t134.5 -100.5t85.5 -147.5t31 -177v-63h-847v-15v-44q1 -93 33 -180.5t89.5 -155t138 -108t179.5 -41.5q101 -1 185.5 35t149.5 114l39 -27 q-49 -63 -115 -105h1q-29 -22 -63.5 -48t-64.5 -56t-50.5 -65.5t-20.5 -76.5q1 -45 28 -69.5t72 -25.5q32 -1 61 10t55 28l16 -48q-30 -21 -62.5 -32.5t-69.5 -11.5q-34 0 -62.5 10.5t-48.5 29.5t-31.5 46.5t-11.5 62.5q0 28 9 53.5t24.5 49t36 45t42.5 41.5 q-29 -6 -58.5 -9.5t-60.5 -3.5zM637 1048q-90 0 -162 -34.5t-124.5 -92.5t-85 -133.5t-42.5 -156.5h788v13q0 80 -27.5 153t-76.5 129t-118 89t-152 33z" />
<glyph unicode="&#x11a;" d="M950 722h-677v-668h772v-54h-825v1456h825v-54h-772v-626h677v-54zM527 1623l194 217h53v-13l-218 -250h-59l-220 252v11h57z" />
<glyph unicode="&#x11b;" d="M658 -20q-111 0 -201.5 44.5t-155 119.5t-100.5 172t-37 202v44q1 101 34 198t94 173t148 122.5t197 46.5q98 0 177 -37t134.5 -100.5t85.5 -147.5t31 -177v-63h-847v-15v-44q1 -93 33 -180.5t89.5 -155t138 -108t179.5 -41.5q101 -1 185.5 35t149.5 114l39 -27 q-69 -90 -165.5 -132.5t-208.5 -42.5zM637 1048q-90 0 -162 -34.5t-124.5 -92.5t-85 -133.5t-42.5 -156.5h788v13q0 80 -27.5 153t-76.5 129t-118 89t-152 33zM630 1302l194 217h53v-13l-218 -250h-59l-220 252v11h57z" />
<glyph unicode="&#x11c;" d="M1079 156q-40 -49 -91.5 -82.5t-109.5 -54.5t-120 -30t-123 -9q-85 1 -154.5 28t-124.5 73t-96 108t-68.5 133t-41.5 147t-15 151v238q1 72 14.5 145.5t40 142t66.5 128.5t93.5 105t121 71t149.5 26q93 0 171.5 -31t138 -86.5t97.5 -131t50 -165.5h-53q-17 78 -51 144 t-84.5 114t-117.5 75t-151 27q-74 0 -134.5 -24t-108 -65t-82.5 -96t-58 -117.5t-35 -129t-13 -130.5v-240q1 -67 13 -136.5t36 -134t60 -122t85.5 -100t112 -67.5t139.5 -26q52 -1 107 6t107 24t97.5 45.5t79.5 71.5v424h-394v55h446zM884 1614v-10h-68l-187 196l-185 -196 h-64v14l230 239h40z" />
<glyph unicode="&#x11d;" d="M178 552q0 64 10 129.5t31.5 126.5t55 115t80.5 93.5t109.5 62.5t141.5 23q52 0 102.5 -14.5t95.5 -41.5t83 -65t65 -84v185h55v-1067q-1 -93 -28 -175t-79 -143.5t-127.5 -97t-174.5 -35.5q-109 0 -198.5 48.5t-155.5 133.5l38 36q61 -74 138 -119.5t176 -45.5 q88 0 154.5 31t111 85t67 126.5t23.5 155.5v145q-28 -43 -67.5 -76.5t-85.5 -56.5t-96 -35t-99 -12q-78 0 -139.5 23.5t-109 63.5t-81 94t-54.5 115t-31.5 126.5t-10.5 128.5v21zM233 531q1 -55 9 -113.5t25.5 -113.5t45.5 -104t69 -86t95.5 -58.5t125.5 -21.5q54 0 108 15 t101.5 44t84 71.5t55.5 97.5v521q-18 59 -52 107.5t-79.5 83.5t-100.5 54.5t-115 19.5q-71 0 -126 -21.5t-96 -58t-69.5 -85t-46 -103.5t-26 -113.5t-8.5 -114.5v-21zM895 1272v-10h-68l-187 196l-185 -196h-64v14l230 239h40z" />
<glyph unicode="&#x11e;" d="M1079 156q-40 -49 -91.5 -82.5t-109.5 -54.5t-120 -30t-123 -9q-85 1 -154.5 28t-124.5 73t-96 108t-68.5 133t-41.5 147t-15 151v238q1 72 14.5 145.5t40 142t66.5 128.5t93.5 105t121 71t149.5 26q93 0 171.5 -31t138 -86.5t97.5 -131t50 -165.5h-53q-17 78 -51 144 t-84.5 114t-117.5 75t-151 27q-74 0 -134.5 -24t-108 -65t-82.5 -96t-58 -117.5t-35 -129t-13 -130.5v-240q1 -67 13 -136.5t36 -134t60 -122t85.5 -100t112 -67.5t139.5 -26q52 -1 107 6t107 24t97.5 45.5t79.5 71.5v424h-394v55h446zM904 1831q-3 -59 -25 -105t-59 -78 t-86.5 -48.5t-107.5 -16.5t-107.5 16.5t-86.5 48.5t-59.5 78t-25.5 105h54q3 -49 20.5 -85t47 -60t69.5 -35.5t88 -11.5q46 0 86 12t69.5 36t47.5 60t21 84h54z" />
<glyph unicode="&#x11f;" d="M178 552q0 64 10 129.5t31.5 126.5t55 115t80.5 93.5t109.5 62.5t141.5 23q52 0 102.5 -14.5t95.5 -41.5t83 -65t65 -84v185h55v-1067q-1 -93 -28 -175t-79 -143.5t-127.5 -97t-174.5 -35.5q-109 0 -198.5 48.5t-155.5 133.5l38 36q61 -74 138 -119.5t176 -45.5 q88 0 154.5 31t111 85t67 126.5t23.5 155.5v145q-28 -43 -67.5 -76.5t-85.5 -56.5t-96 -35t-99 -12q-78 0 -139.5 23.5t-109 63.5t-81 94t-54.5 115t-31.5 126.5t-10.5 128.5v21zM233 531q1 -55 9 -113.5t25.5 -113.5t45.5 -104t69 -86t95.5 -58.5t125.5 -21.5q54 0 108 15 t101.5 44t84 71.5t55.5 97.5v521q-18 59 -52 107.5t-79.5 83.5t-100.5 54.5t-115 19.5q-71 0 -126 -21.5t-96 -58t-69.5 -85t-46 -103.5t-26 -113.5t-8.5 -114.5v-21zM916 1488q-3 -59 -25 -105t-59 -78t-86.5 -48.5t-107.5 -16.5t-107.5 16.5t-86.5 48.5t-59.5 78 t-25.5 105h54q3 -49 20.5 -85t47 -60t69.5 -35.5t88 -11.5q46 0 86 12t69.5 36t47.5 60t21 84h54z" />
<glyph unicode="&#x120;" d="M1079 156q-40 -49 -91.5 -82.5t-109.5 -54.5t-120 -30t-123 -9q-85 1 -154.5 28t-124.5 73t-96 108t-68.5 133t-41.5 147t-15 151v238q1 72 14.5 145.5t40 142t66.5 128.5t93.5 105t121 71t149.5 26q93 0 171.5 -31t138 -86.5t97.5 -131t50 -165.5h-53q-17 78 -51 144 t-84.5 114t-117.5 75t-151 27q-74 0 -134.5 -24t-108 -65t-82.5 -96t-58 -117.5t-35 -129t-13 -130.5v-240q1 -67 13 -136.5t36 -134t60 -122t85.5 -100t112 -67.5t139.5 -26q52 -1 107 6t107 24t97.5 45.5t79.5 71.5v424h-394v55h446zM567 1737q0 22 16.5 39t40.5 17 t41 -16.5t17 -39.5q-1 -23 -17.5 -39t-40.5 -16t-40.5 16t-16.5 39z" />
<glyph unicode="&#x121;" d="M178 552q0 64 10 129.5t31.5 126.5t55 115t80.5 93.5t109.5 62.5t141.5 23q52 0 102.5 -14.5t95.5 -41.5t83 -65t65 -84v185h55v-1067q-1 -93 -28 -175t-79 -143.5t-127.5 -97t-174.5 -35.5q-109 0 -198.5 48.5t-155.5 133.5l38 36q61 -74 138 -119.5t176 -45.5 q88 0 154.5 31t111 85t67 126.5t23.5 155.5v145q-28 -43 -67.5 -76.5t-85.5 -56.5t-96 -35t-99 -12q-78 0 -139.5 23.5t-109 63.5t-81 94t-54.5 115t-31.5 126.5t-10.5 128.5v21zM233 531q1 -55 9 -113.5t25.5 -113.5t45.5 -104t69 -86t95.5 -58.5t125.5 -21.5q54 0 108 15 t101.5 44t84 71.5t55.5 97.5v521q-18 59 -52 107.5t-79.5 83.5t-100.5 54.5t-115 19.5q-71 0 -126 -21.5t-96 -58t-69.5 -85t-46 -103.5t-26 -113.5t-8.5 -114.5v-21zM579 1395q0 22 16.5 39t40.5 17t41 -16.5t17 -39.5q-1 -23 -17.5 -39t-40.5 -16t-40.5 16t-16.5 39z" />
<glyph unicode="&#x122;" d="M1079 156q-40 -49 -91.5 -82.5t-109.5 -54.5t-120 -30t-123 -9q-85 1 -154.5 28t-124.5 73t-96 108t-68.5 133t-41.5 147t-15 151v238q1 72 14.5 145.5t40 142t66.5 128.5t93.5 105t121 71t149.5 26q93 0 171.5 -31t138 -86.5t97.5 -131t50 -165.5h-53q-17 78 -51 144 t-84.5 114t-117.5 75t-151 27q-74 0 -134.5 -24t-108 -65t-82.5 -96t-58 -117.5t-35 -129t-13 -130.5v-240q1 -67 13 -136.5t36 -134t60 -122t85.5 -100t112 -67.5t139.5 -26q52 -1 107 6t107 24t97.5 45.5t79.5 71.5v424h-394v55h446zM660 -175q-2 -69 -22 -129t-64 -113 l-37 32q33 49 50.5 98.5t18.5 109.5v79h54v-77z" />
<glyph unicode="&#x123;" d="M178 552q0 64 10 129.5t31.5 126.5t55 115t80.5 93.5t109.5 62.5t141.5 23q52 0 102.5 -14.5t95.5 -41.5t83 -65t65 -84v185h55v-1067q-1 -93 -28 -175t-79 -143.5t-127.5 -97t-174.5 -35.5q-109 0 -198.5 48.5t-155.5 133.5l38 36q61 -74 138 -119.5t176 -45.5 q88 0 154.5 31t111 85t67 126.5t23.5 155.5v145q-28 -43 -67.5 -76.5t-85.5 -56.5t-96 -35t-99 -12q-78 0 -139.5 23.5t-109 63.5t-81 94t-54.5 115t-31.5 126.5t-10.5 128.5v21zM233 531q1 -55 9 -113.5t25.5 -113.5t45.5 -104t69 -86t95.5 -58.5t125.5 -21.5q54 0 108 15 t101.5 44t84 71.5t55.5 97.5v521q-18 59 -52 107.5t-79.5 83.5t-100.5 54.5t-115 19.5q-71 0 -126 -21.5t-96 -58t-69.5 -85t-46 -103.5t-26 -113.5t-8.5 -114.5v-21zM677 1402q2 53 17.5 98t41.5 90l44 -16q-20 -41 -34 -81.5t-15 -86.5v-132h-54v128z" />
<glyph unicode="&#x124;" d="M1052 0h-51v722h-772v-722h-51v1456h51v-680h772v680h51v-1456zM869 1593v-10h-68l-187 196l-185 -196h-64v14l230 239h40z" />
<glyph unicode="&#x125;" d="M268 821q26 60 66 111.5t91.5 89t113.5 59t133 21.5q93 0 161 -30t112 -83.5t65.5 -127.5t22.5 -161v-700h-55v700q-1 76 -18.5 140.5t-55 111t-95.5 72.5t-140 25q-73 -1 -139 -29t-119.5 -75t-90.5 -110t-52 -133v-702h-55v1536h55v-715zM556 1592v-10h-68l-187 196 l-185 -196h-64v14l230 239h40z" />
<glyph unicode="&#x126;" d="M1045 1081h150v-53h-150v-1028h-51v722h-772v-722h-51v1028h-123v53h123v375h51v-375h772v375h51v-375zM222 776h772v252h-772v-252z" />
<glyph unicode="&#x127;" horiz-adv-x="1259" d="M608 1281h-310v-460q26 60 66 111.5t91.5 89t113.5 59t133 21.5q93 0 161 -30t112 -83.5t65.5 -127.5t22.5 -161v-700h-55v700q-1 76 -18.5 140.5t-55 111t-95.5 72.5t-140 25q-73 -1 -139 -29t-119.5 -75t-90.5 -110t-52 -133v-702h-55v1281h-222v54h222v201h55v-201 h310v-54z" />
<glyph unicode="&#x128;" d="M212 1456h806v-56h-381v-1346h381v-54h-806v54h367v1346h-367v56zM940 1806q-2 -37 -14 -70.5t-34 -59t-52.5 -41t-70.5 -15.5q-29 0 -53 9.5t-46 23.5t-42.5 30t-42 30t-45 23t-50.5 9q-29 0 -50 -10t-35 -27t-22 -39.5t-11 -48.5h-54q2 37 14.5 69.5t34 57t52.5 38.5 t71 14q42 0 76 -19.5t65.5 -43t64 -42.5t73.5 -19q29 0 50 11t35 29t21.5 41.5t10.5 49.5h54z" />
<glyph unicode="&#x129;" d="M239 1082h451v-1028h384v-54h-835v54h397v974h-397v54zM968 1526q-2 -37 -14 -70.5t-34 -59t-52.5 -41t-70.5 -15.5q-29 0 -53 9.5t-46 23.5t-42.5 30t-42 30t-45 23t-50.5 9q-29 0 -50 -10t-35 -27t-22 -39.5t-11 -48.5h-54q2 37 14.5 69.5t34 57t52.5 38.5t71 14 q42 0 76 -19.5t65.5 -43t64 -42.5t73.5 -19q29 0 50 11t35 29t21.5 41.5t10.5 49.5h54z" />
<glyph unicode="&#x12a;" d="M212 1456h806v-56h-381v-1346h381v-54h-806v54h367v1346h-367v56zM934 1733h-627v53h627v-53z" />
<glyph unicode="&#x12b;" d="M239 1082h451v-1028h384v-54h-835v54h397v974h-397v54zM962 1453h-627v53h627v-53z" />
<glyph unicode="&#x12c;" d="M212 1456h806v-56h-381v-1346h381v-54h-806v54h367v1346h-367v56zM910 1810q-3 -59 -25 -105t-59 -78t-86.5 -48.5t-107.5 -16.5t-107.5 16.5t-86.5 48.5t-59.5 78t-25.5 105h54q3 -49 20.5 -85t47 -60t69.5 -35.5t88 -11.5q46 0 86 12t69.5 36t47.5 60t21 84h54z" />
<glyph unicode="&#x12d;" d="M239 1082h451v-1028h384v-54h-835v54h397v974h-397v54zM938 1530q-3 -59 -25 -105t-59 -78t-86.5 -48.5t-107.5 -16.5t-107.5 16.5t-86.5 48.5t-59.5 78t-25.5 105h54q3 -49 20.5 -85t47 -60t69.5 -35.5t88 -11.5q46 0 86 12t69.5 36t47.5 60t21 84h54z" />
<glyph unicode="&#x12e;" d="M212 1456h806v-56h-381v-1346h381v-54h-294q-29 -22 -63.5 -48t-64.5 -56t-50.5 -65.5t-20.5 -76.5q1 -45 28 -69.5t72 -25.5q32 -1 61 10t55 28l16 -48q-30 -21 -62.5 -32.5t-69.5 -11.5q-34 0 -62.5 10.5t-48.5 29.5t-31.5 46.5t-11.5 62.5q0 39 17.5 74t44.5 65.5 t59 57t62 49.5h-442v54h367v1346h-367v56z" />
<glyph unicode="&#x12f;" d="M239 1082h451v-1028h384v-54h-384q-29 -22 -63.5 -48t-64.5 -56t-50.5 -65.5t-20.5 -76.5q1 -45 28 -69.5t72 -25.5q32 -1 61 10t55 28l16 -48q-30 -21 -62.5 -32.5t-69.5 -11.5q-34 0 -62.5 10.5t-48.5 29.5t-31.5 46.5t-11.5 62.5q0 39 17.5 74t44.5 65.5t59 57 t62 49.5h-381v54h397v974h-397v54zM590 1390q0 14 3 27.5t11 24t21.5 16.5t34.5 6q20 0 33.5 -6t22 -16.5t12 -24t3.5 -27.5q0 -27 -15.5 -49t-55.5 -22q-41 0 -55.5 22t-14.5 49z" />
<glyph unicode="&#x130;" d="M212 1456h806v-56h-381v-1346h381v-54h-806v54h367v1346h-367v56zM573 1716q0 22 16.5 39t40.5 17t41 -16.5t17 -39.5q-1 -23 -17.5 -39t-40.5 -16t-40.5 16t-16.5 39z" />
<glyph unicode="&#x131;" d="M239 1082h451v-1028h384v-54h-835v54h397v974h-397v54z" />
<glyph unicode="&#x132;" d="M203 0h-54v1456h54v-1456zM1036 1456h54v-1115q0 -85 -21 -152t-64 -113t-108.5 -70.5t-155.5 -24.5q-77 0 -140.5 20.5t-109 62.5t-70.5 106t-25 151h54q0 -151 75.5 -218.5t215.5 -67.5q89 0 146 23.5t90 65t46 97t13 120.5v1115z" />
<glyph unicode="&#x133;" d="M677 1082h323v-1076q0 -99 -26.5 -181t-77.5 -140t-124 -90t-166 -32q-29 0 -54 1t-49 3t-48.5 5t-52.5 8l4 48q19 -3 46.5 -5.5t55 -4t53 -2t41.5 -0.5q68 0 130.5 20.5t110 67t75.5 120.5t28 182v1022h-269v54zM130 1082h333v-1028h210v-54h-543v54h279v974h-279v54z M893 1391q0 14 3 27.5t11.5 24t22 16.5t34.5 6q20 0 33.5 -6t22 -16.5t12 -24t3.5 -27.5q0 -27 -15.5 -49t-55.5 -22q-42 0 -56.5 22t-14.5 49zM363 1390q0 14 3 27.5t11 24t21.5 16.5t34.5 6q20 0 33.5 -6t22 -16.5t12 -24t3.5 -27.5q0 -27 -15.5 -49t-55.5 -22 q-41 0 -55.5 22t-14.5 49z" />
<glyph unicode="&#x134;" d="M947 1456h55v-1014q-2 -95 -34 -178.5t-89 -146.5t-137 -100t-178 -37q-97 0 -175.5 30t-135.5 85.5t-89.5 133t-38.5 172.5h55q4 -84 32.5 -152t78 -116t119 -74t154.5 -25q86 1 156 33.5t120 88t78 129.5t30 157zM1231 1563v-10h-68l-187 196l-185 -196h-64v14l230 239 h40z" />
<glyph unicode="&#x135;" d="M271 1082h514v-1076q0 -99 -26.5 -181t-77.5 -140t-124 -90t-166 -32q-29 0 -54 1t-49 3t-48.5 5t-52.5 8l4 48q19 -3 46.5 -5.5t55 -4t53 -2t41.5 -0.5q68 0 130.5 20.5t110 67t75.5 120.5t28 182v1022h-460v54zM1013 1358v-10h-68l-187 196l-185 -196h-64v14l230 239 h40z" />
<glyph unicode="&#x136;" d="M494 764l-213 -211v-553h-52v1456h52v-839l217 230l557 609h74l-597 -654l643 -802h-67zM594 -65q-2 -69 -22 -129t-64 -113l-37 32q33 49 50.5 98.5t18.5 109.5v79h54v-77z" />
<glyph unicode="&#x137;" d="M483 586l-4 -3l-167 -136v-447h-55v1536h55v-1031l137 122l524 455h80l-528 -460l561 -622h-72zM540 -61q-2 -69 -22 -129t-64 -113l-37 32q33 49 50.5 98.5t18.5 109.5v79h54v-77z" />
<glyph unicode="&#x138;" d="M489 533l-193 -179v-354h-55v1082h55v-659l183 179l499 480h70l-519 -510l583 -572h-74z" />
<glyph unicode="&#x139;" d="M297 54h770v-54h-825v1456h55v-1402zM418 1772h66l-191 -266h-59z" />
<glyph unicode="&#x13a;" d="M239 1536h455v-1482h380v-54h-835v54h401v1428h-401v54zM773 1905h66l-191 -266h-59z" />
<glyph unicode="&#x13b;" d="M297 54h770v-54h-825v1456h55v-1402zM589 -165q-2 -69 -22 -129t-64 -113l-37 32q33 49 50.5 98.5t18.5 109.5v79h54v-77z" />
<glyph unicode="&#x13c;" d="M239 1536h455v-1482h380v-54h-835v54h401v1428h-401v54zM697 -164q-2 -69 -22 -129t-64 -113l-37 32q33 49 50.5 98.5t18.5 109.5v79h54v-77z" />
<glyph unicode="&#x13d;" d="M297 54h770v-54h-825v1456h55v-1402zM765 1352q-2 -80 -26.5 -151t-78.5 -131l-37 32q42 57 64 116.5t24 131.5v105h54v-103z" />
<glyph unicode="&#x13e;" horiz-adv-x="1379" d="M239 1536h455v-1482h380v-54h-835v54h401v1428h-401v54zM1060 1435q-2 -80 -26.5 -151t-78.5 -131l-37 32q42 57 64 116.5t24 131.5v105h54v-103z" />
<glyph unicode="&#x13f;" d="M297 54h770v-54h-825v1456h55v-1402zM533 757q0 22 16.5 39t40.5 17t41 -16.5t17 -39.5q-1 -23 -17.5 -39t-40.5 -16t-40.5 16t-16.5 39z" />
<glyph unicode="&#x140;" horiz-adv-x="1449" d="M239 1536h455v-1482h380v-54h-835v54h401v1428h-401v54zM847 826q0 22 16.5 39t40.5 17t41 -16.5t17 -39.5q-1 -23 -17.5 -39t-40.5 -16t-40.5 16t-16.5 39z" />
<glyph unicode="&#x141;" d="M337 801l326 101v-57l-326 -101v-690h770v-54h-825v727l-225 -69v57l225 69v672h55v-655z" />
<glyph unicode="&#x142;" d="M694 842l397 88l-6 -59l-391 -86v-731h380v-54h-835v54h401v719l-402 -89l6 59l396 87v652h-401v54h455v-694z" />
<glyph unicode="&#x143;" d="M1051 0h-50l-772 1364l2 -1364h-51v1456h50l771 -1361l-2 1361h52v-1456zM780 1835h66l-191 -266h-59z" />
<glyph unicode="&#x144;" d="M267 822q26 60 65.5 111.5t91 88.5t113.5 58.5t133 21.5q93 0 160.5 -30t111.5 -83.5t65 -127.5t22 -161l1 -700h-55v700q-1 76 -18.5 140.5t-54.5 111t-95 72.5t-140 25q-73 -1 -139 -29t-119 -75t-90 -110t-52 -133v-702h-55v1082h55v-260v0zM756 1514h66l-191 -266 h-59z" />
<glyph unicode="&#x145;" d="M1051 0h-50l-772 1364l2 -1364h-51v1456h50l771 -1361l-2 1361h52v-1456zM663 -165q-2 -69 -22 -129t-64 -113l-37 32q33 49 50.5 98.5t18.5 109.5v79h54v-77z" />
<glyph unicode="&#x146;" d="M267 822q26 60 65.5 111.5t91 88.5t113.5 58.5t133 21.5q93 0 160.5 -30t111.5 -83.5t65 -127.5t22 -161l1 -700h-55v700q-1 76 -18.5 140.5t-54.5 111t-95 72.5t-140 25q-73 -1 -139 -29t-119 -75t-90 -110t-52 -133v-702h-55v1082h55v-260v0zM643 -165q-2 -69 -22 -129 t-64 -113l-37 32q33 49 50.5 98.5t18.5 109.5v79h54v-77z" />
<glyph unicode="&#x147;" d="M1051 0h-50l-772 1364l2 -1364h-51v1456h50l771 -1361l-2 1361h52v-1456zM631 1623l194 217h53v-13l-218 -250h-59l-220 252v11h57z" />
<glyph unicode="&#x148;" d="M267 822q26 60 65.5 111.5t91 88.5t113.5 58.5t133 21.5q93 0 160.5 -30t111.5 -83.5t65 -127.5t22 -161l1 -700h-55v700q-1 76 -18.5 140.5t-54.5 111t-95 72.5t-140 25q-73 -1 -139 -29t-119 -75t-90 -110t-52 -133v-702h-55v1082h55v-260v0zM608 1301l194 217h53v-13 l-218 -250h-59l-220 252v11h57z" />
<glyph unicode="&#x149;" d="M267 822q26 60 65.5 111.5t91 88.5t113.5 58.5t133 21.5q93 0 160.5 -30t111.5 -83.5t65 -127.5t22 -161l1 -700h-55v700q-1 76 -18.5 140.5t-54.5 111t-95 72.5t-140 25q-73 -1 -139 -29t-119 -75t-90 -110t-52 -133v-702h-55v1082h55v-260v0zM221 1433 q-2 -80 -26.5 -151t-78.5 -131l-37 32q42 57 64 116.5t24 131.5v105h54v-103z" />
<glyph unicode="&#x14a;" d="M1035 1456l1 -1545q0 -56 -10.5 -117t-36.5 -112.5t-70.5 -85t-113.5 -33.5q-25 0 -48 6t-46 14l12 52q20 -7 40 -12.5t42 -5.5q56 0 90.5 29.5t53.5 74t26 96t8 94.5v96l-739 1340v-1347h-51v1456h51v-7l739 -1338l1 1345h51z" />
<glyph unicode="&#x14b;" d="M278 843q23 56 57 103.5t80 82t105.5 54t133.5 19.5q102 0 170 -39t108.5 -104t57.5 -149t18 -173v-726q-1 -68 -17.5 -130.5t-51 -110.5t-88 -77.5t-128.5 -29.5q-34 0 -67 5.5t-66 14.5l13 52q29 -8 59 -13.5t61 -5.5q63 0 106.5 25.5t71 67t40 94.5t13.5 108v728 q-1 75 -14.5 148.5t-47.5 131.5t-91.5 93.5t-145.5 35.5q-89 0 -155 -31.5t-111.5 -84t-72.5 -121.5t-38 -145v-666h-54v1082h48l6 -231v-8z" />
<glyph unicode="&#x14c;" d="M1086 619q-1 -71 -13 -146t-36 -146t-61.5 -134t-89.5 -110.5t-119.5 -75t-150.5 -27.5t-150.5 27.5t-120 75t-90.5 110.5t-62.5 134t-37 146t-13.5 146v218q1 71 13 146t36.5 146t62 134t90 110.5t119.5 75t151 27.5t151 -27.5t119.5 -75t90 -110.5t62 -134t36.5 -146 t13 -146v-218zM1033 839q-1 64 -11 132t-31 132.5t-54 122.5t-79.5 101.5t-107 69t-136.5 25.5t-136 -25.5t-106.5 -69t-79 -101.5t-53.5 -123t-31 -133t-11 -131v-220q1 -64 11 -132t31 -133t54 -123t79.5 -102t107 -69.5t136.5 -25.5t136.5 25.5t106.5 69.5t79 102t54 123 t30.5 133t10.5 132v220zM923 1754h-627v53h627v-53z" />
<glyph unicode="&#x14d;" d="M141 562q1 104 33 201.5t92 172.5t147.5 120.5t200.5 45.5t200.5 -45t148 -120t92.5 -172.5t33 -202.5v-42q-1 -104 -32.5 -201.5t-91.5 -172.5t-147.5 -120.5t-200.5 -45.5t-201 45t-148.5 120t-92.5 172.5t-33 202.5v42zM195 520q1 -92 29.5 -179.5t82 -155.5 t131.5 -109.5t178 -41.5t177 41.5t130.5 110t81.5 155.5t29 179v42q-1 91 -29.5 178.5t-82 155.5t-131.5 110t-177 42t-176.5 -42t-131 -110t-82 -155.5t-29.5 -178.5v-42zM919 1411h-627v53h627v-53z" />
<glyph unicode="&#x14e;" d="M1086 619q-1 -71 -13 -146t-36 -146t-61.5 -134t-89.5 -110.5t-119.5 -75t-150.5 -27.5t-150.5 27.5t-120 75t-90.5 110.5t-62.5 134t-37 146t-13.5 146v218q1 71 13 146t36.5 146t62 134t90 110.5t119.5 75t151 27.5t151 -27.5t119.5 -75t90 -110.5t62 -134t36.5 -146 t13 -146v-218zM1033 839q-1 64 -11 132t-31 132.5t-54 122.5t-79.5 101.5t-107 69t-136.5 25.5t-136 -25.5t-106.5 -69t-79 -101.5t-53.5 -123t-31 -133t-11 -131v-220q1 -64 11 -132t31 -133t54 -123t79.5 -102t107 -69.5t136.5 -25.5t136.5 25.5t106.5 69.5t79 102t54 123 t30.5 133t10.5 132v220zM898 1831q-3 -59 -25 -105t-59 -78t-86.5 -48.5t-107.5 -16.5t-107.5 16.5t-86.5 48.5t-59.5 78t-25.5 105h54q3 -49 20.5 -85t47 -60t69.5 -35.5t88 -11.5q46 0 86 12t69.5 36t47.5 60t21 84h54z" />
<glyph unicode="&#x14f;" d="M141 562q1 104 33 201.5t92 172.5t147.5 120.5t200.5 45.5t200.5 -45t148 -120t92.5 -172.5t33 -202.5v-42q-1 -104 -32.5 -201.5t-91.5 -172.5t-147.5 -120.5t-200.5 -45.5t-201 45t-148.5 120t-92.5 172.5t-33 202.5v42zM195 520q1 -92 29.5 -179.5t82 -155.5 t131.5 -109.5t178 -41.5t177 41.5t130.5 110t81.5 155.5t29 179v42q-1 91 -29.5 178.5t-82 155.5t-131.5 110t-177 42t-176.5 -42t-131 -110t-82 -155.5t-29.5 -178.5v-42zM894 1488q-3 -59 -25 -105t-59 -78t-86.5 -48.5t-107.5 -16.5t-107.5 16.5t-86.5 48.5t-59.5 78 t-25.5 105h54q3 -49 20.5 -85t47 -60t69.5 -35.5t88 -11.5q46 0 86 12t69.5 36t47.5 60t21 84h54z" />
<glyph unicode="&#x150;" d="M1086 619q-1 -71 -13 -146t-36 -146t-61.5 -134t-89.5 -110.5t-119.5 -75t-150.5 -27.5t-150.5 27.5t-120 75t-90.5 110.5t-62.5 134t-37 146t-13.5 146v218q1 71 13 146t36.5 146t62 134t90 110.5t119.5 75t151 27.5t151 -27.5t119.5 -75t90 -110.5t62 -134t36.5 -146 t13 -146v-218zM1033 839q-1 64 -11 132t-31 132.5t-54 122.5t-79.5 101.5t-107 69t-136.5 25.5t-136 -25.5t-106.5 -69t-79 -101.5t-53.5 -123t-31 -133t-11 -131v-220q1 -64 11 -132t31 -133t54 -123t79.5 -102t107 -69.5t136.5 -25.5t136.5 25.5t106.5 69.5t79 102t54 123 t30.5 133t10.5 132v220zM935 1876h82l-296 -304h-74zM648 1876h77l-249 -304h-70z" />
<glyph unicode="&#x151;" d="M141 562q1 104 33 201.5t92 172.5t147.5 120.5t200.5 45.5t200.5 -45t148 -120t92.5 -172.5t33 -202.5v-42q-1 -104 -32.5 -201.5t-91.5 -172.5t-147.5 -120.5t-200.5 -45.5t-201 45t-148.5 120t-92.5 172.5t-33 202.5v42zM195 520q1 -92 29.5 -179.5t82 -155.5 t131.5 -109.5t178 -41.5t177 41.5t130.5 110t81.5 155.5t29 179v42q-1 91 -29.5 178.5t-82 155.5t-131.5 110t-177 42t-176.5 -42t-131 -110t-82 -155.5t-29.5 -178.5v-42zM931 1534h82l-296 -304h-74zM644 1534h77l-249 -304h-70z" />
<glyph unicode="&#x152;" d="M1193 0h-489q-56 -6 -110.5 -9t-111.5 -2q-83 1 -145 30t-107.5 76t-75.5 108t-47.5 126t-25.5 129t-8 118v304q1 54 8 118t25 128.5t47.5 125.5t74.5 108t107 76t145 30q57 1 112.5 -1t111.5 -9h489v-54h-484v-626h418v-54h-418v-668h484v-54zM482 43q45 -1 89.5 -1 t89.5 5v1361q-45 5 -89.5 5t-90.5 -1q-75 -1 -131 -28t-95 -70.5t-64 -99t-39 -114t-19.5 -115.5t-5.5 -103v-306q0 -46 5.5 -103t20 -116t39.5 -115t64.5 -99.5t95 -71t130.5 -28.5z" />
<glyph unicode="&#x153;" d="M8 622q0 46 7 99.5t21.5 107t39 102.5t61 87t86.5 61t115 23q67 0 117 -23.5t87 -62.5t61 -90t39 -105q14 54 37.5 104.5t58.5 89.5t83 63t111 24q84 0 139.5 -36.5t88.5 -94.5t47 -129.5t15 -141.5l-3 -143h-549v-117q0 -36 5.5 -79.5t17.5 -88.5t31.5 -87.5t48.5 -75.5 t69 -53.5t92 -21.5q43 -1 78.5 9.5t65 26.5t54 36t45.5 39l27 -42q-26 -25 -55 -47.5t-62.5 -39.5t-71.5 -26.5t-81 -9.5q-62 1 -110 24.5t-83.5 62.5t-59.5 88.5t-39 102.5q-15 -54 -39 -104t-60.5 -89t-86.5 -62t-116 -23q-65 0 -115 22.5t-87 60.5t-61.5 87.5t-39.5 103 t-22 107t-7 99.5v162zM62 460q0 -38 5 -84.5t17 -94t32.5 -92t51.5 -79t73 -55.5t99 -21q56 0 98 21t72.5 55.5t50.5 79.5t32 92t17 93.5t5 84.5v162q0 38 -5.5 84.5t-17.5 93.5t-32.5 92t-51 79.5t-72.5 55.5t-98 21q-55 0 -97 -21t-73 -56t-51 -79.5t-32 -92t-17.5 -93.5 t-5.5 -84v-162zM670 611h501l1 81q2 48 -9 109.5t-38.5 116.5t-75 92.5t-117.5 37.5q-54 0 -94.5 -21.5t-69.5 -57t-48 -80.5t-30 -92t-15.5 -92.5t-4.5 -80.5v-13z" />
<glyph unicode="&#x154;" d="M707 623h-428v-623h-52v1456h395q90 -2 170 -32.5t139.5 -85.5t94 -131.5t34.5 -170.5q0 -76 -22.5 -137.5t-62.5 -110.5t-95.5 -86t-121.5 -63l357 -625v-14h-55zM279 677h387q74 2 136.5 31t107.5 77.5t70.5 113t25.5 137.5q0 83 -30.5 150t-82.5 114.5t-122.5 73.5 t-149.5 28h-342v-725zM711 1835h66l-191 -266h-59z" />
<glyph unicode="&#x155;" d="M935 1102q36 0 72 -4.5t69 -11.5l-6 -51q-29 5 -64.5 9.5t-70.5 4.5q-83 0 -161.5 -18.5t-143 -61t-112 -111t-69.5 -167.5l3 -691h-62v1082h53l6 -188v-69q60 133 185 205.5t301 71.5zM730 1514h66l-191 -266h-59z" />
<glyph unicode="&#x156;" d="M707 623h-428v-623h-52v1456h395q90 -2 170 -32.5t139.5 -85.5t94 -131.5t34.5 -170.5q0 -76 -22.5 -137.5t-62.5 -110.5t-95.5 -86t-121.5 -63l357 -625v-14h-55zM279 677h387q74 2 136.5 31t107.5 77.5t70.5 113t25.5 137.5q0 83 -30.5 150t-82.5 114.5t-122.5 73.5 t-149.5 28h-342v-725zM562 -165q-2 -69 -22 -129t-64 -113l-37 32q33 49 50.5 98.5t18.5 109.5v79h54v-77z" />
<glyph unicode="&#x157;" d="M935 1102q36 0 72 -4.5t69 -11.5l-6 -51q-29 5 -64.5 9.5t-70.5 4.5q-83 0 -161.5 -18.5t-143 -61t-112 -111t-69.5 -167.5l3 -691h-62v1082h53l6 -188v-69q60 133 185 205.5t301 71.5zM447 -156q-2 -69 -22 -129t-64 -113l-37 32q33 49 50.5 98.5t18.5 109.5v79h54v-77z " />
<glyph unicode="&#x158;" d="M707 623h-428v-623h-52v1456h395q90 -2 170 -32.5t139.5 -85.5t94 -131.5t34.5 -170.5q0 -76 -22.5 -137.5t-62.5 -110.5t-95.5 -86t-121.5 -63l357 -625v-14h-55zM279 677h387q74 2 136.5 31t107.5 77.5t70.5 113t25.5 137.5q0 83 -30.5 150t-82.5 114.5t-122.5 73.5 t-149.5 28h-342v-725zM563 1623l194 217h53v-13l-218 -250h-59l-220 252v11h57z" />
<glyph unicode="&#x159;" d="M935 1102q36 0 72 -4.5t69 -11.5l-6 -51q-29 5 -64.5 9.5t-70.5 4.5q-83 0 -161.5 -18.5t-143 -61t-112 -111t-69.5 -167.5l3 -691h-62v1082h53l6 -188v-69q60 133 185 205.5t301 71.5zM582 1301l194 217h53v-13l-218 -250h-59l-220 252v11h57z" />
<glyph unicode="&#x15a;" d="M1044 349q1 86 -37 146.5t-97 102.5t-131.5 70.5t-141.5 49.5q-50 15 -102 34t-101 43t-92 54.5t-75 70t-50.5 89t-17.5 111.5q0 88 39.5 155t102.5 111.5t141.5 67t158.5 22.5q91 0 170.5 -29.5t138.5 -82.5t94.5 -129t39.5 -169h-53q-8 79 -39.5 144.5t-82.5 112.5 t-119 73t-149 26q-68 0 -137 -18t-125 -55t-91 -93.5t-36 -133.5q-1 -55 16.5 -99t47.5 -78.5t69.5 -61.5t84.5 -47.5t91.5 -36.5t90.5 -29q78 -23 157.5 -56t144 -81.5t105 -117.5t40.5 -164q0 -94 -39 -163.5t-102.5 -115.5t-144.5 -69t-166 -23q-95 0 -182 26.5 t-154 78.5t-109 128.5t-46 177.5h53q9 -89 46.5 -155.5t96 -111.5t134 -67.5t161.5 -22.5q73 0 144.5 18.5t127.5 56.5t90.5 97.5t34.5 142.5zM783 1856h66l-191 -266h-59z" />
<glyph unicode="&#x15b;" d="M1003 265q0 44 -17 79.5t-46 62.5t-66.5 47.5t-78.5 35t-81 25t-74 17.5q-41 9 -87 19.5t-90 26t-84.5 36.5t-70.5 51t-48 70.5t-17 93.5q0 50 18 89.5t47.5 70t69 52t83 35t88.5 20t86 6.5q76 0 149 -17t131.5 -54t96.5 -95.5t44 -142.5h-56q-2 69 -37 117.5t-88.5 79 t-117 44.5t-122.5 14q-50 0 -108.5 -10.5t-109.5 -35.5t-85 -66.5t-35 -104.5q-1 -46 16 -80t45.5 -59.5t66 -43.5t77.5 -31t80.5 -22t74.5 -16q64 -14 134.5 -35t130 -56t97.5 -89t38 -135q0 -53 -19 -94.5t-50 -73t-72.5 -54t-87 -36t-93 -20t-91.5 -6.5q-48 0 -98 6.5 t-97.5 21t-90 37.5t-75.5 55.5t-54 76t-25 98.5h55q8 -71 46.5 -117.5t93 -74t119.5 -38.5t126 -11q34 0 74 5t79.5 16.5t76.5 29t65.5 43.5t45.5 59.5t18 77.5zM799 1514h66l-191 -266h-59z" />
<glyph unicode="&#x15c;" d="M1044 349q1 86 -37 146.5t-97 102.5t-131.5 70.5t-141.5 49.5q-50 15 -102 34t-101 43t-92 54.5t-75 70t-50.5 89t-17.5 111.5q0 88 39.5 155t102.5 111.5t141.5 67t158.5 22.5q91 0 170.5 -29.5t138.5 -82.5t94.5 -129t39.5 -169h-53q-8 79 -39.5 144.5t-82.5 112.5 t-119 73t-149 26q-68 0 -137 -18t-125 -55t-91 -93.5t-36 -133.5q-1 -55 16.5 -99t47.5 -78.5t69.5 -61.5t84.5 -47.5t91.5 -36.5t90.5 -29q78 -23 157.5 -56t144 -81.5t105 -117.5t40.5 -164q0 -94 -39 -163.5t-102.5 -115.5t-144.5 -69t-166 -23q-95 0 -182 26.5 t-154 78.5t-109 128.5t-46 177.5h53q9 -89 46.5 -155.5t96 -111.5t134 -67.5t161.5 -22.5q73 0 144.5 18.5t127.5 56.5t90.5 97.5t34.5 142.5zM891 1614v-10h-68l-187 196l-185 -196h-64v14l230 239h40z" />
<glyph unicode="&#x15d;" d="M1003 265q0 44 -17 79.5t-46 62.5t-66.5 47.5t-78.5 35t-81 25t-74 17.5q-41 9 -87 19.5t-90 26t-84.5 36.5t-70.5 51t-48 70.5t-17 93.5q0 50 18 89.5t47.5 70t69 52t83 35t88.5 20t86 6.5q76 0 149 -17t131.5 -54t96.5 -95.5t44 -142.5h-56q-2 69 -37 117.5t-88.5 79 t-117 44.5t-122.5 14q-50 0 -108.5 -10.5t-109.5 -35.5t-85 -66.5t-35 -104.5q-1 -46 16 -80t45.5 -59.5t66 -43.5t77.5 -31t80.5 -22t74.5 -16q64 -14 134.5 -35t130 -56t97.5 -89t38 -135q0 -53 -19 -94.5t-50 -73t-72.5 -54t-87 -36t-93 -20t-91.5 -6.5q-48 0 -98 6.5 t-97.5 21t-90 37.5t-75.5 55.5t-54 76t-25 98.5h55q8 -71 46.5 -117.5t93 -74t119.5 -38.5t126 -11q34 0 74 5t79.5 16.5t76.5 29t65.5 43.5t45.5 59.5t18 77.5zM907 1272v-10h-68l-187 196l-185 -196h-64v14l230 239h40z" />
<glyph unicode="&#x15e;" d="M1044 349q1 86 -37 146.5t-97 102.5t-131.5 70.5t-141.5 49.5q-50 15 -102 34t-101 43t-92 54.5t-75 70t-50.5 89t-17.5 111.5q0 88 39.5 155t102.5 111.5t141.5 67t158.5 22.5q91 0 170.5 -29.5t138.5 -82.5t94.5 -129t39.5 -169h-53q-8 79 -39.5 144.5t-82.5 112.5 t-119 73t-149 26q-68 0 -137 -18t-125 -55t-91 -93.5t-36 -133.5q-1 -55 16.5 -99t47.5 -78.5t69.5 -61.5t84.5 -47.5t91.5 -36.5t90.5 -29q78 -23 157.5 -56t144 -81.5t105 -117.5t40.5 -164q0 -94 -39 -163.5t-102.5 -115.5t-144.5 -69t-166 -23q-95 0 -182 26.5 t-154 78.5t-109 128.5t-46 177.5h53q9 -89 46.5 -155.5t96 -111.5t134 -67.5t161.5 -22.5q73 0 144.5 18.5t127.5 56.5t90.5 97.5t34.5 142.5zM668 -9l-11 -76q36 -5 68.5 -17t56.5 -32.5t38 -50t14 -69.5q0 -56 -28 -92t-70.5 -57t-92.5 -30.5t-94 -10.5l-7 49 q33 1 73.5 7.5t76.5 22t61 42.5t26 69q1 39 -17.5 61.5t-47 35.5t-62 18t-62.5 9l25 121h53z" />
<glyph unicode="&#x15f;" d="M1003 265q0 44 -17 79.5t-46 62.5t-66.5 47.5t-78.5 35t-81 25t-74 17.5q-41 9 -87 19.5t-90 26t-84.5 36.5t-70.5 51t-48 70.5t-17 93.5q0 50 18 89.5t47.5 70t69 52t83 35t88.5 20t86 6.5q76 0 149 -17t131.5 -54t96.5 -95.5t44 -142.5h-56q-2 69 -37 117.5t-88.5 79 t-117 44.5t-122.5 14q-50 0 -108.5 -10.5t-109.5 -35.5t-85 -66.5t-35 -104.5q-1 -46 16 -80t45.5 -59.5t66 -43.5t77.5 -31t80.5 -22t74.5 -16q64 -14 134.5 -35t130 -56t97.5 -89t38 -135q0 -53 -19 -94.5t-50 -73t-72.5 -54t-87 -36t-93 -20t-91.5 -6.5q-48 0 -98 6.5 t-97.5 21t-90 37.5t-75.5 55.5t-54 76t-25 98.5h55q8 -71 46.5 -117.5t93 -74t119.5 -38.5t126 -11q34 0 74 5t79.5 16.5t76.5 29t65.5 43.5t45.5 59.5t18 77.5zM656 -4l-11 -76q36 -5 68.5 -17t56.5 -32.5t38 -50t14 -69.5q0 -56 -28 -92t-70.5 -57t-92.5 -30.5t-94 -10.5 l-7 49q33 1 73.5 7.5t76.5 22t61 42.5t26 69q1 39 -17.5 61.5t-47 35.5t-62 18t-62.5 9l25 121h53z" />
<glyph unicode="&#x160;" d="M1044 349q1 86 -37 146.5t-97 102.5t-131.5 70.5t-141.5 49.5q-50 15 -102 34t-101 43t-92 54.5t-75 70t-50.5 89t-17.5 111.5q0 88 39.5 155t102.5 111.5t141.5 67t158.5 22.5q91 0 170.5 -29.5t138.5 -82.5t94.5 -129t39.5 -169h-53q-8 79 -39.5 144.5t-82.5 112.5 t-119 73t-149 26q-68 0 -137 -18t-125 -55t-91 -93.5t-36 -133.5q-1 -55 16.5 -99t47.5 -78.5t69.5 -61.5t84.5 -47.5t91.5 -36.5t90.5 -29q78 -23 157.5 -56t144 -81.5t105 -117.5t40.5 -164q0 -94 -39 -163.5t-102.5 -115.5t-144.5 -69t-166 -23q-95 0 -182 26.5 t-154 78.5t-109 128.5t-46 177.5h53q9 -89 46.5 -155.5t96 -111.5t134 -67.5t161.5 -22.5q73 0 144.5 18.5t127.5 56.5t90.5 97.5t34.5 142.5zM634 1644l194 217h53v-13l-218 -250h-59l-220 252v11h57z" />
<glyph unicode="&#x161;" d="M1003 265q0 44 -17 79.5t-46 62.5t-66.5 47.5t-78.5 35t-81 25t-74 17.5q-41 9 -87 19.5t-90 26t-84.5 36.5t-70.5 51t-48 70.5t-17 93.5q0 50 18 89.5t47.5 70t69 52t83 35t88.5 20t86 6.5q76 0 149 -17t131.5 -54t96.5 -95.5t44 -142.5h-56q-2 69 -37 117.5t-88.5 79 t-117 44.5t-122.5 14q-50 0 -108.5 -10.5t-109.5 -35.5t-85 -66.5t-35 -104.5q-1 -46 16 -80t45.5 -59.5t66 -43.5t77.5 -31t80.5 -22t74.5 -16q64 -14 134.5 -35t130 -56t97.5 -89t38 -135q0 -53 -19 -94.5t-50 -73t-72.5 -54t-87 -36t-93 -20t-91.5 -6.5q-48 0 -98 6.5 t-97.5 21t-90 37.5t-75.5 55.5t-54 76t-25 98.5h55q8 -71 46.5 -117.5t93 -74t119.5 -38.5t126 -11q34 0 74 5t79.5 16.5t76.5 29t65.5 43.5t45.5 59.5t18 77.5zM650 1301l194 217h53v-13l-218 -250h-59l-220 252v11h57z" />
<glyph unicode="&#x162;" d="M1123 1402h-479v-1402h-54l2 1402h-480v54h1011v-54zM643 0l-11 -76q36 -5 68.5 -17t56.5 -32.5t38 -50t14 -69.5q0 -56 -28 -92t-70.5 -57t-92.5 -30.5t-94 -10.5l-7 49q33 1 73.5 7.5t76.5 22t61 42.5t26 69q1 39 -17.5 61.5t-47 35.5t-62 18t-62.5 9l25 121h53z" />
<glyph unicode="&#x163;" d="M573 1374l-1 -292h390v-55h-390v-768q2 -63 22.5 -105.5t56.5 -69t84.5 -38.5t106.5 -12q81 0 159 9l11 -51q-41 -8 -82 -10t-83 -2q-72 0 -132 14.5t-104 47.5t-69 86t-27 131v768h-318v55h318v292h58zM823 0l-11 -76q36 -5 68.5 -17t56.5 -32.5t38 -50t14 -69.5 q0 -56 -28 -92t-70.5 -57t-92.5 -30.5t-94 -10.5l-7 49q33 1 73.5 7.5t76.5 22t61 42.5t26 69q1 39 -17.5 61.5t-47 35.5t-62 18t-62.5 9l25 121h53z" />
<glyph unicode="&#x164;" d="M1123 1402h-479v-1402h-54l2 1402h-480v54h1011v-54zM618 1615l194 217h53v-13l-218 -250h-59l-220 252v11h57z" />
<glyph unicode="&#x165;" horiz-adv-x="1269" d="M573 1374l-1 -292h390v-55h-390v-768q2 -63 22.5 -105.5t56.5 -69t84.5 -38.5t106.5 -12q81 0 159 9l11 -51q-41 -8 -82 -10t-83 -2q-72 0 -132 14.5t-104 47.5t-69 86t-27 131v768h-318v55h318v292h58zM985 1456q-2 -80 -26.5 -151t-78.5 -131l-37 32q42 57 64 116.5 t24 131.5v105h54v-103z" />
<glyph unicode="&#x166;" d="M883 847h-239v-847h-54l1 847h-295v54h295l1 501h-480v54h1011v-54h-479v-501h239v-54z" />
<glyph unicode="&#x167;" d="M573 1374l-1 -292h390v-55h-390v-339h288v-54h-288v-375q2 -63 22.5 -105.5t56.5 -69t84.5 -38.5t106.5 -12q81 0 159 9l11 -51q-41 -8 -82 -10t-83 -2q-72 0 -132 14.5t-104 47.5t-69 86t-27 131v375h-242v54h242v339h-318v55h318v292h58z" />
<glyph unicode="&#x168;" d="M1054 1456l1 -987q-2 -97 -31.5 -185.5t-86 -156t-137.5 -107.5t-184 -40q-104 0 -185 40t-137 107.5t-86.5 156t-31.5 185.5l1 987h51l1 -987q1 -85 27.5 -163.5t76 -139t121 -96.5t162.5 -36t162 36.5t120 97t75 139t28 162.5l1 987h52zM920 1806q-2 -37 -14 -70.5 t-34 -59t-52.5 -41t-70.5 -15.5q-29 0 -53 9.5t-46 23.5t-42.5 30t-42 30t-45 23t-50.5 9q-29 0 -50 -10t-35 -27t-22 -39.5t-11 -48.5h-54q2 37 14.5 69.5t34 57t52.5 38.5t71 14q42 0 76 -19.5t65.5 -43t64 -42.5t73.5 -19q29 0 50 11t35 29t21.5 41.5t10.5 49.5h54z" />
<glyph unicode="&#x169;" d="M964 0l1 193q-52 -100 -148.5 -156.5t-235.5 -56.5q-94 0 -162.5 32t-113 87.5t-66.5 131.5t-23 164v687h54v-689q1 -75 19 -140t55.5 -114t95.5 -77t139 -28q78 0 143 20.5t114.5 59t82 94t46.5 125.5l-1 749h56v-1082h-56zM890 1487q-2 -37 -14 -70.5t-34 -59 t-52.5 -41t-70.5 -15.5q-29 0 -53 9.5t-46 23.5t-42.5 30t-42 30t-45 23t-50.5 9q-29 0 -50 -10t-35 -27t-22 -39.5t-11 -48.5h-54q2 37 14.5 69.5t34 57t52.5 38.5t71 14q42 0 76 -19.5t65.5 -43t64 -42.5t73.5 -19q29 0 50 11t35 29t21.5 41.5t10.5 49.5h54z" />
<glyph unicode="&#x16a;" d="M1054 1456l1 -987q-2 -97 -31.5 -185.5t-86 -156t-137.5 -107.5t-184 -40q-104 0 -185 40t-137 107.5t-86.5 156t-31.5 185.5l1 987h51l1 -987q1 -85 27.5 -163.5t76 -139t121 -96.5t162.5 -36t162 36.5t120 97t75 139t28 162.5l1 987h52zM915 1733h-627v53h627v-53z" />
<glyph unicode="&#x16b;" d="M964 0l1 193q-52 -100 -148.5 -156.5t-235.5 -56.5q-94 0 -162.5 32t-113 87.5t-66.5 131.5t-23 164v687h54v-689q1 -75 19 -140t55.5 -114t95.5 -77t139 -28q78 0 143 20.5t114.5 59t82 94t46.5 125.5l-1 749h56v-1082h-56zM885 1414h-627v53h627v-53z" />
<glyph unicode="&#x16c;" d="M1054 1456l1 -987q-2 -97 -31.5 -185.5t-86 -156t-137.5 -107.5t-184 -40q-104 0 -185 40t-137 107.5t-86.5 156t-31.5 185.5l1 987h51l1 -987q1 -85 27.5 -163.5t76 -139t121 -96.5t162.5 -36t162 36.5t120 97t75 139t28 162.5l1 987h52zM891 1810q-3 -59 -25 -105 t-59 -78t-86.5 -48.5t-107.5 -16.5t-107.5 16.5t-86.5 48.5t-59.5 78t-25.5 105h54q3 -49 20.5 -85t47 -60t69.5 -35.5t88 -11.5q46 0 86 12t69.5 36t47.5 60t21 84h54z" />
<glyph unicode="&#x16d;" d="M964 0l1 193q-52 -100 -148.5 -156.5t-235.5 -56.5q-94 0 -162.5 32t-113 87.5t-66.5 131.5t-23 164v687h54v-689q1 -75 19 -140t55.5 -114t95.5 -77t139 -28q78 0 143 20.5t114.5 59t82 94t46.5 125.5l-1 749h56v-1082h-56zM861 1491q-3 -59 -25 -105t-59 -78 t-86.5 -48.5t-107.5 -16.5t-107.5 16.5t-86.5 48.5t-59.5 78t-25.5 105h54q3 -49 20.5 -85t47 -60t69.5 -35.5t88 -11.5q46 0 86 12t69.5 36t47.5 60t21 84h54z" />
<glyph unicode="&#x16e;" d="M1054 1456l1 -987q-2 -97 -31.5 -185.5t-86 -156t-137.5 -107.5t-184 -40q-104 0 -185 40t-137 107.5t-86.5 156t-31.5 185.5l1 987h51l1 -987q1 -85 27.5 -163.5t76 -139t121 -96.5t162.5 -36t162 36.5t120 97t75 139t28 162.5l1 987h52zM449 1701q0 34 12 65.5t34 55.5 t52 38.5t65 14.5t65 -14.5t52 -38.5t34.5 -55.5t12.5 -65.5t-12.5 -65t-34.5 -54t-52 -37t-65 -14t-65 14t-51.5 37t-34 54t-12.5 65zM503 1701q0 -23 8 -44t22.5 -37t34.5 -25.5t44 -9.5t44.5 9.5t35 25.5t22.5 37t8 44q0 24 -8 45.5t-22.5 38t-34.5 26.5t-45 10 q-24 0 -44.5 -10t-34.5 -26.5t-22 -38t-8 -45.5z" />
<glyph unicode="&#x16f;" d="M964 0l1 193q-52 -100 -148.5 -156.5t-235.5 -56.5q-94 0 -162.5 32t-113 87.5t-66.5 131.5t-23 164v687h54v-689q1 -75 19 -140t55.5 -114t95.5 -77t139 -28q78 0 143 20.5t114.5 59t82 94t46.5 125.5l-1 749h56v-1082h-56zM419 1382q0 34 12 65.5t34 55.5t52 38.5 t65 14.5t65 -14.5t52 -38.5t34.5 -55.5t12.5 -65.5t-12.5 -65t-34.5 -54t-52 -37t-65 -14t-65 14t-51.5 37t-34 54t-12.5 65zM473 1382q0 -23 8 -44t22.5 -37t34.5 -25.5t44 -9.5t44.5 9.5t35 25.5t22.5 37t8 44q0 24 -8 45.5t-22.5 38t-34.5 26.5t-45 10q-24 0 -44.5 -10 t-34.5 -26.5t-22 -38t-8 -45.5z" />
<glyph unicode="&#x170;" d="M1054 1456l1 -987q-2 -97 -31.5 -185.5t-86 -156t-137.5 -107.5t-184 -40q-104 0 -185 40t-137 107.5t-86.5 156t-31.5 185.5l1 987h51l1 -987q1 -85 27.5 -163.5t76 -139t121 -96.5t162.5 -36t162 36.5t120 97t75 139t28 162.5l1 987h52zM927 1855h82l-296 -304h-74z M640 1855h77l-249 -304h-70z" />
<glyph unicode="&#x171;" d="M964 0l1 193q-52 -100 -148.5 -156.5t-235.5 -56.5q-94 0 -162.5 32t-113 87.5t-66.5 131.5t-23 164v687h54v-689q1 -75 19 -140t55.5 -114t95.5 -77t139 -28q78 0 143 20.5t114.5 59t82 94t46.5 125.5l-1 749h56v-1082h-56zM897 1536h82l-296 -304h-74zM610 1536h77 l-249 -304h-70z" />
<glyph unicode="&#x172;" d="M1054 1456l1 -987q-1 -72 -18 -139.5t-48.5 -126t-77 -105t-104.5 -75.5q-29 -21 -61.5 -46t-60.5 -54.5t-46 -63t-18 -72.5q1 -45 28 -69.5t72 -25.5q32 -1 61 10t55 28l16 -48q-30 -21 -62.5 -32.5t-69.5 -11.5q-34 0 -62.5 10.5t-48.5 29.5t-31.5 46.5t-11.5 62.5 q0 30 10.5 57t27.5 52t39 47.5t46 42.5q-36 -6 -74 -6q-104 0 -185 40t-137 107.5t-86.5 156t-31.5 185.5l1 987h51l1 -987q1 -85 27.5 -163.5t76 -139t121 -96.5t162.5 -36t162 36.5t120 97t75 139t28 162.5l1 987h52z" />
<glyph unicode="&#x173;" d="M1019 0q-29 -22 -63.5 -48t-64.5 -56t-50.5 -65.5t-20.5 -76.5q1 -45 28 -69.5t72 -25.5q32 -1 61 10t55 28l16 -48q-30 -21 -62.5 -32.5t-69.5 -11.5q-34 0 -62.5 10.5t-48.5 29.5t-31.5 46.5t-11.5 62.5q0 41 20 78t49 69t64 59.5t65 50.5l1 182 q-52 -100 -148.5 -156.5t-235.5 -56.5q-94 0 -162.5 32t-113 87.5t-66.5 131.5t-23 164v687h54v-689q1 -75 19 -140t55.5 -114t95.5 -77t139 -28q78 0 143 20.5t114.5 59t82 94t46.5 125.5l-1 749h56v-1082h-1z" />
<glyph unicode="&#x174;" d="M329 330l28 -184l30 184l225 1123v3h50l-1 -3l224 -1123l29 -186l30 186l181 1126h49l-233 -1456h-50v3l-235 1211l-20 106l-19 -106l-238 -1211l1 -3h-50l-233 1456h50zM889 1593v-10h-68l-187 196l-185 -196h-64v14l230 239h40z" />
<glyph unicode="&#x175;" d="M310 313l42 -213l53 213l193 769h50l193 -769l52 -213l43 213l176 769h57l-249 -1082h-49l-213 813l-35 172l-38 -172l-210 -813h-49l-249 1082h57zM881 1274v-10h-68l-187 196l-185 -196h-64v14l230 239h40z" />
<glyph unicode="&#x176;" d="M597 602l446 854h63l-482 -903v-553h-52l-1 553l-481 903h67zM851 1582v-10h-68l-187 196l-185 -196h-64v14l230 239h40z" />
<glyph unicode="&#x177;" d="M623 74l13 30l440 978h65l-569 -1262q-25 -56 -55.5 -102.5t-70 -81t-90.5 -54t-117 -19.5q-44 0 -90 11l-2 51q20 -3 41 -6t42 -3q54 0 98 15.5t79 44t62 68t48 86.5l75 172l-508 1080h63zM886 1274v-10h-68l-187 196l-185 -196h-64v14l230 239h40z" />
<glyph unicode="&#x178;" d="M597 602l446 854h63l-482 -903v-553h-52l-1 553l-481 903h67zM308 1729q0 22 16.5 39t38.5 17t39 -17t17 -39t-17 -38.5t-39 -16.5t-38.5 16.5t-16.5 38.5zM753 1729q0 22 16.5 39t38.5 17t39 -17t17 -39t-17 -38.5t-39 -16.5t-38.5 16.5t-16.5 38.5z" />
<glyph unicode="&#x179;" d="M212 54h829v-54h-897l-1 44l801 1359h-766v53h836l1 -38zM741 1835h66l-191 -266h-59z" />
<glyph unicode="&#x17a;" d="M217 54h894v-54h-974l1 44l825 983h-790v55h870l-1 -48zM791 1516h66l-191 -266h-59z" />
<glyph unicode="&#x17b;" d="M212 54h829v-54h-897l-1 44l801 1359h-766v53h836l1 -38zM534 1716q0 22 16.5 39t40.5 17t41 -16.5t17 -39.5q-1 -23 -17.5 -39t-40.5 -16t-40.5 16t-16.5 39z" />
<glyph unicode="&#x17c;" d="M217 54h894v-54h-974l1 44l825 983h-790v55h870l-1 -48zM583 1397q0 22 16.5 39t40.5 17t41 -16.5t17 -39.5q-1 -23 -17.5 -39t-40.5 -16t-40.5 16t-16.5 39z" />
<glyph unicode="&#x17d;" d="M212 54h829v-54h-897l-1 44l801 1359h-766v53h836l1 -38zM593 1623l194 217h53v-13l-218 -250h-59l-220 252v11h57z" />
<glyph unicode="&#x17e;" d="M217 54h894v-54h-974l1 44l825 983h-790v55h870l-1 -48zM642 1304l194 217h53v-13l-218 -250h-59l-220 252v11h57z" />
<glyph unicode="&#x17f;" d="M522 0l2 1236q1 75 25.5 134.5t68.5 100.5t105 63t135 23q38 0 75.5 -4t74.5 -13l-8 -52q-35 8 -70 11.5t-71 3.5q-62 -1 -112.5 -19t-87 -52.5t-57.5 -83.5t-22 -112v-1236h-58z" />
<glyph unicode="&#x192;" d="M1008 1027h-369l-2 -1116q-2 -81 -26.5 -145.5t-69 -109.5t-106.5 -69t-138 -24q-35 0 -69.5 5.5t-67.5 14.5l13 52q30 -10 61.5 -14t62.5 -4q64 0 116 20t89 58t57 92.5t22 123.5l-1 1116h-242v55h244l1 154q1 79 29 138.5t75.5 100t112.5 61.5t140 21q40 0 80 -4 t79 -13l-9 -52q-37 8 -74 11.5t-75 3.5q-63 -1 -117.5 -18t-95.5 -50.5t-65 -83t-26 -115.5l2 -154h369v-55z" />
<glyph unicode="&#x1a0;" d="M1086 619q-1 -71 -13 -146t-36 -146t-61.5 -134t-89.5 -110.5t-119.5 -75t-150.5 -27.5t-150.5 27.5t-120 75t-90.5 110.5t-62.5 134t-37 146t-13.5 146v218q1 71 13 146t36.5 146t62 134t90 110.5t119.5 75t151 27.5q67 0 123 -18t102.5 -49.5t83.5 -75t65 -94.5 q61 6 98 32.5t57 67.5t27.5 93t10.5 109h51q1 -65 -9 -124.5t-35 -106.5t-68 -79t-107 -43q37 -83 54.5 -173.5t18.5 -177.5v-218zM1033 839q-1 64 -11 132t-31 132.5t-54 122.5t-79.5 101.5t-107 69t-136.5 25.5t-136 -25.5t-106.5 -69t-79 -101.5t-53.5 -123t-31 -133 t-11 -131v-220q1 -64 11 -132t31 -133t54 -123t79.5 -102t107 -69.5t136.5 -25.5t136.5 25.5t106.5 69.5t79 102t54 123t30.5 133t10.5 132v220z" />
<glyph unicode="&#x1a1;" d="M114 562q1 104 33 201.5t92 172.5t147.5 120.5t200.5 45.5q111 0 197 -43.5t147 -116.5v11q61 2 100.5 19t63 48t33.5 75t12 101h54q-1 -65 -14 -116.5t-40.5 -89.5t-71.5 -60.5t-106 -28.5q48 -72 72.5 -159t26.5 -180v-42q-1 -104 -32.5 -201.5t-91.5 -172.5 t-147.5 -120.5t-200.5 -45.5t-201 45t-148.5 120t-92.5 172.5t-33 202.5v42zM168 520q1 -92 29.5 -179.5t82 -155.5t131.5 -109.5t178 -41.5t177 41.5t130.5 110t81.5 155.5t29 179v42q-1 91 -29.5 178.5t-82 155.5t-131.5 110t-177 42t-176.5 -42t-131 -110t-82 -155.5 t-29.5 -178.5v-42z" />
<glyph unicode="&#x1af;" d="M1054 1456v-205q58 9 93.5 35t56 65.5t28.5 90.5t11 109h52q1 -69 -11 -129.5t-40 -107.5t-74.5 -77.5t-115.5 -39.5l1 -728q-2 -97 -31.5 -185.5t-86 -156t-137.5 -107.5t-184 -40q-104 0 -185 40t-137 107.5t-86.5 156t-31.5 185.5l1 987h51l1 -987q1 -85 27.5 -163.5 t76 -139t121 -96.5t162.5 -36t162 36.5t120 97t75 139t28 162.5l1 987h52z" />
<glyph unicode="&#x1b0;" d="M1268 1190q-3 -134 -60.5 -210t-187.5 -87v-893h-56l1 193q-52 -100 -148.5 -156.5t-235.5 -56.5q-94 0 -162.5 32t-113 87.5t-66.5 131.5t-23 164v687h54v-689q1 -75 19 -140t55.5 -114t95.5 -77t139 -28q78 0 143 20.5t114.5 59t82 94t46.5 125.5l-1 749h56v-135 q54 5 90 23t58.5 48t33 73t11.5 99h55z" />
<glyph unicode="&#x1f0;" d="M271 1082h514v-1076q0 -99 -26.5 -181t-77.5 -140t-124 -90t-166 -32q-29 0 -54 1t-49 3t-48.5 5t-52.5 8l4 48q19 -3 46.5 -5.5t55 -4t53 -2t41.5 -0.5q68 0 130.5 20.5t110 67t75.5 120.5t28 182v1022h-460v54zM756 1388l194 217h53v-13l-218 -250h-59l-220 252v11h57z " />
<glyph unicode="&#x1fa;" d="M939 435h-619l-142 -435h-56l477 1456h62l477 -1456h-56zM337 489h585l-292 893zM779 1920h81l-187 -191h-66zM491 1533q0 28 11.5 54t30.5 45.5t44.5 31t54.5 11.5q28 0 53.5 -11.5t44.5 -31t30 -45.5t11 -54t-11.5 -53t-30.5 -44t-44 -30t-53 -11t-53.5 11t-45 29.5 t-31 43.5t-11.5 54zM542 1533q7 -35 28 -61.5t62 -26.5q18 0 34 7t28 19t19 28t7 34t-6.5 34.5t-18.5 29t-28.5 20t-34.5 7.5q-41 0 -62.5 -27.5t-27.5 -63.5z" />
<glyph unicode="&#x1fb;" d="M989 0q-12 51 -16 101t-5 101q-35 -55 -83.5 -97t-105.5 -69.5t-121 -41.5t-131 -14q-65 0 -127 19.5t-110 56.5t-77 92t-29 126q0 97 47 160.5t121.5 101t166.5 52.5t182 16h267v158q-2 73 -30 127t-74.5 89t-108 52.5t-129.5 17.5q-60 0 -122.5 -16t-113.5 -48.5 t-85 -82t-37 -117.5l-54 2q4 79 42.5 138t97 98.5t130 59.5t142.5 20q80 0 151.5 -21.5t125.5 -64t85.5 -107t33.5 -149.5v-542q1 -55 10 -105t19 -104l1 -9h-63zM527 33q71 -1 137.5 15.5t124 49.5t103.5 82t76 113v256h-264q-51 -1 -105.5 -6t-106.5 -17t-98.5 -32 t-81 -51t-55 -73.5t-19.5 -99.5q0 -57 26 -101.5t67.5 -74.5t93 -45.5t102.5 -15.5zM793 1601h81l-187 -191h-66zM505 1214q0 28 11.5 54t30.5 45.5t44.5 31t54.5 11.5q28 0 53.5 -11.5t44.5 -31t30 -45.5t11 -54t-11.5 -53t-30.5 -44t-44 -30t-53 -11t-53.5 11t-45 29.5 t-31 43.5t-11.5 54zM556 1214q7 -35 28 -61.5t62 -26.5q18 0 34 7t28 19t19 28t7 34t-6.5 34.5t-18.5 29t-28.5 20t-34.5 7.5q-41 0 -62.5 -27.5t-27.5 -63.5z" />
<glyph unicode="&#x1fc;" d="M1148 0h-476l-11 425h-372l-158 -425h-53l544 1456h488v-54h-427l16 -616h361v-54h-359l17 -678h430v-54zM309 478h351l-23 880zM805 1835h66l-191 -266h-59z" />
<glyph unicode="&#x1fd;" d="M893 -20q-60 0 -106.5 16.5t-81.5 44.5t-60.5 65t-41.5 78q-20 -44 -49 -81t-66.5 -64.5t-81.5 -43t-94 -15.5q-65 0 -113.5 25t-81 67t-49 97t-16.5 115q0 72 21 134.5t60.5 109t98 74t133.5 28.5h199l-1 190q0 36 -6.5 76t-28.5 74t-63.5 56t-111.5 22q-57 0 -101 -17 t-73.5 -46.5t-44 -69t-12.5 -84.5h-52q-2 61 18.5 111.5t58.5 85.5t91 54.5t115 19.5q66 0 111.5 -17.5t75.5 -46t46.5 -66t23.5 -76.5q16 42 40.5 79.5t57.5 65.5t76.5 44.5t97.5 16.5q58 0 102 -16.5t76.5 -45t54.5 -66.5t35.5 -80.5t19.5 -87t6 -86.5l-2 -143h-556v-177 q0 -34 5 -74.5t16 -81t30.5 -78.5t50 -67t73 -47t100.5 -18q40 0 75 11t64 29t53 41.5t44 48.5l28 -42q-48 -66 -111.5 -104t-152.5 -38zM566 228l1 1l23 -5q-14 45 -20 90t-6 86v175h-198q-63 -1 -111.5 -25t-81.5 -64t-50 -93t-17 -113q0 -48 12.5 -93t37.5 -79.5 t63.5 -55t91.5 -20.5q47 0 88.5 17t74.5 45t57 63t35 71l-1 130l-1 217v69q1 56 11 122.5t35 129.5q4 -20 5 -39.5t2 -38.5l-1 -186h2v-55h-2v-359h1q-3 -9 -6.5 -17.5t-7.5 -16.5l-7 20l-29 -21zM618 632h507l-2 92q-3 50 -13 107t-36 105t-72 80t-120 32q-55 0 -96 -20 t-70 -52.5t-48 -74.5t-30 -87t-15.5 -89.5t-4.5 -80.5v-12zM564 575v55h27v2h25v-55h-23v-2h-29zM616 218l-26 6l6 -20zM746 1515h66l-191 -266h-59z" />
<glyph unicode="&#x1fe;" d="M1074 619q-1 -71 -13 -146t-36 -146t-61.5 -134t-89.5 -110.5t-119.5 -75t-150.5 -27.5q-91 0 -163 32.5t-126 87.5l-102 -175h-64l128 219q-38 48 -65 105.5t-45 119.5t-27 125.5t-10 124.5v218q1 71 13 146t36.5 146t62 134t90 110.5t119.5 75t151 27.5q58 0 109 -14 t93.5 -39t78 -59.5t64.5 -76.5l122 208h64l-154 -262q48 -90 70.5 -193.5t24.5 -202.5v-218zM185 619q0 -54 7.5 -110.5t22 -112t37 -107.5t54.5 -97l612 1045q-25 40 -57 74t-71 59t-86 38.5t-102 13.5q-76 0 -136 -25.5t-106.5 -69t-79 -101.5t-53.5 -123t-31 -133 t-11 -131v-220zM1021 839q-1 84 -18 173t-55 168l-605 -1033q48 -52 112 -82.5t149 -30.5q76 0 136.5 25.5t106.5 69.5t79 102t54 123t30.5 133t10.5 132v220zM816 1897h66l-191 -266h-59z" />
<glyph unicode="&#x1ff;" d="M141 562q1 104 33 201.5t92 172.5t147.5 120.5t200.5 45.5q99 0 182 -37l75 154h63l-88 -180q58 -35 103 -86.5t75.5 -114t46.5 -133t17 -143.5v-42q-1 -104 -32.5 -201.5t-91.5 -172.5t-147.5 -120.5t-200.5 -45.5q-73 0 -135 19t-114 54l-96 -198h-63l113 233 q-44 38 -77 86.5t-55.5 104t-34.5 117t-13 124.5v42zM1034 562q-1 63 -15 125.5t-41 118.5t-66 102.5t-90 79.5l-430 -885q46 -33 102 -51t122 -18q100 0 177 41.5t130.5 110t81.5 155.5t29 179v42zM195 520q2 -109 40.5 -209.5t111.5 -170.5l425 875q-35 16 -74.5 24.5 t-83.5 8.5q-99 0 -176.5 -42t-131 -110t-82 -155.5t-29.5 -178.5v-42zM757 1513h66l-191 -266h-59z" />
<glyph unicode="&#x218;" d="M1044 349q1 86 -37 146.5t-97 102.5t-131.5 70.5t-141.5 49.5q-50 15 -102 34t-101 43t-92 54.5t-75 70t-50.5 89t-17.5 111.5q0 88 39.5 155t102.5 111.5t141.5 67t158.5 22.5q91 0 170.5 -29.5t138.5 -82.5t94.5 -129t39.5 -169h-53q-8 79 -39.5 144.5t-82.5 112.5 t-119 73t-149 26q-68 0 -137 -18t-125 -55t-91 -93.5t-36 -133.5q-1 -55 16.5 -99t47.5 -78.5t69.5 -61.5t84.5 -47.5t91.5 -36.5t90.5 -29q78 -23 157.5 -56t144 -81.5t105 -117.5t40.5 -164q0 -94 -39 -163.5t-102.5 -115.5t-144.5 -69t-166 -23q-95 0 -182 26.5 t-154 78.5t-109 128.5t-46 177.5h53q9 -89 46.5 -155.5t96 -111.5t134 -67.5t161.5 -22.5q73 0 144.5 18.5t127.5 56.5t90.5 97.5t34.5 142.5zM676 -185q-2 -69 -22 -129t-64 -113l-37 32q33 49 50.5 98.5t18.5 109.5v79h54v-77z" />
<glyph unicode="&#x219;" d="M1003 265q0 44 -17 79.5t-46 62.5t-66.5 47.5t-78.5 35t-81 25t-74 17.5q-41 9 -87 19.5t-90 26t-84.5 36.5t-70.5 51t-48 70.5t-17 93.5q0 50 18 89.5t47.5 70t69 52t83 35t88.5 20t86 6.5q76 0 149 -17t131.5 -54t96.5 -95.5t44 -142.5h-56q-2 69 -37 117.5t-88.5 79 t-117 44.5t-122.5 14q-50 0 -108.5 -10.5t-109.5 -35.5t-85 -66.5t-35 -104.5q-1 -46 16 -80t45.5 -59.5t66 -43.5t77.5 -31t80.5 -22t74.5 -16q64 -14 134.5 -35t130 -56t97.5 -89t38 -135q0 -53 -19 -94.5t-50 -73t-72.5 -54t-87 -36t-93 -20t-91.5 -6.5q-48 0 -98 6.5 t-97.5 21t-90 37.5t-75.5 55.5t-54 76t-25 98.5h55q8 -71 46.5 -117.5t93 -74t119.5 -38.5t126 -11q34 0 74 5t79.5 16.5t76.5 29t65.5 43.5t45.5 59.5t18 77.5zM664 -180q-2 -69 -22 -129t-64 -113l-37 32q33 49 50.5 98.5t18.5 109.5v79h54v-77z" />
<glyph unicode="&#x21a;" d="M1123 1402h-479v-1402h-54l2 1402h-480v54h1011v-54zM652 -175q-2 -69 -22 -129t-64 -113l-37 32q33 49 50.5 98.5t18.5 109.5v79h54v-77z" />
<glyph unicode="&#x21b;" d="M573 1374l-1 -292h390v-55h-390v-768q2 -63 22.5 -105.5t56.5 -69t84.5 -38.5t106.5 -12q81 0 159 9l11 -51q-41 -8 -82 -10t-83 -2q-72 0 -132 14.5t-104 47.5t-69 86t-27 131v768h-318v55h318v292h58zM831 -175q-2 -69 -22 -129t-64 -113l-37 32q33 49 50.5 98.5 t18.5 109.5v79h54v-77z" />
<glyph unicode="&#x237;" d="M271 1082h514v-1076q0 -99 -26.5 -181t-77.5 -140t-124 -90t-166 -32q-29 0 -54 1t-49 3t-48.5 5t-52.5 8l4 48q19 -3 46.5 -5.5t55 -4t53 -2t41.5 -0.5q68 0 130.5 20.5t110 67t75.5 120.5t28 182v1022h-460v54z" />
<glyph unicode="&#x259;" d="M617 1102q70 -1 132 -21t114 -56t94 -85t71 -107t45 -122t17 -130v-64q-1 -101 -33.5 -197.5t-93 -172.5t-147.5 -122t-196 -46q-96 0 -175 34t-135.5 93t-88 140t-32.5 175v83h846q0 3 0.5 6t0.5 7v64q-2 89 -32 172.5t-84.5 149t-131 105t-171.5 40.5q-50 0 -99 -6 t-95 -21.5t-87.5 -41t-75.5 -63.5l-29 42q77 79 177 112t209 32zM620 33q90 0 161.5 34.5t123.5 92.5t84 133.5t42 156.5h-788v-33q1 -81 29.5 -151t78 -121.5t118.5 -81.5t151 -30z" />
<glyph unicode="&#x2bc;" d="M668 1433q-2 -80 -26.5 -151t-78.5 -131l-37 32q42 57 64 116.5t24 131.5v105h54v-103z" />
<glyph unicode="&#x2c6;" d="M890 1274v-10h-68l-187 196l-185 -196h-64v14l230 239h40z" />
<glyph unicode="&#x2c7;" d="M615 1289l194 217h53v-13l-218 -250h-59l-220 252v11h57z" />
<glyph unicode="&#x2d8;" d="M893 1486q-3 -59 -25 -105t-59 -78t-86.5 -48.5t-107.5 -16.5t-107.5 16.5t-86.5 48.5t-59.5 78t-25.5 105h54q3 -49 20.5 -85t47 -60t69.5 -35.5t88 -11.5q46 0 86 12t69.5 36t47.5 60t21 84h54z" />
<glyph unicode="&#x2d9;" d="M556 1397q0 22 16.5 39t40.5 17t41 -16.5t17 -39.5q-1 -23 -17.5 -39t-40.5 -16t-40.5 16t-16.5 39z" />
<glyph unicode="&#x2da;" d="M450 1382q0 34 12 65.5t34 55.5t52 38.5t65 14.5t65 -14.5t52 -38.5t34.5 -55.5t12.5 -65.5t-12.5 -65t-34.5 -54t-52 -37t-65 -14t-65 14t-51.5 37t-34 54t-12.5 65zM504 1382q0 -23 8 -44t22.5 -37t34.5 -25.5t44 -9.5t44.5 9.5t35 25.5t22.5 37t8 44q0 24 -8 45.5 t-22.5 38t-34.5 26.5t-45 10q-24 0 -44.5 -10t-34.5 -26.5t-22 -38t-8 -45.5z" />
<glyph unicode="&#x2db;" d="M691 0q-29 -22 -63.5 -48t-64.5 -56t-50.5 -65.5t-20.5 -76.5q1 -45 28 -69.5t72 -25.5q32 -1 61 10t55 28l16 -48q-30 -21 -62.5 -32.5t-69.5 -11.5q-34 0 -62.5 10.5t-48.5 29.5t-31.5 46.5t-11.5 62.5q0 43 21.5 81.5t53 71.5t68 61.5t66.5 51.5z" />
<glyph unicode="&#x2dc;" d="M778 1472q-2 -37 -14 -70.5t-34 -59t-52.5 -41t-70.5 -15.5q-29 0 -53 9.5t-46 23.5t-42.5 30t-42 30t-45 23t-50.5 9q-29 0 -50 -10t-35 -27t-22 -39.5t-11 -48.5h-54q2 37 14.5 69.5t34 57t52.5 38.5t71 14q42 0 76 -19.5t65.5 -43t64 -42.5t73.5 -19q29 0 50 11t35 29 t21.5 41.5t10.5 49.5h54z" />
<glyph unicode="&#x2dd;" d="M838 1536h82l-296 -304h-74zM551 1536h77l-249 -304h-70z" />
<glyph unicode="&#x2f3;" d="M492 -219q0 24 10.5 46t27.5 38.5t39.5 26t46.5 9.5t46 -10t38.5 -26.5t26.5 -38t10 -45.5t-10 -45.5t-27 -37t-38.5 -24.5t-45.5 -9t-46 9t-39.5 24.5t-28 36.5t-10.5 46zM549 -219q8 -26 22.5 -43t44.5 -17q25 0 44.5 17t20.5 43q0 26 -20 43.5t-45 18.5 q-29 1 -45.5 -17.5t-21.5 -44.5z" />
<glyph unicode="&#x300;" horiz-adv-x="0" d="M-596 1244h-72l-191 291h83z" />
<glyph unicode="&#x301;" horiz-adv-x="0" d="M-552 1536h69l-169 -291h-63z" />
<glyph unicode="&#x303;" horiz-adv-x="0" d="M-312 1472q-2 -37 -14 -70.5t-34 -59t-52.5 -41t-70.5 -15.5q-29 0 -53 9.5t-46 23.5t-42.5 30t-42 30t-45 23t-50.5 9q-29 0 -50 -10t-35 -27t-22 -39.5t-11 -48.5h-54q2 37 14.5 69.5t34 57t52.5 38.5t71 14q42 0 76 -19.5t65.5 -43t64 -42.5t73.5 -19q29 0 50 11 t35 29t21.5 41.5t10.5 49.5h54z" />
<glyph unicode="&#x309;" horiz-adv-x="0" d="M-646 1227v99q26 3 59 7.5t62.5 16t49 33t18.5 57.5q-1 39 -28 60.5t-64 32.5t-77 13.5t-67 3.5l7 49q37 -1 86 -7t93 -23t75 -47.5t31 -81.5q0 -42 -17.5 -70.5t-45.5 -47t-63.5 -28t-70.5 -13.5v-54h-48z" />
<glyph unicode="&#x30f;" horiz-adv-x="0" d="M-936 1252h-73l-298 266h80zM-711 1252h-69l-253 266h76z" />
<glyph unicode="&#x323;" horiz-adv-x="0" d="M-812 -218q-1 22 16.5 39t39.5 17t40 -16.5t18 -39.5t-18 -39t-40 -16t-39 16t-17 39z" />
<glyph unicode="&#x384;" d="M709 1578h67l-117 -273h-56z" />
<glyph unicode="&#x385;" d="M649 1657h76l-41 -240h-57zM393 1421q0 21 15.5 38.5t37.5 17.5t38 -17.5t16 -38.5t-16 -38t-38 -17q-21 0 -37 17t-16 38zM810 1421q0 21 15.5 38.5t37.5 17.5t38.5 -17.5t15.5 -38.5q0 -21 -16 -38t-38 -17q-21 0 -37 17t-16 38z" />
<glyph unicode="&#x386;" d="M939 435h-619l-142 -435h-56l477 1456h62l477 -1456h-56zM337 489h585l-292 893zM421 1577h67l-117 -273h-56z" />
<glyph unicode="&#x387;" d="M559 706q0 22 16.5 39t38.5 17t39 -17t17 -39t-17 -38.5t-39 -16.5t-38.5 16.5t-16.5 38.5z" />
<glyph unicode="&#x388;" horiz-adv-x="1329" d="M1050 722h-677v-668h772v-54h-825v1456h825v-54h-772v-626h677v-54zM193 1579h67l-117 -273h-56z" />
<glyph unicode="&#x389;" horiz-adv-x="1329" d="M1152 0h-51v722h-772v-722h-51v1456h51v-680h772v680h51v-1456zM174 1579h67l-117 -273h-56z" />
<glyph unicode="&#x38a;" horiz-adv-x="1329" d="M312 1456h806v-56h-381v-1346h381v-54h-806v54h367v1346h-367v56zM158 1579h67l-117 -273h-56z" />
<glyph unicode="&#x38c;" horiz-adv-x="1249" d="M1106 619q-1 -71 -13 -146t-36 -146t-61.5 -134t-89.5 -110.5t-119.5 -75t-150.5 -27.5t-150.5 27.5t-120 75t-90.5 110.5t-62.5 134t-37 146t-13.5 146v218q1 71 13 146t36.5 146t62 134t90 110.5t119.5 75t151 27.5t151 -27.5t119.5 -75t90 -110.5t62 -134t36.5 -146 t13 -146v-218zM1053 839q-1 64 -11 132t-31 132.5t-54 122.5t-79.5 101.5t-107 69t-136.5 25.5t-136 -25.5t-106.5 -69t-79 -101.5t-53.5 -123t-31 -133t-11 -131v-220q1 -64 11 -132t31 -133t54 -123t79.5 -102t107 -69.5t136.5 -25.5t136.5 25.5t106.5 69.5t79 102t54 123 t30.5 133t10.5 132v220zM150 1577h67l-117 -273h-56z" />
<glyph unicode="&#x38e;" horiz-adv-x="1329" d="M697 602l446 854h63l-482 -903v-553h-52l-1 553l-481 903h67zM90 1577h67l-117 -273h-56z" />
<glyph unicode="&#x38f;" horiz-adv-x="1249" d="M728 78q91 49 154 120t102.5 157t57 182t18.5 195v119q-1 64 -12 131t-33.5 130.5t-57 120t-82 98.5t-108.5 66.5t-136 24.5t-135.5 -24.5t-107.5 -67t-81.5 -98.5t-57 -119.5t-34 -130.5t-11.5 -131v-119q1 -99 19.5 -195.5t58.5 -182t104 -156.5t156 -120l-1 -24h1v-54 h-406v54h338q-86 52 -147 127.5t-100 165t-57.5 188t-19.5 197.5v117q0 73 12.5 147.5t38 144.5t64.5 131t92 106.5t121.5 71.5t152.5 26t152.5 -26t122 -71.5t92.5 -106.5t64.5 -131t38 -144.5t13.5 -147.5v-117q-1 -99 -19 -197t-57 -187.5t-100 -165t-146 -128.5h341v-54 h-405v78zM144 1577h67l-117 -273h-56z" />
<glyph unicode="&#x390;" d="M231 1082h314l60 1l1 -824q-1 -63 20 -107t58 -71.5t87 -40.5t108 -13q40 0 78.5 5.5t77.5 10.5l9 -46q-83 -17 -163 -17q-72 0 -132 14.5t-104 47.5t-69 86t-27 131l-4 768h-314v55zM549 1634h76l-41 -240h-57zM293 1398q0 21 15.5 38.5t37.5 17.5t38 -17.5t16 -38.5 t-16 -38t-38 -17q-21 0 -37 17t-16 38zM710 1398q0 21 15.5 38.5t37.5 17.5t38.5 -17.5t15.5 -38.5q0 -21 -16 -38t-38 -17q-21 0 -37 17t-16 38z" />
<glyph unicode="&#x391;" d="M939 435h-619l-142 -435h-56l477 1456h62l477 -1456h-56zM337 489h585l-292 893z" />
<glyph unicode="&#x392;" d="M217 0v1456h362q87 -1 168.5 -23.5t144.5 -68t101 -115.5t38 -166q0 -65 -17.5 -116t-50 -90.5t-78 -68t-100.5 -49.5l1 -5q64 -14 120 -45t97.5 -77t65.5 -104.5t24 -126.5q1 -92 -32.5 -165t-92 -125t-136.5 -80.5t-165 -30.5h-450zM270 719v-665h397q75 1 143 25.5 t119 68.5t81 107.5t29 143.5q0 75 -31 134t-81.5 99.5t-115.5 62.5t-135 24h-406zM270 773h329q73 1 141 19.5t120.5 57t84 97t31.5 140.5q0 84 -34 143.5t-90 97t-127.5 55.5t-145.5 19h-309v-629z" />
<glyph unicode="&#x393;" d="M1057 1402h-804v-1402h-54v1456h858v-54z" />
<glyph unicode="&#x395;" d="M950 722h-677v-668h772v-54h-825v1456h825v-54h-772v-626h677v-54z" />
<glyph unicode="&#x396;" d="M212 54h829v-54h-897l-1 44l801 1359h-766v53h836l1 -38z" />
<glyph unicode="&#x397;" d="M1052 0h-51v722h-772v-722h-51v1456h51v-680h772v680h51v-1456z" />
<glyph unicode="&#x398;" d="M855 691h-512v53h512v-53zM1086 619q-1 -71 -13 -146t-36 -146t-61.5 -134t-89.5 -110.5t-119.5 -75t-150.5 -27.5t-150.5 27.5t-120 75t-90.5 110.5t-62.5 134t-37 146t-13.5 146v218q1 71 13 146t36.5 146t62 134t90 110.5t119.5 75t151 27.5t151 -27.5t119.5 -75 t90 -110.5t62 -134t36.5 -146t13 -146v-218zM1033 839q-1 64 -11 132t-31 132.5t-54 122.5t-79.5 101.5t-107 69t-136.5 25.5t-136 -25.5t-106.5 -69t-79 -101.5t-53.5 -123t-31 -133t-11 -131v-220q1 -64 11 -132t31 -133t54 -123t79.5 -102t107 -69.5t136.5 -25.5 t136.5 25.5t106.5 69.5t79 102t54 123t30.5 133t10.5 132v220z" />
<glyph unicode="&#x399;" d="M212 1456h806v-56h-381v-1346h381v-54h-806v54h367v1346h-367v56z" />
<glyph unicode="&#x39a;" d="M494 764l-213 -211v-553h-52v1456h52v-839l217 230l557 609h74l-597 -654l643 -802h-67z" />
<glyph unicode="&#x39b;" d="M623 1379l-464 -1379h-57l490 1456h62l491 -1456h-57z" />
<glyph unicode="&#x39c;" d="M265 1456l349 -915l369 915h84v-1456h-54v708l2 675l-377 -913h-50l-349 903l1 -665v-708h-54v1456h79z" />
<glyph unicode="&#x39d;" d="M1051 0h-50l-772 1364l2 -1364h-51v1456h50l771 -1361l-2 1361h52v-1456z" />
<glyph unicode="&#x39e;" d="M161 54h902v-54h-902v54zM269 741h678v-54h-678v54zM182 1456h842v-53h-842v53z" />
<glyph unicode="&#x39f;" d="M1086 619q-1 -71 -13 -146t-36 -146t-61.5 -134t-89.5 -110.5t-119.5 -75t-150.5 -27.5t-150.5 27.5t-120 75t-90.5 110.5t-62.5 134t-37 146t-13.5 146v218q1 71 13 146t36.5 146t62 134t90 110.5t119.5 75t151 27.5t151 -27.5t119.5 -75t90 -110.5t62 -134t36.5 -146 t13 -146v-218zM1033 839q-1 64 -11 132t-31 132.5t-54 122.5t-79.5 101.5t-107 69t-136.5 25.5t-136 -25.5t-106.5 -69t-79 -101.5t-53.5 -123t-31 -133t-11 -131v-220q1 -64 11 -132t31 -133t54 -123t79.5 -102t107 -69.5t136.5 -25.5t136.5 25.5t106.5 69.5t79 102t54 123 t30.5 133t10.5 132v220z" />
<glyph unicode="&#x3a0;" d="M1043 0h-51v1402h-755v-1402h-51v1456h857v-1456z" />
<glyph unicode="&#x3a1;" d="M296 615v-615h-54v1456h444q93 -2 173 -32.5t139 -86t92.5 -133t33.5 -173.5t-34 -172t-93 -130t-139 -83.5t-172 -30.5h-390zM296 669h390q79 1 149 26.5t122 72t82.5 112.5t30.5 149q0 84 -29.5 152t-81 116.5t-122 75.5t-151.5 29h-390v-733z" />
<glyph unicode="&#x3a3;" d="M729 768l-523 -714h916v-54h-992v44l547 743l-547 625v44h37l2 -3v3h893v-53h-849l516 -588v-47z" />
<glyph unicode="&#x3a4;" d="M1123 1402h-479v-1402h-54l2 1402h-480v54h1011v-54z" />
<glyph unicode="&#x3a5;" d="M597 602l446 854h63l-482 -903v-553h-52l-1 553l-481 903h67z" />
<glyph unicode="&#x3a6;" d="M640 1266q110 -3 202 -44.5t158.5 -112.5t103.5 -166t37 -204q0 -110 -37 -205.5t-103 -167t-158 -113.5t-203 -44v-209h-52v209q-110 3 -202 44.5t-158 112.5t-102.5 166t-36.5 205q0 109 36.5 204t102.5 166.5t158 113.5t202 45v190h52v-190zM1087 739 q0 99 -32.5 184.5t-91.5 149t-141 100.5t-182 39v-949q100 1 182.5 38.5t141.5 102t91 150.5t32 185zM144 737q0 -99 32 -184.5t90.5 -149t140 -101t181.5 -39.5v949q-99 -3 -181 -40.5t-140.5 -101.5t-90.5 -149.5t-32 -183.5z" />
<glyph unicode="&#x3a7;" d="M633 785l424 671h65l-455 -713l472 -743h-63l-443 701l-443 -701h-62l472 743l-455 713h65z" />
<glyph unicode="&#x3a8;" d="M647 471q96 4 170.5 44.5t125 106t76.5 149t27 175.5l1 510h52l1 -510q-1 -105 -31 -199.5t-87 -166.5t-141 -116t-194 -48v-416h-52v416q-109 6 -192.5 50t-140.5 116t-86.5 165.5t-30.5 198.5l1 510h53l1 -510q1 -92 27 -175.5t76 -148t123.5 -105t168.5 -46.5v985h52 v-985z" />
<glyph unicode="&#x3aa;" d="M212 1456h806v-56h-381v-1346h381v-54h-806v54h367v1346h-367v56zM346 1740q0 22 16.5 39t38.5 17t39 -17t17 -39t-17 -38.5t-39 -16.5t-38.5 16.5t-16.5 38.5zM791 1740q0 22 16.5 39t38.5 17t39 -17t17 -39t-17 -38.5t-39 -16.5t-38.5 16.5t-16.5 38.5z" />
<glyph unicode="&#x3ab;" d="M597 602l446 854h63l-482 -903v-553h-52l-1 553l-481 903h67zM308 1729q0 22 16.5 39t38.5 17t39 -17t17 -39t-17 -38.5t-39 -16.5t-38.5 16.5t-16.5 38.5zM753 1729q0 22 16.5 39t38.5 17t39 -17t17 -39t-17 -38.5t-39 -16.5t-38.5 16.5t-16.5 38.5z" />
<glyph unicode="&#x3ac;" d="M960 1082v-827q0 -31 3.5 -69.5t15.5 -73t36.5 -57.5t66.5 -23q17 0 32.5 3t31.5 7l11 -49q-18 -6 -35 -10t-37 -4q-51 0 -84.5 20t-53 53t-28 75t-11.5 84q-26 -51 -64 -93.5t-85.5 -73.5t-102.5 -48t-114 -17q-74 0 -132 22.5t-102.5 62t-76 92.5t-52 113t-30 124.5 t-9.5 127.5v21q0 63 9.5 129t29.5 128t51 117.5t76 96.5t104 65t134 24q61 0 116 -19.5t101.5 -54t83 -80.5t61.5 -100v6l6 228h48zM196 521q0 -55 7.5 -112.5t23.5 -112t42.5 -102t64.5 -83.5t89.5 -57t117.5 -21q67 0 126.5 23t107.5 63t81.5 94.5t49.5 117.5v378 q-15 65 -48 126t-80 108t-106.5 76t-128.5 29q-67 0 -118.5 -22t-90 -60t-65 -88.5t-42.5 -107t-23.5 -115.5t-7.5 -113v-21zM665 1496h67l-117 -273h-56z" />
<glyph unicode="&#x3ad;" d="M170 290q0 62 22.5 107t61 76.5t88 50.5t103.5 30q-49 12 -95 32t-81 50t-56.5 71t-21.5 95q0 58 19.5 103t53.5 78.5t79 56t94.5 36.5t101 20t98.5 6q73 0 148 -16.5t137.5 -53t105 -94t50.5 -139.5h-57q-2 70 -40.5 118t-95.5 77t-123.5 41.5t-124.5 12.5q-39 0 -83 -4 t-87 -15t-82.5 -28.5t-70 -44.5t-48.5 -64.5t-18 -86.5t19 -85t50 -61t71.5 -40t84.5 -23.5t87.5 -12t80.5 -3.5h185v-55h-185q-40 0 -86.5 -3t-93 -11.5t-89.5 -24.5t-76 -42.5t-52.5 -65t-19.5 -91.5q0 -51 19.5 -90t52 -67t75 -46.5t88.5 -29t92 -15t86 -4.5q41 0 86.5 6 t90 18.5t85 33.5t72 50.5t50.5 68.5t20 89h57q-8 -87 -51.5 -148.5t-108.5 -99.5t-144 -55.5t-157 -17.5q-48 0 -101 6.5t-105 21t-99 38.5t-83 58.5t-57.5 80.5t-21.5 105zM720 1495h67l-117 -273h-56z" />
<glyph unicode="&#x3ae;" d="M262 832q23 58 58 107.5t83.5 85.5t111 56.5t140.5 20.5q98 0 167.5 -32t114 -89t65.5 -135t22 -169v-1093h-55v1095q-1 77 -18.5 144.5t-55 117.5t-96.5 78.5t-143 28.5q-92 0 -161.5 -31.5t-117.5 -85t-76.5 -124.5t-38.5 -150l1 -657h-55v1082h55l-1 -231v-19z M696 1496h67l-117 -273h-56z" />
<glyph unicode="&#x3af;" d="M231 1082h314l60 1l1 -824q-1 -63 20 -107t58 -71.5t87 -40.5t108 -13q40 0 78.5 5.5t77.5 10.5l9 -46q-83 -17 -163 -17q-72 0 -132 14.5t-104 47.5t-69 86t-27 131l-4 768h-314v55zM664 1475h67l-117 -273h-56z" />
<glyph unicode="&#x3b0;" d="M276 1082l-1 -697q1 -72 19 -135.5t54.5 -111.5t93 -76t134.5 -28q102 0 177.5 41.5t125 109.5t74 155.5t24.5 179.5q1 146 -30.5 287t-89.5 275h68q47 -139 76.5 -275t28.5 -284q0 -104 -28 -202t-84 -173.5t-140.5 -121.5t-199.5 -46q-92 0 -158.5 31.5t-110.5 86.5 t-65.5 129.5t-22.5 159.5v695h55zM548 1634h76l-41 -240h-57zM292 1398q0 21 15.5 38.5t37.5 17.5t38 -17.5t16 -38.5t-16 -38t-38 -17q-21 0 -37 17t-16 38zM709 1398q0 21 15.5 38.5t37.5 17.5t38.5 -17.5t15.5 -38.5q0 -21 -16 -38t-38 -17q-21 0 -37 17t-16 38z" />
<glyph unicode="&#x3b1;" d="M960 1082v-827q0 -31 3.5 -69.5t15.5 -73t36.5 -57.5t66.5 -23q17 0 32.5 3t31.5 7l11 -49q-18 -6 -35 -10t-37 -4q-51 0 -84.5 20t-53 53t-28 75t-11.5 84q-26 -51 -64 -93.5t-85.5 -73.5t-102.5 -48t-114 -17q-74 0 -132 22.5t-102.5 62t-76 92.5t-52 113t-30 124.5 t-9.5 127.5v21q0 63 9.5 129t29.5 128t51 117.5t76 96.5t104 65t134 24q61 0 116 -19.5t101.5 -54t83 -80.5t61.5 -100v6l6 228h48zM196 521q0 -55 7.5 -112.5t23.5 -112t42.5 -102t64.5 -83.5t89.5 -57t117.5 -21q67 0 126.5 23t107.5 63t81.5 94.5t49.5 117.5v378 q-15 65 -48 126t-80 108t-106.5 76t-128.5 29q-67 0 -118.5 -22t-90 -60t-65 -88.5t-42.5 -107t-23.5 -115.5t-7.5 -113v-21z" />
<glyph unicode="&#x3b2;" d="M598 1476q82 0 153 -27t124 -76.5t83.5 -118.5t30.5 -152q0 -61 -16.5 -113t-46.5 -94t-71.5 -73.5t-91.5 -51.5q70 -15 130.5 -47t105 -80t70 -112.5t25.5 -145.5q0 -96 -35 -171.5t-96 -127.5t-142 -79.5t-172 -27.5q-55 0 -110.5 11t-106.5 33t-94.5 54.5t-73.5 76.5 v-567h-54v706q-1 6 -1.5 12t-0.5 13l2 1v734q1 82 29.5 158.5t79 135t121.5 94t158 35.5zM594 791q75 1 138 21t108 59.5t70 98t25 137.5q0 72 -27 130t-72.5 99t-107 63.5t-130.5 22.5q-76 0 -137.5 -31t-104.5 -82.5t-67 -118t-25 -137.5v-803q21 -54 62 -95t93.5 -68 t112 -40.5t117.5 -13.5q81 0 152.5 22t124 66t83 109t30.5 151q0 89 -32.5 155t-87.5 110t-129 66t-156 23h-143v56h103z" />
<glyph unicode="&#x3b3;" d="M1083 1082h62l-489 -1078v-419h-57v415l-489 1082h62l388 -853l65 -160h3l68 160z" />
<glyph unicode="&#x3b4;" d="M266 1309q1 69 37 117t90.5 78.5t118.5 44.5t120 14q85 1 165 -17t154 -60l-18 -49q-73 35 -146 54t-154 18q-47 0 -101 -9.5t-101 -32.5t-78.5 -61.5t-32.5 -96.5q-1 -43 14.5 -76.5t42 -58.5t61.5 -43t72.5 -31.5t75.5 -23t71 -16.5q94 -21 177 -67t145.5 -113 t99 -152.5t38.5 -185.5v-42q-2 -107 -37 -201.5t-99 -165t-154 -112t-201 -41.5t-201.5 41t-155 112t-100 165.5t-36.5 201.5v42q1 87 28 168.5t76.5 147.5t120.5 111.5t161 59.5v11q-44 17 -89 41t-81.5 56.5t-59.5 75t-23 96.5zM187 500q1 -95 33 -179.5t89 -148 t137.5 -101t179.5 -37.5q98 0 178 37.5t137 101.5t88.5 148.5t33.5 178.5v42q-2 82 -35 160.5t-89.5 142t-131.5 104.5t-159 48q-97 7 -180.5 -28.5t-145.5 -100t-98 -150t-37 -176.5v-42z" />
<glyph unicode="&#x3b5;" d="M170 290q0 62 22.5 107t61 76.5t88 50.5t103.5 30q-49 12 -95 32t-81 50t-56.5 71t-21.5 95q0 58 19.5 103t53.5 78.5t79 56t94.5 36.5t101 20t98.5 6q73 0 148 -16.5t137.5 -53t105 -94t50.5 -139.5h-57q-2 70 -40.5 118t-95.5 77t-123.5 41.5t-124.5 12.5q-39 0 -83 -4 t-87 -15t-82.5 -28.5t-70 -44.5t-48.5 -64.5t-18 -86.5t19 -85t50 -61t71.5 -40t84.5 -23.5t87.5 -12t80.5 -3.5h185v-55h-185q-40 0 -86.5 -3t-93 -11.5t-89.5 -24.5t-76 -42.5t-52.5 -65t-19.5 -91.5q0 -51 19.5 -90t52 -67t75 -46.5t88.5 -29t92 -15t86 -4.5q41 0 86.5 6 t90 18.5t85 33.5t72 50.5t50.5 68.5t20 89h57q-8 -87 -51.5 -148.5t-108.5 -99.5t-144 -55.5t-157 -17.5q-48 0 -101 6.5t-105 21t-99 38.5t-83 58.5t-57.5 80.5t-21.5 105z" />
<glyph unicode="&#x3b6;" d="M1066 1456l-1 -37l-493 -579q-44 -52 -88.5 -109.5t-80 -120t-57 -130t-20.5 -139.5q1 -47 20 -83t50.5 -63.5t71.5 -47t83 -33.5t85.5 -24.5t78.5 -18.5l100 -24q37 -9 77.5 -21t75 -32.5t57 -51.5t22.5 -78q0 -41 -13.5 -79.5t-36.5 -71.5t-54 -60t-66 -45l-39 31 q30 16 58.5 40t50 53t34.5 63t13 70q-1 35 -20 57t-47 36t-60 22t-59 14l-100 24q-44 10 -92.5 22.5t-97 30t-92.5 41t-77.5 56t-54 75t-21.5 98.5q-1 78 22 150.5t60.5 140t84.5 129.5t95 118l444 524h-857v53h944z" />
<glyph unicode="&#x3b7;" d="M262 832q23 58 58 107.5t83.5 85.5t111 56.5t140.5 20.5q98 0 167.5 -32t114 -89t65.5 -135t22 -169v-1093h-55v1095q-1 77 -18.5 144.5t-55 117.5t-96.5 78.5t-143 28.5q-92 0 -161.5 -31.5t-117.5 -85t-76.5 -124.5t-38.5 -150l1 -657h-55v1082h55l-1 -231v-19z" />
<glyph unicode="&#x3b8;" d="M1027 594q0 -66 -8 -136.5t-26.5 -139t-48.5 -130t-75.5 -107.5t-107 -73.5t-142.5 -27.5t-143 27.5t-107.5 73.5t-76.5 107.5t-49.5 130t-27 139t-8.5 136.5v268q0 65 8.5 136.5t27 139.5t49 129.5t76 108t107 74t142.5 27.5t143 -27.5t107.5 -74t76 -108t49 -129.5 t26.5 -139.5t8 -136.5v-268zM261 749h713v113q-1 57 -7.5 121t-22 126.5t-41.5 119.5t-65 100t-94 68.5t-127 25.5q-73 0 -127.5 -25.5t-94 -69t-65.5 -100t-41 -119t-21.5 -126.5t-6.5 -121v-113zM974 695h-713v-99q0 -57 6.5 -121t22.5 -126t42 -119.5t66 -100.5t94.5 -69 t126.5 -26t126.5 26t93.5 69.5t65 100.5t41.5 119.5t21.5 126t7 120.5v99z" />
<glyph unicode="&#x3b9;" d="M231 1082h314l60 1l1 -824q-1 -63 20 -107t58 -71.5t87 -40.5t108 -13q40 0 78.5 5.5t77.5 10.5l9 -46q-83 -17 -163 -17q-72 0 -132 14.5t-104 47.5t-69 86t-27 131l-4 768h-314v55z" />
<glyph unicode="&#x3ba;" d="M489 533l-193 -179v-354h-55v1082h55v-659l183 179l499 480h70l-519 -510l583 -572h-74z" />
<glyph unicode="&#x3bb;" d="M249 1518q57 1 97.5 -22.5t69 -61t48.5 -83.5t37 -91l379 -1023q11 -29 24 -62t32 -61t45.5 -47t64.5 -19q12 0 24 2.5t24 4.5l9 -51q-14 -4 -28 -7t-29 -3q-48 0 -83 19t-60 50.5t-42.5 70t-31.5 77.5l-280 767l-9 24l-416 -1002h-59l447 1076l-66 176 q-13 35 -28.5 72.5t-37.5 68.5t-53.5 51t-76.5 20q-12 0 -24 -2l-24 -4l-9 50q14 4 28 7t28 3z" />
<glyph unicode="&#x3bc;" d="M276 1082v-642q2 -75 17 -148t50.5 -130.5t93.5 -92.5t145 -35q97 0 165 31.5t111.5 85.5t65.5 127t28 156v648h54v-1082h-51l-3 220q-22 -53 -54.5 -96.5t-77 -75.5t-101.5 -50t-128 -18q-53 0 -100 13.5t-87 38.5t-72.5 59.5t-55.5 76.5v-584h-52v1498h52z" />
<glyph unicode="&#x3bd;" d="M612 79l435 1003h61l-469 -1082h-55l-468 1082h61z" />
<glyph unicode="&#x3be;" d="M1042 1377q-70 23 -143 34.5t-147 11.5q-44 0 -91 -5.5t-92 -18.5t-85.5 -33.5t-71 -51t-48.5 -71.5t-18 -95q0 -56 20 -96.5t54 -69t78 -46.5t92.5 -28t97 -13.5t91.5 -3.5h130v-56h-130q-62 -1 -124.5 -10t-120 -28.5t-108 -50t-88 -73.5t-59 -99.5t-21.5 -128.5 q0 -65 19.5 -116.5t53 -92t79 -70.5t97.5 -52.5t107 -39.5t109 -31l84 -21q34 -9 72.5 -20.5t71.5 -30.5t54.5 -48.5t21.5 -72.5q0 -38 -14 -70.5t-36.5 -60t-51.5 -50t-59 -39.5l-34 33q25 15 50.5 34.5t46 42.5t33 51t12.5 60q0 30 -19 50t-46 33t-57 21t-52 14l-84 21 q-60 15 -121.5 34.5t-118.5 46.5t-107 61.5t-87 80.5t-58 104.5t-21 131.5q0 89 30.5 157.5t82 119t120 84t144.5 51.5q-56 13 -108 35.5t-92.5 57t-65 81.5t-24.5 109q0 63 19.5 112t53.5 86t80 62.5t97.5 41.5t106.5 23t108 7q75 0 148.5 -12t144.5 -37z" />
<glyph unicode="&#x3bf;" d="M141 562q1 104 33 201.5t92 172.5t147.5 120.5t200.5 45.5t200.5 -45t148 -120t92.5 -172.5t33 -202.5v-42q-1 -104 -32.5 -201.5t-91.5 -172.5t-147.5 -120.5t-200.5 -45.5t-201 45t-148.5 120t-92.5 172.5t-33 202.5v42zM195 520q1 -92 29.5 -179.5t82 -155.5 t131.5 -109.5t178 -41.5t177 41.5t130.5 110t81.5 155.5t29 179v42q-1 91 -29.5 178.5t-82 155.5t-131.5 110t-177 42t-176.5 -42t-131 -110t-82 -155.5t-29.5 -178.5v-42z" />
<glyph unicode="&#x3c0;" d="M1128 1027h-207l1 -756q1 -41 7 -81t23 -72t47.5 -52t78.5 -20q26 0 51.5 2.5t51.5 6.5l9 -51q-27 -7 -54 -9.5t-55 -2.5q-63 0 -104 23t-65 61t-34 88.5t-11 106.5v756h-527v-1027h-53v1027h-188v55h1029v-55z" />
<glyph unicode="&#x3c1;" d="M1057 521q-1 -97 -24 -193.5t-72.5 -174t-127.5 -125.5t-190 -48q-52 0 -105.5 12t-103 34.5t-92.5 56t-74 77.5v-576h-55v713q-1 2 -1 8l1 315v16q1 96 30.5 180.5t84 148.5t134 100.5t180.5 36.5q76 0 136 -23.5t106 -64.5t78.5 -95.5t53.5 -116.5t30.5 -128.5 t10.5 -131.5v-21zM1002 542q0 56 -8 115.5t-25.5 116t-45 106.5t-67.5 87t-93 59t-121 22q-95 0 -164 -35.5t-114.5 -95.5t-69 -138.5t-27.5 -163.5h1v-347q24 -57 61.5 -100.5t86 -73.5t106 -45t122.5 -15q67 0 119.5 20.5t92 55.5t67 82.5t45 101.5t25.5 112t9 115v21z " />
<glyph unicode="&#x3c2;" d="M624 1102q88 0 162.5 -26.5t130 -76t88 -120t37.5 -159.5h-55q-2 78 -31 139t-77.5 103t-114 64t-140.5 22q-104 0 -182.5 -40t-131.5 -107t-80.5 -155t-28.5 -184v-42q1 -105 39 -185.5t101.5 -139.5t148 -98t179.5 -61q42 -10 84 -23t75 -34.5t53 -55.5t19 -86 q-1 -33 -13.5 -65t-32.5 -60.5t-46 -52t-54 -38.5l-36 32q51 28 88.5 75.5t39.5 108.5q1 41 -16 66.5t-45 41t-62 24t-66 15.5q-106 24 -199 67t-162 108t-109.5 154.5t-41.5 206.5v42q1 107 33 204.5t93 172t149.5 119t203.5 44.5z" />
<glyph unicode="&#x3c3;" d="M1150 1027h-348q64 -33 113.5 -81.5t82.5 -108.5t50.5 -129t18.5 -144v-43q-1 -104 -32.5 -201.5t-91.5 -173t-147 -121t-200 -45.5t-200.5 45.5t-148 120.5t-92.5 172.5t-33 201.5v42q1 102 33.5 196t93.5 166t147.5 115t196.5 43h557v-55zM176 520q1 -92 29.5 -179.5 t81.5 -155.5t131 -109.5t178 -41.5t177 42t130 110t81 155.5t29 178.5v42q-1 90 -30.5 174t-83.5 148.5t-131.5 103.5t-173.5 39t-173 -39t-131 -103.5t-83.5 -148.5t-30.5 -174v-42z" />
<glyph unicode="&#x3c4;" d="M1055 1027h-425l-1 -748q1 -53 13 -98t37.5 -77.5t65 -51.5t96.5 -19q30 0 60 2.5t59 6.5l10 -50q-32 -8 -62.5 -10.5t-62.5 -2.5q-72 1 -122.5 22t-83.5 60t-48.5 94.5t-16.5 123.5l-1 748h-373v55h855v-55z" />
<glyph unicode="&#x3c5;" d="M276 1082l-1 -697q1 -72 19 -135.5t54.5 -111.5t93 -76t134.5 -28q102 0 177.5 41.5t125 109.5t74 155.5t24.5 179.5q1 146 -30.5 287t-89.5 275h68q47 -139 76.5 -275t28.5 -284q0 -104 -28 -202t-84 -173.5t-140.5 -121.5t-199.5 -46q-92 0 -158.5 31.5t-110.5 86.5 t-65.5 129.5t-22.5 159.5v695h55z" />
<glyph unicode="&#x3c6;" d="M604 -20q-113 6 -192.5 56.5t-130 129t-73 177.5t-22.5 203q0 69 11 146t37 150t68 136.5t104 104.5l24 -44q-55 -39 -91.5 -98t-58.5 -126t-31.5 -137.5t-9.5 -133.5q0 -93 19 -181.5t62.5 -159.5t113 -116.5t170.5 -52.5l-1 859q1 33 10 66t27 60t45 44.5t65 18.5 q64 1 114 -24t87.5 -68.5t63 -99.5t41 -116t22.5 -119.5t7 -108.5q0 -66 -11.5 -133t-35 -128.5t-59 -115.5t-83 -95t-107.5 -66t-133 -28v-459h-51zM656 33q65 3 117.5 26t94.5 60.5t73 87t51 105t30 115t10 117.5q0 39 -5.5 91t-19 106.5t-34.5 107t-52.5 93.5t-73.5 64.5 t-97 21.5q-26 -1 -43 -14.5t-28 -33t-16 -43t-6 -44.5z" />
<glyph unicode="&#x3c7;" d="M628 602l383 480h72l-421 -527l443 -555h-70l-408 508l-406 -508h-71l443 555l-421 527h72z" />
<glyph unicode="&#x3c8;" d="M649 1082v-1048q111 5 186 55.5t120.5 128.5t65 174.5t19.5 195.5q0 131 -33.5 255t-93.5 239h62q61 -114 90 -238.5t29 -253.5q0 -111 -23.5 -218t-76 -192.5t-137.5 -139.5t-208 -59v-396h-52v396q-80 4 -142.5 31t-109.5 71t-80 101.5t-53.5 124t-30.5 138t-10 143.5 l1 492h51l1 -494q1 -95 19.5 -190.5t61.5 -174t114 -130t178 -58.5v1047h52z" />
<glyph unicode="&#x3c9;" d="M260 1082q-54 -141 -84 -285.5t-30 -296.5q0 -36 3 -84.5t11.5 -100t24 -102t41 -90t62.5 -64.5t88 -25q50 0 85 22t59.5 58.5t38.5 83.5t21.5 96t10 96t3.5 83v1v11v2l2 283h51l2 -283v-2q0 -35 2 -82t9.5 -97.5t21 -99.5t38 -87.5t60.5 -62t87 -22.5q51 0 88 25 t62.5 64.5t41 90t24 102t11.5 100t3 84.5q0 152 -30.5 296.5t-82.5 285.5h58q31 -66 52 -137.5t33.5 -146t17.5 -149t5 -146.5q0 -44 -4 -100t-15 -114.5t-30.5 -113.5t-51 -98.5t-76 -70t-105.5 -26.5q-55 0 -96 20t-70.5 53.5t-49 78t-31.5 93.5q-12 -49 -31.5 -93.5 t-49 -78t-70.5 -53.5t-96 -20q-61 0 -105 26.5t-75.5 70t-51 99t-30 113.5t-14.5 114t-4 100q0 72 5 146.5t17 149t33 146t52 137.5h59z" />
<glyph unicode="&#x3ca;" d="M231 1082h314l60 1l1 -824q-1 -63 20 -107t58 -71.5t87 -40.5t108 -13q40 0 78.5 5.5t77.5 10.5l9 -46q-83 -17 -163 -17q-72 0 -132 14.5t-104 47.5t-69 86t-27 131l-4 768h-314v55zM291 1398q0 22 16.5 39t38.5 17t39 -17t17 -39t-17 -38.5t-39 -16.5t-38.5 16.5 t-16.5 38.5zM736 1398q0 22 16.5 39t38.5 17t39 -17t17 -39t-17 -38.5t-39 -16.5t-38.5 16.5t-16.5 38.5z" />
<glyph unicode="&#x3cb;" d="M276 1082l-1 -697q1 -72 19 -135.5t54.5 -111.5t93 -76t134.5 -28q102 0 177.5 41.5t125 109.5t74 155.5t24.5 179.5q1 146 -30.5 287t-89.5 275h68q47 -139 76.5 -275t28.5 -284q0 -104 -28 -202t-84 -173.5t-140.5 -121.5t-199.5 -46q-92 0 -158.5 31.5t-110.5 86.5 t-65.5 129.5t-22.5 159.5v695h55zM290 1398q0 22 16.5 39t38.5 17t39 -17t17 -39t-17 -38.5t-39 -16.5t-38.5 16.5t-16.5 38.5zM735 1398q0 22 16.5 39t38.5 17t39 -17t17 -39t-17 -38.5t-39 -16.5t-38.5 16.5t-16.5 38.5z" />
<glyph unicode="&#x3cc;" d="M141 562q1 104 33 201.5t92 172.5t147.5 120.5t200.5 45.5t200.5 -45t148 -120t92.5 -172.5t33 -202.5v-42q-1 -104 -32.5 -201.5t-91.5 -172.5t-147.5 -120.5t-200.5 -45.5t-201 45t-148.5 120t-92.5 172.5t-33 202.5v42zM195 520q1 -92 29.5 -179.5t82 -155.5 t131.5 -109.5t178 -41.5t177 41.5t130.5 110t81.5 155.5t29 179v42q-1 91 -29.5 178.5t-82 155.5t-131.5 110t-177 42t-176.5 -42t-131 -110t-82 -155.5t-29.5 -178.5v-42zM704 1496h67l-117 -273h-56z" />
<glyph unicode="&#x3cd;" d="M276 1082l-1 -697q1 -72 19 -135.5t54.5 -111.5t93 -76t134.5 -28q102 0 177.5 41.5t125 109.5t74 155.5t24.5 179.5q1 146 -30.5 287t-89.5 275h68q47 -139 76.5 -275t28.5 -284q0 -104 -28 -202t-84 -173.5t-140.5 -121.5t-199.5 -46q-92 0 -158.5 31.5t-110.5 86.5 t-65.5 129.5t-22.5 159.5v695h55zM663 1475h67l-117 -273h-56z" />
<glyph unicode="&#x3ce;" d="M260 1082q-54 -141 -84 -285.5t-30 -296.5q0 -36 3 -84.5t11.5 -100t24 -102t41 -90t62.5 -64.5t88 -25q50 0 85 22t59.5 58.5t38.5 83.5t21.5 96t10 96t3.5 83v1v11v2l2 283h51l2 -283v-2q0 -35 2 -82t9.5 -97.5t21 -99.5t38 -87.5t60.5 -62t87 -22.5q51 0 88 25 t62.5 64.5t41 90t24 102t11.5 100t3 84.5q0 152 -30.5 296.5t-82.5 285.5h58q31 -66 52 -137.5t33.5 -146t17.5 -149t5 -146.5q0 -44 -4 -100t-15 -114.5t-30.5 -113.5t-51 -98.5t-76 -70t-105.5 -26.5q-55 0 -96 20t-70.5 53.5t-49 78t-31.5 93.5q-12 -49 -31.5 -93.5 t-49 -78t-70.5 -53.5t-96 -20q-61 0 -105 26.5t-75.5 70t-51 99t-30 113.5t-14.5 114t-4 100q0 72 5 146.5t17 149t33 146t52 137.5h59zM714 1475h67l-117 -273h-56z" />
<glyph unicode="&#x3d1;" d="M1169 720q-45 -16 -92 -25t-95 -10v-264q-1 -97 -26 -178.5t-74.5 -140t-125 -90.5t-177.5 -32q-98 0 -172 34.5t-124.5 94t-77 139.5t-27.5 173v325l54 2v-327q1 -82 23 -152.5t65 -122.5t107.5 -82t151.5 -30q92 0 157.5 27.5t107.5 78.5t62.5 122.5t21.5 158.5v265 q-105 4 -199 35.5t-165.5 90t-114 144.5t-43.5 200v22q1 58 18.5 115.5t51 102.5t83 73t114.5 28q87 0 146 -38t95 -98t51.5 -135t16.5 -148v-339q45 1 89 9.5t87 23.5zM460 1154q1 -104 39 -180t101.5 -127t148 -77.5t179.5 -30.5v339q-1 63 -12 128t-39.5 118t-78 86.5 t-125.5 32.5q-55 0 -94.5 -23.5t-65.5 -61t-39 -85t-14 -95.5v-24z" />
<glyph unicode="&#x3d2;" d="M861 1239q18 42 41 83.5t53 74t69.5 52t91.5 18.5q27 -1 51.5 -8t47.5 -20l-22 -41q-20 10 -39.5 15.5t-41.5 6.5q-42 1 -74.5 -18.5t-57 -50t-43 -67t-32.5 -69.5l-258 -598v-617h-54v624l-262 591q-15 32 -33 68.5t-42.5 67.5t-57 50.5t-74.5 18.5q-22 -1 -41.5 -6.5 t-39.5 -15.5l-23 41q24 12 48.5 19.5t51.5 8.5q52 1 92 -18.5t70 -52t52.5 -74t40.5 -83.5l192 -443l51 -124l51 124z" />
<glyph unicode="&#x3d6;" d="M1202 1028h-146q24 -62 40 -127.5t25.5 -132.5t14 -134t4.5 -131q0 -45 -4 -101t-15 -114t-30.5 -113.5t-51 -98.5t-76.5 -69.5t-106 -26.5q-55 0 -96 19.5t-71 53t-50 78t-32 93.5q-12 -49 -31.5 -93.5t-49.5 -78t-71.5 -53t-96.5 -19.5q-61 0 -105.5 26.5t-76 69.5 t-51 98.5t-31 113.5t-15.5 114t-4 101q0 130 18.5 265.5t67.5 259.5h-139v55h1179v-55zM1087 500q1 137 -24.5 268t-70.5 260h-769q-44 -129 -69 -260t-25 -268q0 -36 3 -84.5t12 -100t24.5 -102t41.5 -90t63 -64.5t88 -25q50 0 86 22t60.5 58.5t38.5 84t22 96.5t10 95.5 t3 83.5v13l2 285h51l2 -285v-18.5t-1 -20.5q1 -38 4.5 -83.5t12 -92t23.5 -89.5t39.5 -76.5t59 -53.5t82.5 -19q51 1 88 25.5t63 64t41.5 90t24 102t11.5 100t3 84.5z" />
<glyph unicode="&#x400;" d="M950 722h-677v-668h772v-54h-825v1456h825v-54h-772v-626h677v-54zM569 1569h-58l-187 266h65z" />
<glyph unicode="&#x401;" d="M950 722h-677v-668h772v-54h-825v1456h825v-54h-772v-626h677v-54zM241 1740q0 22 16.5 39t38.5 17t39 -17t17 -39t-17 -38.5t-39 -16.5t-38.5 16.5t-16.5 38.5zM686 1740q0 22 16.5 39t38.5 17t39 -17t17 -39t-17 -38.5t-39 -16.5t-38.5 16.5t-16.5 38.5z" />
<glyph unicode="&#x402;" d="M933 1402h-476v-609q66 36 137 61.5t149 25.5q101 0 173 -38t118 -102.5t67.5 -148.5t21.5 -176q0 -83 -25.5 -158.5t-73 -134t-115.5 -94.5t-155 -39v51q76 3 135 35t99 83.5t60.5 118t20.5 138.5q0 78 -18 152t-57.5 132t-101.5 93t-149 35q-41 0 -77.5 -8t-71.5 -20.5 t-69 -29t-68 -32.5v-737h-50v1402h-352v54h878v-54z" />
<glyph unicode="&#x403;" d="M1057 1402h-804v-1402h-54v1456h858v-54zM750 1835h66l-191 -266h-59z" />
<glyph unicode="&#x404;" d="M1105 446q-9 -100 -43.5 -185.5t-93.5 -148t-141.5 -97.5t-187.5 -35q-85 0 -153 27.5t-120.5 74.5t-90 109.5t-62 133.5t-36.5 146.5t-12 147.5v218q1 72 12.5 147.5t36 146.5t62 133.5t90 109.5t120.5 74.5t153 27.5q104 0 186.5 -35t142 -97t94 -147t43.5 -185h-52 q-13 88 -43.5 163.5t-81 130t-122 85.5t-167.5 31q-76 0 -137 -25.5t-107.5 -69t-79.5 -101t-54 -122.5t-31.5 -133t-10.5 -132v-73h575v-54h-575v-93q1 -64 10.5 -132.5t31 -133.5t54.5 -122.5t79.5 -101.5t107 -69.5t137.5 -25.5q97 0 169 30.5t122.5 85.5t80 130.5 t42.5 165.5h52z" />
<glyph unicode="&#x405;" d="M1044 349q1 86 -37 146.5t-97 102.5t-131.5 70.5t-141.5 49.5q-50 15 -102 34t-101 43t-92 54.5t-75 70t-50.5 89t-17.5 111.5q0 88 39.5 155t102.5 111.5t141.5 67t158.5 22.5q91 0 170.5 -29.5t138.5 -82.5t94.5 -129t39.5 -169h-53q-8 79 -39.5 144.5t-82.5 112.5 t-119 73t-149 26q-68 0 -137 -18t-125 -55t-91 -93.5t-36 -133.5q-1 -55 16.5 -99t47.5 -78.5t69.5 -61.5t84.5 -47.5t91.5 -36.5t90.5 -29q78 -23 157.5 -56t144 -81.5t105 -117.5t40.5 -164q0 -94 -39 -163.5t-102.5 -115.5t-144.5 -69t-166 -23q-95 0 -182 26.5 t-154 78.5t-109 128.5t-46 177.5h53q9 -89 46.5 -155.5t96 -111.5t134 -67.5t161.5 -22.5q73 0 144.5 18.5t127.5 56.5t90.5 97.5t34.5 142.5z" />
<glyph unicode="&#x406;" d="M212 1456h806v-56h-381v-1346h381v-54h-806v54h367v1346h-367v56z" />
<glyph unicode="&#x407;" d="M212 1456h806v-56h-381v-1346h381v-54h-806v54h367v1346h-367v56zM346 1740q0 22 16.5 39t38.5 17t39 -17t17 -39t-17 -38.5t-39 -16.5t-38.5 16.5t-16.5 38.5zM791 1740q0 22 16.5 39t38.5 17t39 -17t17 -39t-17 -38.5t-39 -16.5t-38.5 16.5t-16.5 38.5z" />
<glyph unicode="&#x408;" d="M947 1456h55v-1014q-2 -95 -34 -178.5t-89 -146.5t-137 -100t-178 -37q-97 0 -175.5 30t-135.5 85.5t-89.5 133t-38.5 172.5h55q4 -84 32.5 -152t78 -116t119 -74t154.5 -25q86 1 156 33.5t120 88t78 129.5t30 157z" />
<glyph unicode="&#x409;" d="M706 1456v-648h197q79 -2 131.5 -40.5t84 -97.5t45 -130t13.5 -136q0 -43 -5.5 -90t-18.5 -91.5t-34 -84.5t-51.5 -70.5t-71.5 -48.5t-93 -19h-243v1402h-322l-19 -580q-1 -35 -2.5 -88t-5 -117t-10.5 -134.5t-19 -138.5t-30.5 -130t-45.5 -109.5t-63 -75.5t-83 -29h-26 v54h27q36 1 64 28.5t48.5 73.5t35.5 106t25 125.5t15.5 132t9 125t5 105t2.5 72.5l27 634h413zM706 754v-700h197q45 1 78.5 17.5t58 43.5t41 62.5t26 74t13.5 78.5t4 76q0 54 -10 114t-34.5 111.5t-67.5 86t-109 36.5h-197z" />
<glyph unicode="&#x40a;" d="M189 748h475v708h46v-646h136q67 -1 116.5 -20t84.5 -50t56.5 -71.5t33.5 -85t16.5 -90.5t4.5 -88t-4.5 -88t-16.5 -90.5t-33.5 -85t-56.5 -71.5t-84.5 -50t-116.5 -20h-182v694h-475v-694h-46v1456h46v-708zM710 756v-703h136q61 1 103.5 18.5t71 45t45.5 64t25.5 75 t11 78t2.5 73.5t-3 72.5t-12 77t-26 74t-46 63t-71 44.5t-101 18h-136z" />
<glyph unicode="&#x40b;" d="M904 1402h-438v-645q74 23 147 42t152 19q101 0 170 -36t111.5 -97t61 -142t19.5 -172l-2 -371h-50l-1 371q-1 78 -16.5 149t-51.5 125t-95 86.5t-146 32.5q-80 1 -152.5 -18.5t-146.5 -43.5v-702h-49v1402h-349v54h836v-54z" />
<glyph unicode="&#x40c;" d="M494 764l-213 -211v-553h-52v1456h52v-839l217 230l557 609h74l-597 -654l643 -802h-67zM723 1747h66l-191 -266h-59z" />
<glyph unicode="&#x40d;" d="M998 1456h50v-1456h-51l2 1364l-768 -1364h-50v1456h51l-2 -1361zM645 1569h-58l-187 266h65z" />
<glyph unicode="&#x40e;" d="M653 451l23 45l479 960h67l-606 -1199q-28 -54 -62 -104.5t-77 -89t-96.5 -61.5t-120.5 -23q-23 0 -44.5 3.5t-43.5 9.5l15 51q20 -5 39 -7.5t39 -2.5q55 0 99 20t79 52.5t63 74.5t51 86l66 127l-611 1063h67zM936 1810q-3 -59 -25 -105t-59 -78t-86.5 -48.5 t-107.5 -16.5t-107.5 16.5t-86.5 48.5t-59.5 78t-25.5 105h54q3 -49 20.5 -85t47 -60t69.5 -35.5t88 -11.5q46 0 86 12t69.5 36t47.5 60t21 84h54z" />
<glyph unicode="&#x40f;" d="M187 1456h51v-1402h754v1402h51v-1456h-399v-349h-51v349h-406v1456z" />
<glyph unicode="&#x410;" d="M939 435h-619l-142 -435h-56l477 1456h62l477 -1456h-56zM337 489h585l-292 893z" />
<glyph unicode="&#x411;" d="M1050 1402h-804v-614h331q90 -1 167.5 -27.5t135.5 -76.5t91 -123t33 -167q0 -95 -33 -167.5t-91 -122.5t-135.5 -76.5t-167.5 -27.5h-385v1456h858v-54zM246 734v-680h331q78 1 146.5 23.5t118.5 66t79 106.5t29 146q0 81 -29.5 143.5t-80.5 105.5t-118.5 65.5 t-144.5 23.5h-331z" />
<glyph unicode="&#x412;" d="M217 0v1456h362q87 -1 168.5 -23.5t144.5 -68t101 -115.5t38 -166q0 -65 -17.5 -116t-50 -90.5t-78 -68t-100.5 -49.5l1 -5q64 -14 120 -45t97.5 -77t65.5 -104.5t24 -126.5q1 -92 -32.5 -165t-92 -125t-136.5 -80.5t-165 -30.5h-450zM270 719v-665h397q75 1 143 25.5 t119 68.5t81 107.5t29 143.5q0 75 -31 134t-81.5 99.5t-115.5 62.5t-135 24h-406zM270 773h329q73 1 141 19.5t120.5 57t84 97t31.5 140.5q0 84 -34 143.5t-90 97t-127.5 55.5t-145.5 19h-309v-629z" />
<glyph unicode="&#x413;" d="M1057 1402h-804v-1402h-54v1456h858v-54z" />
<glyph unicode="&#x414;" d="M1079 -349h-50v349h-855v-349h-50v403h60q44 29 76.5 83.5t56 127t39 160.5t25.5 182.5t16 192t10 191.5l18 465h564v-1402h90v-403zM460 991q-2 -44 -5 -117.5t-10.5 -161.5t-20.5 -184t-34.5 -185t-53 -165t-75.5 -124h678v1348h-467z" />
<glyph unicode="&#x415;" d="M950 722h-677v-668h772v-54h-825v1456h825v-54h-772v-626h677v-54z" />
<glyph unicode="&#x416;" d="M731 720h-94v-720h-48v720h-95l-376 -720h-58l386 733l-364 723h58l340 -682h109v682h48v-682h109l339 682h58l-364 -723l387 -733h-59z" />
<glyph unicode="&#x417;" d="M601 771q52 0 105 6.5t102.5 21t92 38t74.5 58.5t50 82.5t18 109.5q0 91 -38.5 155t-100.5 104t-140 58t-158 18t-155 -22t-134.5 -66t-96.5 -109t-41 -150h-54q4 96 45.5 170.5t108.5 125.5t152 78t175 27q92 0 180.5 -22t157.5 -70t111 -122.5t42 -178.5 q0 -71 -25 -127t-66.5 -97.5t-96.5 -70t-116 -44.5q67 -14 126.5 -41.5t104 -70.5t70.5 -104t26 -142q0 -70 -21 -127.5t-57.5 -103t-86 -78.5t-106.5 -55t-119 -32.5t-124 -10.5q-97 0 -186 28t-158 82t-111.5 133.5t-45.5 181.5h54q4 -90 42.5 -159.5t100 -116t140.5 -71 t164 -24.5q55 0 110.5 8t106.5 26t95.5 45.5t77 66.5t51.5 89.5t19 113.5q0 67 -19 117.5t-51.5 87t-77.5 61t-96.5 39.5t-108 21t-112.5 7h-184v56h184z" />
<glyph unicode="&#x418;" d="M998 1456h50v-1456h-51l2 1364l-768 -1364h-50v1456h51l-2 -1361z" />
<glyph unicode="&#x419;" d="M998 1456h50v-1456h-51l2 1364l-768 -1364h-50v1456h51l-2 -1361zM881 1810q-3 -59 -25 -105t-59 -78t-86.5 -48.5t-107.5 -16.5t-107.5 16.5t-86.5 48.5t-59.5 78t-25.5 105h54q3 -49 20.5 -85t47 -60t69.5 -35.5t88 -11.5q46 0 86 12t69.5 36t47.5 60t21 84h54z" />
<glyph unicode="&#x41a;" d="M503 711h-200v-711h-52v1456h52v-692h216l567 692h68l-592 -727l634 -729h-68z" />
<glyph unicode="&#x41b;" d="M1057 1456v-1456h-51v1402h-585l-31 -580q-2 -41 -5.5 -98.5t-10 -122.5t-17 -135t-26 -136.5t-38 -126t-53 -104.5t-70 -71.5t-89.5 -27.5h-30v54h32q52 1 91 46t66.5 116t45 158t28.5 172t16 158.5t7 117.5l36 634h684z" />
<glyph unicode="&#x41c;" d="M265 1456l349 -915l369 915h84v-1456h-54v708l2 675l-377 -913h-50l-349 903l1 -665v-708h-54v1456h79z" />
<glyph unicode="&#x41d;" d="M1052 0h-51v722h-772v-722h-51v1456h51v-680h772v680h51v-1456z" />
<glyph unicode="&#x41e;" d="M1086 619q-1 -71 -13 -146t-36 -146t-61.5 -134t-89.5 -110.5t-119.5 -75t-150.5 -27.5t-150.5 27.5t-120 75t-90.5 110.5t-62.5 134t-37 146t-13.5 146v218q1 71 13 146t36.5 146t62 134t90 110.5t119.5 75t151 27.5t151 -27.5t119.5 -75t90 -110.5t62 -134t36.5 -146 t13 -146v-218zM1033 839q-1 64 -11 132t-31 132.5t-54 122.5t-79.5 101.5t-107 69t-136.5 25.5t-136 -25.5t-106.5 -69t-79 -101.5t-53.5 -123t-31 -133t-11 -131v-220q1 -64 11 -132t31 -133t54 -123t79.5 -102t107 -69.5t136.5 -25.5t136.5 25.5t106.5 69.5t79 102t54 123 t30.5 133t10.5 132v220z" />
<glyph unicode="&#x41f;" d="M1043 0h-51v1402h-755v-1402h-51v1456h857v-1456z" />
<glyph unicode="&#x420;" d="M296 615v-615h-54v1456h444q93 -2 173 -32.5t139 -86t92.5 -133t33.5 -173.5t-34 -172t-93 -130t-139 -83.5t-172 -30.5h-390zM296 669h390q79 1 149 26.5t122 72t82.5 112.5t30.5 149q0 84 -29.5 152t-81 116.5t-122 75.5t-151.5 29h-390v-733z" />
<glyph unicode="&#x421;" d="M1082 446q-11 -96 -46.5 -181t-94.5 -148.5t-140.5 -100.5t-184.5 -36q-84 0 -151 28t-119.5 75t-90 110t-62.5 134t-37 145.5t-13 146.5v218q1 71 13 146.5t37 146t63 133.5t90 110t119 74.5t151 28.5q102 1 184 -35.5t141 -99.5t94.5 -148t46.5 -181h-53 q-14 84 -45.5 159t-82.5 131t-121.5 88.5t-163.5 31.5q-75 -1 -135.5 -26.5t-106.5 -69t-79.5 -101.5t-55 -122.5t-31.5 -132.5t-11 -131v-220q1 -64 11 -132t31.5 -132.5t54.5 -122.5t79.5 -102t106.5 -70t136 -26q94 -1 165 31.5t121.5 88.5t81.5 131.5t45 160.5h53z" />
<glyph unicode="&#x422;" d="M1123 1402h-479v-1402h-54l2 1402h-480v54h1011v-54z" />
<glyph unicode="&#x423;" d="M653 451l23 45l479 960h67l-606 -1199q-28 -54 -62 -104.5t-77 -89t-96.5 -61.5t-120.5 -23q-23 0 -44.5 3.5t-43.5 9.5l15 51q20 -5 39 -7.5t39 -2.5q55 0 99 20t79 52.5t63 74.5t51 86l66 127l-611 1063h67z" />
<glyph unicode="&#x424;" d="M640 1266q110 -3 202 -44.5t158.5 -112.5t103.5 -166t37 -204q0 -110 -37 -205.5t-103 -167t-158 -113.5t-203 -44v-209h-52v209q-110 3 -202 44.5t-158 112.5t-102.5 166t-36.5 205q0 109 36.5 204t102.5 166.5t158 113.5t202 45v190h52v-190zM1087 739 q0 99 -32.5 184.5t-91.5 149t-141 100.5t-182 39v-949q100 1 182.5 38.5t141.5 102t91 150.5t32 185zM144 737q0 -99 32 -184.5t90.5 -149t140 -101t181.5 -39.5v949q-99 -3 -181 -40.5t-140.5 -101.5t-90.5 -149.5t-32 -183.5z" />
<glyph unicode="&#x425;" d="M633 785l424 671h65l-455 -713l472 -743h-63l-443 701l-443 -701h-62l472 743l-455 713h65z" />
<glyph unicode="&#x426;" d="M223 1456h51v-1402h761v1402h51v-1402h110v-405h-51v351h-922v1456z" />
<glyph unicode="&#x427;" d="M1010 1456v-1456h-51v718q-81 -24 -163 -42t-168 -18q-104 0 -179.5 33t-124.5 92t-73 141t-25 181l2 351h51l1 -351q1 -86 21 -158t62.5 -124t108 -81.5t157.5 -29.5q86 -1 167.5 17t162.5 43v684h51z" />
<glyph unicode="&#x428;" d="M194 1456v-1402h397v1402h49v-1402h397v1402h48v-1456h-939v1456h48z" />
<glyph unicode="&#x429;" d="M198 1456v-1402h397v1402h49v-1402h397v1402h48v-1402h76v-405h-47v351h-968v1456h48z" />
<glyph unicode="&#x42a;" d="M43 1456h478v-668h274q86 -1 153.5 -31.5t114 -83.5t71 -124.5t24.5 -154.5t-24.5 -154.5t-71 -124.5t-114 -83.5t-153.5 -31.5h-324v1402h-428v54zM521 734v-680h274q75 1 132.5 27.5t96.5 72.5t59 108t20 134q0 71 -20.5 132t-59.5 106.5t-96.5 72t-131.5 27.5h-274z " />
<glyph unicode="&#x42b;" d="M241 788h215q94 -2 162 -34.5t111.5 -87t64 -125t20.5 -147.5t-21 -147.5t-64.5 -125t-111 -87.5t-161.5 -34h-263v1456h48v-668zM241 734v-680h215q82 1 140 30.5t94.5 76.5t52.5 108t16 127q0 65 -17 125.5t-53.5 107t-94 75t-138.5 30.5h-215zM1055 0h-48v1456h48 v-1456z" />
<glyph unicode="&#x42c;" d="M294 788h331q90 -1 167.5 -27.5t135.5 -76.5t91 -123t33 -167q0 -95 -33 -167.5t-91 -122.5t-135.5 -76.5t-167.5 -27.5h-384v1456h53v-668zM294 734v-680h331q78 1 146.5 23.5t118.5 66t79 106.5t29 146q0 81 -29.5 143.5t-80.5 105.5t-118.5 65.5t-144.5 23.5h-331z " />
<glyph unicode="&#x42d;" d="M196 446q13 -89 42 -164.5t78.5 -130.5t121 -86t168.5 -31q76 0 136.5 26t106.5 69.5t79 101.5t53.5 123t30 133t10.5 132v91h-568v54h568v75q-1 63 -10.5 131t-30.5 133t-53.5 122.5t-78.5 101t-106.5 69.5t-136.5 26q-96 0 -167 -31t-120.5 -86t-79.5 -130.5 t-43 -162.5h-52q8 99 42.5 184t93 147.5t140.5 97.5t186 35q85 0 152.5 -27.5t119.5 -74.5t89.5 -110t61.5 -134t35 -146t12 -147v-218q-1 -72 -12 -147t-35 -146t-61.5 -134t-89.5 -110t-119.5 -74.5t-152.5 -27.5q-105 0 -187 35.5t-140.5 98t-92.5 148t-42 184.5h52z" />
<glyph unicode="&#x42e;" d="M1110 619q0 -56 -6 -125t-21 -140t-41 -138t-66 -119.5t-96 -84.5t-132 -32q-75 0 -131 32t-96.5 84.5t-66 119.5t-41 138t-21.5 140t-6 125v114h-194v-733h-48v1456h48v-669h194v50q0 56 6 125t21 140t40.5 138t65.5 119.5t96 84.5t132 32q75 0 131.5 -32t96.5 -84 t66 -119.5t41 -138.5t21 -140t7 -125v-218zM1056 839q0 48 -4.5 110t-16.5 126.5t-33.5 127t-55.5 111t-83 78.5t-116 30t-115.5 -30t-82.5 -79t-55 -111t-33 -127t-16.5 -126.5t-4.5 -109.5v-220q0 -48 4.5 -110t16.5 -127t33.5 -127.5t55.5 -111.5t82.5 -79t115.5 -30 t116 30t83 79t55.5 111.5t33 127.5t16 127t4.5 110v220z" />
<glyph unicode="&#x42f;" d="M952 0v619h-482l-322 -619h-61l334 632l-4 5q-65 22 -116.5 58.5t-87.5 85t-55.5 108.5t-19.5 129q0 103 34 183.5t95 137t145 86.5t183 31h412v-1456h-55zM192 1020q0 -77 25.5 -140t71 -108t108.5 -71t139 -27h416v728h-357q-88 -1 -162 -26.5t-128 -74t-83.5 -119 t-29.5 -162.5z" />
<glyph unicode="&#x430;" d="M989 0q-12 51 -16 101t-5 101q-35 -55 -83.5 -97t-105.5 -69.5t-121 -41.5t-131 -14q-65 0 -127 19.5t-110 56.5t-77 92t-29 126q0 97 47 160.5t121.5 101t166.5 52.5t182 16h267v158q-2 73 -30 127t-74.5 89t-108 52.5t-129.5 17.5q-60 0 -122.5 -16t-113.5 -48.5 t-85 -82t-37 -117.5l-54 2q4 79 42.5 138t97 98.5t130 59.5t142.5 20q80 0 151.5 -21.5t125.5 -64t85.5 -107t33.5 -149.5v-542q1 -55 10 -105t19 -104l1 -9h-63zM527 33q71 -1 137.5 15.5t124 49.5t103.5 82t76 113v256h-264q-51 -1 -105.5 -6t-106.5 -17t-98.5 -32 t-81 -51t-55 -73.5t-19.5 -99.5q0 -57 26 -101.5t67.5 -74.5t93 -45.5t102.5 -15.5z" />
<glyph unicode="&#x431;" d="M611 1002q104 0 190.5 -37t149.5 -101.5t98.5 -152t36.5 -189.5v-42q-1 -103 -35 -194t-95.5 -159t-148.5 -107.5t-194 -39.5t-194 39.5t-149 107.5t-96.5 159t-35.5 194v42v9v61q0 81 11 165.5t34 165t60 153.5t90.5 131t125 98t163.5 55q44 7 96 17t97 30.5t75.5 55 t33.5 90.5h54q-4 -68 -37.5 -112.5t-83.5 -72t-109.5 -41.5t-116.5 -21q-100 -13 -173 -61.5t-123.5 -119.5t-81 -158.5t-45.5 -178.5q32 51 75.5 91t95.5 67.5t111 41.5t121 14zM611 948q-91 0 -167 -33t-131.5 -91t-87.5 -135.5t-33 -166.5v-42q1 -90 31.5 -171t85.5 -142 t132 -97t172 -36q94 0 170.5 36t131.5 97t85 142t31 171v42q-2 89 -33.5 167t-87 135.5t-132 90.5t-167.5 33z" />
<glyph unicode="&#x432;" d="M207 0v1082h392q68 -1 137 -13.5t124.5 -44t90 -85.5t34.5 -137q0 -56 -15.5 -95.5t-42.5 -68t-64 -47t-80 -31.5l9 -5q51 -8 94.5 -29t75.5 -54.5t51 -78.5t19 -100q1 -80 -30.5 -135.5t-82.5 -90t-117 -50.5t-134 -17h-461zM261 521v-467h407q57 1 112.5 12.5t100 39 t71.5 73t27 113.5q0 64 -29 108t-74 70.5t-100 38t-108 12.5h-407zM261 575h369q55 1 109 12t97 37t69 70t26 111q0 71 -31 114.5t-79 67.5t-107 32t-115 8h-338v-452z" />
<glyph unicode="&#x433;" d="M1040 1027h-769v-1027h-59v1082h828v-55z" />
<glyph unicode="&#x434;" d="M207 54q56 74 94 150.5t62.5 157t37 166t16.5 178.5l20 376h580v-1028h86v-372h-54v318h-870v-318h-44v372h72zM471 706q-4 -87 -15 -174.5t-33.5 -170.5t-59 -161t-91.5 -146h691v974h-475z" />
<glyph unicode="&#x435;" d="M658 -20q-111 0 -201.5 44.5t-155 119.5t-100.5 172t-37 202v44q1 101 34 198t94 173t148 122.5t197 46.5q98 0 177 -37t134.5 -100.5t85.5 -147.5t31 -177v-63h-847v-15v-44q1 -93 33 -180.5t89.5 -155t138 -108t179.5 -41.5q101 -1 185.5 35t149.5 114l39 -27 q-69 -90 -165.5 -132.5t-208.5 -42.5zM637 1048q-90 0 -162 -34.5t-124.5 -92.5t-85 -133.5t-42.5 -156.5h788v13q0 80 -27.5 153t-76.5 129t-118 89t-152 33z" />
<glyph unicode="&#x436;" d="M741 528h-111v-528h-50v528h-111l-390 -528h-62l401 551l-352 531h59l334 -500h121v500h50v-500h123l333 500h61l-354 -532l403 -550h-63z" />
<glyph unicode="&#x437;" d="M636 580q36 0 78.5 3t85 11t82.5 23t70.5 40t49 61t18.5 87q0 76 -38.5 123.5t-96.5 74t-124.5 36t-122.5 9.5q-36 0 -78 -5.5t-84 -17t-81 -31t-69.5 -47t-49.5 -64.5t-20 -84h-59q9 83 52.5 140.5t106.5 93.5t137.5 52.5t144.5 16.5q46 0 96 -5.5t99 -19t93 -35.5 t77.5 -55.5t53 -79t19.5 -105.5q-1 -54 -21.5 -95t-54 -71t-77.5 -50t-91 -32q52 -10 100 -29t85 -50t59 -76.5t22 -108.5q0 -60 -21 -106.5t-56.5 -81t-82 -58t-97.5 -37.5t-103.5 -20t-98.5 -6q-75 0 -153.5 16.5t-144.5 54.5t-111.5 99t-54.5 150h59q1 -50 20.5 -89.5 t51.5 -69t74 -49.5t87 -32.5t89.5 -18.5t82.5 -6t83 3.5t90 14t86.5 28.5t74 46t51.5 67t19 92q0 54 -19.5 93t-51.5 65.5t-74 42t-87.5 24t-90.5 11t-84 2.5h-170v55h170z" />
<glyph unicode="&#x438;" d="M961 1082h56v-1082h-56v986l-693 -986h-55v1082h55v-986z" />
<glyph unicode="&#x439;" d="M961 1082h56v-1082h-56v986l-693 -986h-55v1082h55v-986zM900 1468q-3 -59 -25 -105t-59 -78t-86.5 -48.5t-107.5 -16.5t-107.5 16.5t-86.5 48.5t-59.5 78t-25.5 105h54q3 -49 20.5 -85t47 -60t69.5 -35.5t88 -11.5q46 0 86 12t69.5 36t47.5 60t21 84h54z" />
<glyph unicode="&#x43a;" d="M521 529h-218v-529h-57v1082h57v-500h228l465 500h82l-497 -529l565 -553h-85z" />
<glyph unicode="&#x43b;" d="M1000 1082v-1082h-56v1027h-529l-18 -437q-2 -51 -4.5 -114t-11 -128.5t-25.5 -127.5t-48 -110.5t-79.5 -78.5t-119.5 -31h-33v53h36q59 1 99 30t65 75.5t38 104.5t19 117.5t7 114.5t3 95l20 492h637z" />
<glyph unicode="&#x43c;" d="M603 82l375 1000h57v-1082h-50v955l-363 -955h-39l-370 979v-979h-50v1082h64z" />
<glyph unicode="&#x43d;" d="M1017 0h-56v529h-694v-529h-54v1082h54v-499h694v499h56v-1082z" />
<glyph unicode="&#x43e;" d="M141 562q1 104 33 201.5t92 172.5t147.5 120.5t200.5 45.5t200.5 -45t148 -120t92.5 -172.5t33 -202.5v-42q-1 -104 -32.5 -201.5t-91.5 -172.5t-147.5 -120.5t-200.5 -45.5t-201 45t-148.5 120t-92.5 172.5t-33 202.5v42zM195 520q1 -92 29.5 -179.5t82 -155.5 t131.5 -109.5t178 -41.5t177 41.5t130.5 110t81.5 155.5t29 179v42q-1 91 -29.5 178.5t-82 155.5t-131.5 110t-177 42t-176.5 -42t-131 -110t-82 -155.5t-29.5 -178.5v-42z" />
<glyph unicode="&#x43f;" d="M1017 0h-56v1027h-693v-1027h-55v1082h804v-1082z" />
<glyph unicode="&#x440;" d="M1049 531q0 -63 -10.5 -128.5t-31.5 -126.5t-54.5 -115t-80.5 -94t-109 -63.5t-140 -23.5q-49 0 -99 12t-96 34.5t-86 55.5t-68 76v-574h-54v1498h54v-180q27 46 65.5 83t83.5 63t95.5 40t102.5 14q79 0 141.5 -23t109.5 -62.5t80.5 -93.5t55 -115t31 -126.5t10.5 -129.5 v-21zM994 552q0 56 -8.5 114.5t-26 113.5t-46 103.5t-69.5 85t-96 58t-126 21.5q-59 0 -113.5 -18.5t-100.5 -52.5t-80.5 -81.5t-53.5 -105.5v-534q20 -54 57.5 -95.5t84.5 -69.5t101 -42.5t107 -14.5q70 0 125 21.5t96 58.5t69 86t45.5 104t25.5 113t9 114v21z" />
<glyph unicode="&#x441;" d="M630 34q69 0 130.5 19t109 56.5t77.5 92.5t38 126h54q-8 -81 -43 -145.5t-89.5 -109.5t-126 -69t-150.5 -24q-114 0 -198.5 46t-140.5 121.5t-83.5 172.5t-28.5 200v42q1 102 28.5 199.5t83 173t139.5 121.5t198 46q85 0 157.5 -27t126.5 -76.5t87 -119t40 -154.5h-54 q-6 73 -35 132.5t-76.5 102t-110 65.5t-135.5 23q-103 0 -177 -41.5t-122.5 -110t-71.5 -156t-24 -178.5v-42q1 -93 24 -180t71.5 -155t123 -109.5t178.5 -41.5z" />
<glyph unicode="&#x442;" d="M1134 1027h-490v-1027h-57v1027h-465v55h1012v-55z" />
<glyph unicode="&#x443;" d="M623 74l13 30l440 978h65l-569 -1262q-25 -56 -55.5 -102.5t-70 -81t-90.5 -54t-117 -19.5q-44 0 -90 11l-2 51q20 -3 41 -6t42 -3q54 0 98 15.5t79 44t62 68t48 86.5l75 172l-508 1080h63z" />
<glyph unicode="&#x444;" d="M141 562q1 101 31 196t87 169.5t140 121.5t190 52v435h54v-435q106 -6 188.5 -53t139 -121.5t86.5 -169t31 -195.5v-42q-1 -101 -31 -196t-86.5 -169t-139 -121t-188.5 -53v-397h-54v397q-107 6 -189.5 52.5t-139.5 121t-87.5 169t-31.5 196.5v42zM195 520 q1 -89 27.5 -174t77 -152t123 -110t166.5 -49v1012q-94 -6 -166.5 -49.5t-123 -111t-77 -152t-27.5 -172.5v-42zM1034 562q-1 88 -27.5 172t-76.5 151.5t-122 111.5t-165 50v-1012q93 6 165.5 49.5t122 110.5t76 151.5t27.5 173.5v42z" />
<glyph unicode="&#x445;" d="M628 602l383 480h72l-421 -527l443 -555h-70l-408 508l-406 -508h-71l443 555l-421 527h72z" />
<glyph unicode="&#x446;" d="M265 1082h54v-1028h669v1028h55v-1028h91v-375h-54v321h-815v1082z" />
<glyph unicode="&#x447;" d="M1018 0h-55v523q-78 -38 -167.5 -59t-174.5 -22q-107 -1 -189 21t-137.5 70.5t-84 126.5t-29.5 188l-1 234h55v-234q1 -95 26.5 -163t74 -110.5t120.5 -61.5t165 -17q37 1 81.5 5t90.5 12.5t90 22.5t80 35v511h55v-1082z" />
<glyph unicode="&#x448;" d="M196 1082v-1028h397v1028h50v-1028h391v1028h49v-1082h-936v1082h49z" />
<glyph unicode="&#x449;" d="M195 1082v-1028h397v1028h50v-1028h391v1028h49v-1028h90v-375h-48v321h-978v1082h49z" />
<glyph unicode="&#x44a;" d="M67 1082h391v-412h314q75 -1 140 -24.5t113 -66.5t76 -104.5t28 -139.5t-27.5 -139.5t-76 -104.5t-113.5 -66.5t-140 -24.5h-367v1028h-338v54zM458 616v-562h314q64 1 119 20.5t96 55.5t64.5 88t23.5 119q0 66 -24 117.5t-65 87t-96 54.5t-118 20h-314z" />
<glyph unicode="&#x44b;" d="M234 670h256q71 -2 126.5 -29t93.5 -72.5t58 -105.5t20 -128t-20 -128.5t-58 -106t-93.5 -72.5t-126.5 -28h-306v1082h50v-412zM234 616v-562h255q61 1 106.5 24t76.5 61.5t46.5 89.5t15.5 108t-16 107t-47 87.5t-76.5 60t-105.5 24.5h-255zM1048 0h-49v1082h49v-1082z " />
<glyph unicode="&#x44c;" d="M267 670h370q76 -1 150 -21.5t132.5 -61.5t94 -103.5t35.5 -148.5t-35.5 -149t-93.5 -104t-132 -61t-151 -21h-425v1082h55v-412zM267 616v-562h370q65 1 129 17.5t115 50.5t82.5 87t31.5 128q0 74 -32 126.5t-83 86t-115 49.5t-128 17h-370z" />
<glyph unicode="&#x44d;" d="M583 1048q-70 0 -135.5 -18.5t-116 -55.5t-82 -93t-34.5 -132h-57q5 85 41.5 151t94.5 111t133 68t156 23q116 0 206.5 -43.5t153 -117.5t96 -172t34.5 -207v-42q-1 -109 -34 -207t-95.5 -172t-153 -117.5t-205.5 -43.5q-89 0 -165 26t-132.5 75t-90.5 120t-39 161h57 q2 -79 31.5 -140t79.5 -103t116.5 -63.5t142.5 -21.5q104 0 184 38.5t135 104.5t84 153.5t31 185.5h-624v54h624q-2 97 -31.5 184t-85 152t-135.5 103.5t-184 38.5z" />
<glyph unicode="&#x44e;" d="M186 557h249v5q0 53 7.5 114t24 121t43.5 115t66 97.5t91 67.5t119 25t119.5 -25t91.5 -67.5t66 -97.5t43.5 -115t24 -121t7.5 -114v-42q0 -53 -7.5 -114t-24 -121t-43.5 -115t-65.5 -97.5t-90.5 -67.5t-119 -25q-66 0 -117 24t-90 64t-66 93t-44.5 111t-26 117.5 t-9.5 113.5h-249v-503h-49v1082h49v-525zM488 520q0 -45 6.5 -98.5t20.5 -107.5t36 -104.5t55.5 -89.5t78 -62.5t103.5 -23.5q58 0 102.5 23.5t77 62.5t55 89.5t36 104.5t19.5 107.5t7 98.5v42q-1 45 -7 98t-20 107t-36.5 104.5t-55.5 90t-77.5 63t-102.5 23.5t-102.5 -23.5 t-77 -63t-55 -90t-36.5 -104.5t-20.5 -107.5t-6.5 -97.5v-42z" />
<glyph unicode="&#x44f;" d="M958 1082v-1082h-55v450h-414h-10l-288 -450h-66l292 457q-58 10 -107.5 35.5t-85.5 64.5t-56.5 91.5t-20.5 117.5q0 81 33.5 140t88 98t124 58t141.5 20h424zM201 764q0 -63 23 -110.5t62.5 -80t91.5 -50t111 -18.5h414v522h-369q-62 -1 -121.5 -16t-106.5 -46.5 t-76 -81t-29 -119.5z" />
<glyph unicode="&#x450;" d="M658 -20q-111 0 -201.5 44.5t-155 119.5t-100.5 172t-37 202v44q1 101 34 198t94 173t148 122.5t197 46.5q98 0 177 -37t134.5 -100.5t85.5 -147.5t31 -177v-63h-847v-15v-44q1 -93 33 -180.5t89.5 -155t138 -108t179.5 -41.5q101 -1 185.5 35t149.5 114l39 -27 q-69 -90 -165.5 -132.5t-208.5 -42.5zM637 1048q-90 0 -162 -34.5t-124.5 -92.5t-85 -133.5t-42.5 -156.5h788v13q0 80 -27.5 153t-76.5 129t-118 89t-152 33zM673 1249h-58l-187 266h65z" />
<glyph unicode="&#x451;" d="M658 -20q-111 0 -201.5 44.5t-155 119.5t-100.5 172t-37 202v44q1 101 34 198t94 173t148 122.5t197 46.5q98 0 177 -37t134.5 -100.5t85.5 -147.5t31 -177v-63h-847v-15v-44q1 -93 33 -180.5t89.5 -155t138 -108t179.5 -41.5q101 -1 185.5 35t149.5 114l39 -27 q-69 -90 -165.5 -132.5t-208.5 -42.5zM637 1048q-90 0 -162 -34.5t-124.5 -92.5t-85 -133.5t-42.5 -156.5h788v13q0 80 -27.5 153t-76.5 129t-118 89t-152 33zM344 1420q0 22 16.5 39t38.5 17t39 -17t17 -39t-17 -38.5t-39 -16.5t-38.5 16.5t-16.5 38.5zM789 1420 q0 22 16.5 39t38.5 17t39 -17t17 -39t-17 -38.5t-39 -16.5t-38.5 16.5t-16.5 38.5z" />
<glyph unicode="&#x452;" d="M587 1261h-306v-440q26 60 66 111.5t91.5 89t113.5 59t133 21.5q93 0 161 -30t112 -83.5t65.5 -127.5t22.5 -161v-789q-1 -71 -20 -134t-56.5 -110.5t-94 -75.5t-132.5 -28q-36 0 -70.5 5.5t-68.5 14.5l13 52q31 -8 62.5 -13t63.5 -5q64 0 111 24t77 64.5t45 93.5t16 112 v89h-1v700q-1 76 -18.5 140.5t-55 111t-95.5 72.5t-140 25q-73 -1 -139 -29t-119.5 -75t-90.5 -110t-52 -133v-702h-55v1261h-226v54h226v221h55v-221h306v-54z" />
<glyph unicode="&#x453;" d="M1040 1027h-769v-1027h-59v1082h828v-55zM664 1493h66l-191 -266h-59z" />
<glyph unicode="&#x454;" d="M632 34q69 0 130.5 19t109 56.5t77.5 92.5t38 126h54q-8 -81 -43 -145.5t-89.5 -109.5t-126 -69t-150.5 -24q-114 0 -198.5 46t-140.5 121.5t-83.5 172.5t-28.5 200v42q1 102 28.5 199.5t83 173t139.5 121.5t198 46q85 0 157.5 -27t126.5 -76.5t87 -119t40 -154.5h-54 q-6 73 -35 132.5t-76.5 102t-110 65.5t-135.5 23q-102 0 -175.5 -41t-122 -108t-72.5 -153t-25 -176h592v-54h-592q1 -92 24.5 -179t72 -154t123 -108t177.5 -41z" />
<glyph unicode="&#x455;" d="M1003 265q0 44 -17 79.5t-46 62.5t-66.5 47.5t-78.5 35t-81 25t-74 17.5q-41 9 -87 19.5t-90 26t-84.5 36.5t-70.5 51t-48 70.5t-17 93.5q0 50 18 89.5t47.5 70t69 52t83 35t88.5 20t86 6.5q76 0 149 -17t131.5 -54t96.5 -95.5t44 -142.5h-56q-2 69 -37 117.5t-88.5 79 t-117 44.5t-122.5 14q-50 0 -108.5 -10.5t-109.5 -35.5t-85 -66.5t-35 -104.5q-1 -46 16 -80t45.5 -59.5t66 -43.5t77.5 -31t80.5 -22t74.5 -16q64 -14 134.5 -35t130 -56t97.5 -89t38 -135q0 -53 -19 -94.5t-50 -73t-72.5 -54t-87 -36t-93 -20t-91.5 -6.5q-48 0 -98 6.5 t-97.5 21t-90 37.5t-75.5 55.5t-54 76t-25 98.5h55q8 -71 46.5 -117.5t93 -74t119.5 -38.5t126 -11q34 0 74 5t79.5 16.5t76.5 29t65.5 43.5t45.5 59.5t18 77.5z" />
<glyph unicode="&#x456;" d="M239 1082h451v-1028h384v-54h-835v54h397v974h-397v54zM590 1390q0 14 3 27.5t11 24t21.5 16.5t34.5 6q20 0 33.5 -6t22 -16.5t12 -24t3.5 -27.5q0 -27 -15.5 -49t-55.5 -22q-41 0 -55.5 22t-14.5 49z" />
<glyph unicode="&#x457;" d="M239 1082h451v-1028h384v-54h-835v54h397v974h-397v54zM374 1460q0 22 16.5 39t38.5 17t39 -17t17 -39t-17 -38.5t-39 -16.5t-38.5 16.5t-16.5 38.5zM819 1460q0 22 16.5 39t38.5 17t39 -17t17 -39t-17 -38.5t-39 -16.5t-38.5 16.5t-16.5 38.5z" />
<glyph unicode="&#x458;" d="M303 1082h474v-1076q0 -99 -26.5 -181t-77.5 -140t-124 -90t-166 -32q-29 0 -54 1t-49 3t-48.5 5t-52.5 8l4 48q19 -3 46.5 -5.5t55 -4t53 -2t41.5 -0.5q68 0 130.5 20.5t110 67t75.5 120.5t28 182v1022h-420v54zM670 1391q0 14 3 27.5t11.5 24t22 16.5t34.5 6 q20 0 33.5 -6t22 -16.5t12 -24t3.5 -27.5q0 -27 -15.5 -49t-55.5 -22q-42 0 -56.5 22t-14.5 49z" />
<glyph unicode="&#x459;" d="M687 1082v-452h240q67 -2 119.5 -27t89 -67.5t55.5 -99.5t19 -121q0 -65 -19 -121.5t-55 -99t-89 -68t-120 -26.5h-290v1027h-377l2 -437q0 -38 1 -96t-2 -123t-13.5 -130.5t-33.5 -118.5t-62 -87t-99 -35h-28v54h30q47 1 76.5 34t46.5 83.5t23.5 112t8 121t0 109 t-1.5 76.5l3 492h476zM687 576v-522h240q57 1 100 22.5t72 57t43.5 82.5t14.5 101q0 53 -15 99.5t-44 81.5t-72 55.5t-99 22.5h-240z" />
<glyph unicode="&#x45a;" d="M188 632h437v450h49v-452h225q66 -2 116 -28t84 -69.5t51 -100t17 -117.5q0 -62 -17 -118.5t-51 -99.5t-84 -69.5t-116 -27.5h-274v578h-437v-578h-49v1082h49v-450zM674 576v-522h225q55 1 96 23.5t67 58.5t39 83t13 98t-13 97t-39.5 81.5t-67 57t-95.5 23.5h-225z" />
<glyph unicode="&#x45b;" d="M629 1284h-375v-463q26 60 66 111.5t91.5 89t113.5 59t133 21.5q93 0 161 -30t112 -83.5t65.5 -127.5t22.5 -161v-700h-55v700q-1 76 -18.5 140.5t-55 111t-95.5 72.5t-140 25q-73 -1 -139 -29t-119.5 -75t-90.5 -110t-52 -133v-702h-55v1284h-157v54h157v198h55v-198 h375v-54z" />
<glyph unicode="&#x45c;" d="M521 529h-218v-529h-57v1082h57v-500h228l465 500h82l-497 -529l565 -553h-85zM640 1492h66l-191 -266h-59z" />
<glyph unicode="&#x45d;" d="M961 1082h56v-1082h-56v986l-693 -986h-55v1082h55v-986zM665 1227h-58l-187 266h65z" />
<glyph unicode="&#x45e;" d="M623 74l13 30l440 978h65l-569 -1262q-25 -56 -55.5 -102.5t-70 -81t-90.5 -54t-117 -19.5q-44 0 -90 11l-2 51q20 -3 41 -6t42 -3q54 0 98 15.5t79 44t62 68t48 86.5l75 172l-508 1080h63zM906 1491q-3 -59 -25 -105t-59 -78t-86.5 -48.5t-107.5 -16.5t-107.5 16.5 t-86.5 48.5t-59.5 78t-25.5 105h54q3 -49 20.5 -85t47 -60t69.5 -35.5t88 -11.5q46 0 86 12t69.5 36t47.5 60t21 84h54z" />
<glyph unicode="&#x45f;" d="M268 1082v-1028h693v1028h56v-1082h-370v-350h-55v350h-379v1082h55z" />
<glyph unicode="&#x460;" d="M1142 1456l3 -1027q0 -43 -5 -93t-16.5 -99.5t-30.5 -96t-49 -82t-72 -57t-98 -21.5q-53 0 -93 19t-69.5 51.5t-49.5 74.5t-32 89q-12 -47 -32 -89t-49 -74.5t-69 -51.5t-93 -19q-56 0 -98 21.5t-72 57t-49.5 82t-31 96t-16 99.5t-4.5 93l2 1027h49l2 -1027 q0 -34 3.5 -76.5t12 -86t24 -85.5t39.5 -74.5t58 -52.5t81 -20q46 0 80 20t58 52.5t39 74.5t24 86t12 86t4 76l2 1027h49l2 -1027q0 -34 3.5 -76.5t12 -86t24 -85.5t39.5 -74.5t58 -52.5t80 -20t80 20t58 52.5t39.5 74.5t24 86t12 86t3.5 76l3 1027h48z" />
<glyph unicode="&#x461;" d="M1169 1082l1 -673q-1 -45 -6.5 -95t-19 -97.5t-35 -90.5t-53.5 -76t-75 -52t-99 -19t-99 19t-75 51t-54 74.5t-35 89.5q-13 -47 -34.5 -89.5t-53.5 -74.5t-75 -51t-98 -19q-56 0 -99.5 19t-75 52t-53.5 76t-35.5 90.5t-19.5 97t-6 95.5l2 673h50l2 -673q0 -36 4.5 -78.5 t15 -84t28 -80t43.5 -68.5t61.5 -47.5t82.5 -17.5q70 0 115.5 38t71.5 95t36.5 122.5t11.5 120.5l1 673h51l1 -673v-11q1 -55 12.5 -119t38 -118.5t71.5 -91t114 -36.5q70 0 115.5 38t71.5 95t36.5 122.5t11.5 120.5l1 673h51z" />
<glyph unicode="&#x462;" d="M625 1151h-331v-363h331q90 -1 167.5 -27.5t135.5 -76.5t91 -123t33 -167q0 -95 -33 -167.5t-91 -122.5t-135.5 -76.5t-167.5 -27.5h-384v1151h-203v54h203v251h53v-251h331v-54zM294 734v-680h331q78 1 146.5 23.5t118.5 66t79 106.5t29 146q0 81 -29.5 143.5 t-80.5 105.5t-118.5 65.5t-144.5 23.5h-331z" />
<glyph unicode="&#x463;" d="M626 1082h-329v-412h345q76 -1 146 -22.5t123.5 -63.5t85.5 -104.5t32 -144.5q0 -83 -32 -145t-85.5 -104t-123.5 -63.5t-146 -22.5h-399v1082h-204v54h204v402h54v-402h329v-54zM297 616v-562h345q65 1 125 18.5t106.5 52.5t74 88t27.5 124q0 70 -28 122t-74.5 86.5 t-106.5 52t-124 18.5h-345z" />
<glyph unicode="&#x464;" d="M211 794h207v44q0 57 7 127t23 141t42.5 137.5t68 118.5t98.5 83.5t134 31.5q93 0 161 -41.5t112.5 -108.5t67 -149.5t24.5 -164.5h-49q-8 47 -18.5 95.5t-26 94t-38 85.5t-55 70.5t-76.5 47.5t-102 17q-67 0 -117 -30t-85.5 -78t-58 -110t-35.5 -127t-18 -127t-5 -111 v-46h357v-54h-357v-120q0 -49 5 -111.5t18 -127.5t35.5 -127t58 -110.5t85 -78.5t117.5 -30q59 0 103.5 17t77 47t55 70.5t37.5 86t25 94.5t18 97h49q-2 -55 -12 -111t-29.5 -107.5t-49 -97t-69.5 -79t-91 -52.5t-114 -19q-77 0 -134 31.5t-98.5 83.5t-68 118.5t-42.5 137.5 t-23 140.5t-7 127.5v120h-207v-740h-49v1456h49v-662z" />
<glyph unicode="&#x465;" d="M923 534h-394v-44q0 -47 5.5 -99t18 -103t34 -96.5t54.5 -80.5t78.5 -56t106.5 -21q65 0 112 24.5t79 65.5t50 94t26 110h51q-2 -68 -24.5 -130.5t-64 -111t-99.5 -77.5t-130 -29q-69 0 -121.5 22.5t-91.5 61t-65 89.5t-42 107.5t-23.5 115.5t-7.5 114v44h-229v-534h-50 v1082h50v-494h229v4q0 54 7.5 113t23 116t42 108t65 89.5t91 61t121.5 22.5q76 0 135 -33t99.5 -86t62 -120.5t22.5 -137.5h-51q-7 58 -24 115.5t-48.5 103.5t-79.5 75t-116 29q-61 0 -106.5 -21t-78 -56t-54 -81t-34 -96.5t-18 -102.5t-5.5 -99v-4h394v-54z" />
<glyph unicode="&#x466;" d="M941 508h-294v-508h-53v508h-282l-182 -508h-58l522 1456h64l523 -1456h-58zM332 562h589l-266 742l-29 92l-28 -92z" />
<glyph unicode="&#x467;" d="M883 395h-229v-395h-54v395h-238l-175 -395h-60l470 1080v2h52l470 -1082h-59zM386 449h473l-181 404l-56 156l-56 -156z" />
<glyph unicode="&#x468;" d="M1018 508h-202v-508h-48v508h-194l-133 -508h-52l132 508h-297v-508h-48v1456h48v-894h311l234 894h55l380 -1456h-52zM588 562h416l-194 742l-14 62l-13 -62z" />
<glyph unicode="&#x469;" d="M1006 395h-181v-395h-51v395h-187l-145 -395h-55l141 395h-314v-395h-51v1082h51v-633h333l225 630l-1 3h51l-1 -2l385 -1080h-54zM607 449h379l-148 404l-42 142l-41 -142z" />
<glyph unicode="&#x46a;" d="M673 749h119q82 -1 139.5 -29t94.5 -76t54 -113.5t18 -141.5l-2 -389h-50l-2 389q-1 66 -13.5 122t-41.5 96.5t-77 63.5t-120 24h-141v-695h-49v695h-138q-72 -1 -120 -24t-77.5 -63.5t-42 -96.5t-13.5 -122l-2 -389h-50l-2 389q1 76 18.5 141t54.5 113.5t95 76.5t139 29 h115l-351 707h797zM941 1402h-630l302 -619l13 -30l14 30z" />
<glyph unicode="&#x46b;" d="M163 0l-2 225q1 84 23.5 150t66 112.5t107.5 71.5t149 26h36l-310 497h751l-311 -497h35q85 -1 149 -26t107 -71.5t65 -113t23 -149.5l-1 -225h-51l-2 225q-2 147 -71.5 225t-219.5 80h-68l-5 -8v-522h-52v523l-4 7h-71q-150 -2 -220 -80t-71 -225l-1 -225h-52zM889 1027 h-562l271 -431l4 -11h12l5 12z" />
<glyph unicode="&#x46c;" d="M396 0l-3 389q0 40 4 83t14 83.5t28 76.5t45 63h-290v-695h-46v1456h46v-707h514l-262 707h601l-263 -707h84q73 -1 118.5 -35t70.5 -86.5t34 -115.5t10 -123l-4 -389h-46l-3 389q0 49 -5 103t-23 98.5t-54 74t-98 30.5h-99v-695h-46v695h-97q-62 -1 -98 -30.5t-54 -74 t-23 -98.5t-5 -103l-3 -389h-47zM975 1402h-459l225 -619l4 -13l5 13z" />
<glyph unicode="&#x46d;" d="M206 585h491l-238 497h581l-239 -497h24q77 -1 128.5 -32t82 -81.5t43.5 -114.5t13 -132l-3 -225h-47l-3 225q0 58 -8.5 112.5t-32 97t-65.5 68.5t-109 27h-49l-2 -4v-526h-48v527l-2 3h-51q-67 -1 -109 -27t-65 -68.5t-31.5 -97t-8.5 -112.5l-3 -225h-48l-3 225 q0 45 6 89t18.5 83.5t32.5 73.5t49 59h-304v-530h-48v1082h48v-497zM959 1027h-420l208 -431l2 -8l3 9z" />
<glyph unicode="&#x46e;" d="M539 771q52 0 105 6.5t102.5 21t92 38t74.5 58.5t50 82.5t18 109.5q0 88 -37 148t-96.5 96.5t-134 53t-150.5 17.5h-336v54h336q59 -1 116.5 -10t110 -28t98 -49t78.5 -71t51.5 -94.5t18.5 -120.5q0 -71 -25 -126.5t-66.5 -97.5t-96.5 -70.5t-116 -44.5q67 -15 126.5 -42 t104 -70t70.5 -104t26 -142q0 -69 -23 -124t-62.5 -98t-91.5 -73.5t-110.5 -50t-120.5 -29.5t-120 -10h-82q-35 -1 -70.5 -7.5t-63 -22t-44.5 -43t-16 -69.5q1 -35 18 -64.5t43 -53t57.5 -40.5t61.5 -27l-15 -52q-38 12 -76.5 34.5t-69.5 52.5t-51 67.5t-21 81.5 q-1 53 20 90t56 60t80 34t91 12h82q51 1 106 8t107.5 23t99.5 41t82.5 61t56.5 84.5t21 110.5q0 100 -41 164.5t-107 101.5t-149.5 51.5t-167.5 15.5h-123v56h123zM558 1680l194 217h53v-13l-218 -250h-59l-220 252v11h57z" />
<glyph unicode="&#x46f;" d="M547 585q38 1 81.5 4t86 12.5t81 25.5t68 41.5t47 62t17.5 86.5q0 45 -17 77.5t-45.5 56t-65.5 38t-76.5 23t-79 11.5t-73.5 4h-282v55h282q43 -1 90.5 -6t93 -17t87.5 -31.5t73.5 -49t50 -70.5t18.5 -95t-19.5 -95t-52 -72t-75 -52.5t-89.5 -34.5q51 -11 97.5 -30 t82 -49.5t57 -73.5t21.5 -102q0 -58 -22 -103t-58.5 -78.5t-84 -56.5t-99 -37t-104 -21t-98.5 -7h-41q-35 -1 -70.5 -7.5t-63 -22t-44.5 -43t-16 -69.5q1 -35 18 -64.5t43.5 -53t58 -40.5t61.5 -27l-16 -52q-38 13 -76.5 35t-69.5 52t-51 67.5t-21 81.5q-1 53 20 90t56.5 60 t80 34t90.5 12h41q38 0 83.5 4.5t91 15t88 28.5t75.5 45t53 64.5t20 88.5q0 52 -19 89.5t-51 62.5t-73.5 40.5t-86.5 23.5t-90 10.5t-84 2.5h-122v56h122zM586 1363l194 217h53v-13l-218 -250h-59l-220 252v11h57z" />
<glyph unicode="&#x470;" d="M647 471q96 4 170.5 44.5t125 106t76.5 149t27 175.5l1 510h52l1 -510q-1 -105 -31 -199.5t-87 -166.5t-141 -116t-194 -48v-416h-52v416q-109 6 -192.5 50t-140.5 116t-86.5 165.5t-30.5 198.5l1 510h53l1 -510q1 -92 27 -175.5t76 -148t123.5 -105t168.5 -46.5v985h52 v-985z" />
<glyph unicode="&#x471;" d="M649 1082v-1048q111 5 186 55.5t120.5 128.5t65 174.5t19.5 195.5q0 131 -33.5 255t-93.5 239h62q61 -114 90 -238.5t29 -253.5q0 -111 -23.5 -218t-76 -192.5t-137.5 -139.5t-208 -59v-396h-52v396q-80 4 -142.5 31t-109.5 71t-80 101.5t-53.5 124t-30.5 138t-10 143.5 l1 492h51l1 -494q1 -95 19.5 -190.5t61.5 -174t114 -130t178 -58.5v1047h52z" />
<glyph unicode="&#x472;" d="M1086 619q-1 -71 -13 -146t-36 -146t-61.5 -134t-89.5 -110.5t-119.5 -75t-150.5 -27.5t-150.5 27.5t-120 75t-90.5 110.5t-62.5 134t-37 146t-13.5 146v218q1 71 13 146t36.5 146t62 134t90 110.5t119.5 75t151 27.5t151 -27.5t119.5 -75t90 -110.5t62 -134t36.5 -146 t13 -146v-218zM197 755h836v84q-1 64 -11 132t-31 132.5t-54 122.5t-79.5 101.5t-107 69t-136.5 25.5t-136 -25.5t-106.5 -69t-79 -101.5t-53.5 -123t-31 -133t-11 -131v-84zM1033 701h-836v-82q1 -64 11 -132t31 -133t54 -123t79.5 -102t107 -69.5t136.5 -25.5t136.5 25.5 t106.5 69.5t79 102t54 123t30.5 133t10.5 132v82z" />
<glyph unicode="&#x473;" d="M141 562q1 104 33 201.5t92 172.5t147.5 120.5t200.5 45.5t200.5 -45t148 -120t92.5 -172.5t33 -202.5v-42q-1 -104 -32.5 -201.5t-91.5 -172.5t-147.5 -120.5t-200.5 -45.5t-201 45t-148.5 120t-92.5 172.5t-33 202.5v42zM614 1048q-99 0 -176 -41.5t-130.5 -109 t-82 -154t-30.5 -176.5h839q-2 90 -31 176.5t-82.5 154t-130.5 109t-176 41.5zM616 34q99 0 175.5 41t130 108t82 153t30.5 177h-839q2 -92 30.5 -178t82.5 -153t131.5 -107.5t176.5 -40.5z" />
<glyph unicode="&#x474;" d="M554 142l28 -86l29 86l352 1086q18 54 43 99.5t60 78t81.5 51t106.5 19.5h9l-1 -47h-10q-53 0 -92 -18t-67.5 -48t-49 -71t-36.5 -88l-392 -1204h-65l-472 1456h59z" />
<glyph unicode="&#x475;" d="M456 229l58 -158l60 158l249 705q13 34 30.5 65t42 54t56 36t71.5 12q45 -2 86 -19l-13 -45q-19 8 -38 12t-39 5q-33 1 -57 -11.5t-42 -33t-31 -47t-23 -53.5l-326 -909h-53v1l-397 1081h59z" />
<glyph unicode="&#x476;" d="M554 142l28 -86l29 86l352 1086q18 54 43 99.5t60 78t81.5 51t106.5 19.5h9l-1 -47h-10q-53 0 -92 -18t-67.5 -48t-49 -71t-36.5 -88l-392 -1204h-65l-472 1456h59zM471 1503h-73l-298 266h80zM696 1503h-69l-253 266h76z" />
<glyph unicode="&#x477;" d="M456 229l58 -158l60 158l249 705q13 34 30.5 65t42 54t56 36t71.5 12q45 -2 86 -19l-13 -45q-19 8 -38 12t-39 5q-33 1 -57 -11.5t-42 -33t-31 -47t-23 -53.5l-326 -909h-53v1l-397 1081h59zM406 1208h-73l-298 266h80zM631 1208h-69l-253 266h76z" />
<glyph unicode="&#x478;" d="M597 609q0 -143 -14 -259.5t-45 -198.5t-80 -126.5t-121 -44.5q-71 0 -120.5 44.5t-81 126.5t-45.5 198.5t-15 259.5v238q1 143 15 259.5t44.5 198.5t80 126.5t121.5 44.5t121.5 -44.5t80.5 -126.5t45 -198t14 -260v-238zM544 849q0 109 -10 212t-34 183.5t-64 129 t-100 48.5q-40 0 -70.5 -22.5t-53.5 -62t-38.5 -93.5t-25.5 -117.5t-14.5 -134.5t-4.5 -143v-240q1 -109 11 -212.5t33.5 -184t63.5 -129.5t100 -49t100 49t63.5 129.5t33.5 184t10 212.5v240zM898 183l213 899h59l-301 -1262q-16 -56 -35.5 -102.5t-45.5 -81t-59 -54 t-76 -19.5q-34 0 -67 11l-1 51q15 -3 31 -6t33 -3q32 0 58 15.5t47 44t37 68t29 86.5l48 226l-217 1026h58z" />
<glyph unicode="&#x479;" d="M75 564q1 110 16 208t47.5 171.5t83 116.5t122.5 43t122.5 -42.5t83 -116t48 -171.5t15.5 -209v-45q0 -110 -15.5 -208t-47.5 -171.5t-82.5 -116.5t-122.5 -43q-71 0 -122 43t-83.5 116.5t-48 171.5t-16.5 208v45zM129 519q0 -55 5.5 -112t16 -111t27 -101.5t40.5 -83.5 t55.5 -56.5t71.5 -20.5q60 0 101 45t66.5 115.5t36.5 156.5t11 168v47q0 55 -5 112t-15.5 110.5t-27.5 101t-41 83t-55.5 56t-71.5 20.5t-71.5 -20.5t-55 -56t-40 -83t-27 -101.5t-16 -111t-5.5 -111v-47zM898 183l213 899h59l-301 -1262q-16 -56 -35.5 -102.5t-45.5 -81 t-59 -54t-76 -19.5q-34 0 -67 11l-1 51q15 -3 31 -6t33 -3q32 0 58 15.5t47 44t37 68t29 86.5l48 226l-217 1026h58z" />
<glyph unicode="&#x47a;" d="M632 1291h-52v307h52v-307zM632 -144h-52v307h52v-307zM1086 619q-1 -71 -13 -146t-36 -146t-61.5 -134t-89.5 -110.5t-119.5 -75t-150.5 -27.5t-150.5 27.5t-120 75t-90.5 110.5t-62.5 134t-37 146t-13.5 146v218q1 71 13 146t36.5 146t62 134t90 110.5t119.5 75 t151 27.5t151 -27.5t119.5 -75t90 -110.5t62 -134t36.5 -146t13 -146v-218zM1033 839q-1 64 -11 132t-31 132.5t-54 122.5t-79.5 101.5t-107 69t-136.5 25.5t-136 -25.5t-106.5 -69t-79 -101.5t-53.5 -123t-31 -133t-11 -131v-220q1 -64 11 -132t31 -133t54 -123t79.5 -102 t107 -69.5t136.5 -25.5t136.5 25.5t106.5 69.5t79 102t54 123t30.5 133t10.5 132v220z" />
<glyph unicode="&#x47b;" d="M642 910h-54v337h54v-337zM642 -176h-54v337h54v-337zM141 562q1 104 33 201.5t92 172.5t147.5 120.5t200.5 45.5t200.5 -45t148 -120t92.5 -172.5t33 -202.5v-42q-1 -104 -32.5 -201.5t-91.5 -172.5t-147.5 -120.5t-200.5 -45.5t-201 45t-148.5 120t-92.5 172.5 t-33 202.5v42zM195 520q1 -92 29.5 -179.5t82 -155.5t131.5 -109.5t178 -41.5t177 41.5t130.5 110t81.5 155.5t29 179v42q-1 91 -29.5 178.5t-82 155.5t-131.5 110t-177 42t-176.5 -42t-131 -110t-82 -155.5t-29.5 -178.5v-42z" />
<glyph unicode="&#x47c;" d="M865 1454q58 -2 101.5 -23t75 -55t52 -79t33 -94t17.5 -100.5t6 -98.5v-575q-1 -44 -6 -94.5t-17 -100.5t-32.5 -96t-51.5 -81.5t-73.5 -56.5t-99.5 -21q-55 0 -96.5 19.5t-72 52.5t-51 76t-33.5 91q-13 -48 -33.5 -91t-51 -76t-72 -52.5t-96.5 -19.5q-57 0 -100 21 t-73.5 56.5t-51 81.5t-32.5 96t-17.5 100.5t-5.5 94.5v575q0 47 5.5 98.5t18 100.5t33 94t52 79t75 55t101.5 23l1 -54q-48 -2 -84 -21.5t-62 -50.5t-42.5 -71.5t-26 -83.5t-13.5 -87t-4 -82v-575q0 -35 4 -78t13 -87t25.5 -85.5t41.5 -74t60 -52t82 -19.5q46 0 80.5 18.5 t59.5 49.5t41 71t26 83t14 85t5 78v11l2 510h50l2 -510v-11q1 -35 5 -77.5t14 -85.5t26 -83t41 -71t59.5 -49.5t80.5 -18.5q47 0 82 19.5t60 52t41.5 74t25.5 85.5t13 87t4 78v575q0 38 -4 82t-13.5 87t-26.5 83.5t-42.5 71.5t-61.5 50.5t-84 21.5zM962 1617v-44h-18 q-35 1 -64 15.5t-54 35t-47.5 44.5t-46 44.5t-49.5 34t-57 13.5q-37 0 -60.5 -18t-37.5 -45t-20 -59t-8 -61l-2 -18h-50l-2 26q-1 39 10 79.5t33.5 73.5t56 54t77.5 21q35 0 62.5 -14t52 -35.5t47 -46.5t46.5 -47t52 -37t64 -16h15zM572 1380q30 28 40 61.5t11 74.5l3 99h49 l2 -102q-1 -24 -6 -49t-15.5 -47.5t-26 -42t-37.5 -32.5z" />
<glyph unicode="&#x47d;" d="M880 1097q85 -3 141 -39t89 -92t46.5 -126.5t14.5 -142.5v-318q-1 -68 -14 -139t-46 -129t-88 -95t-140 -37q-56 0 -98.5 16.5t-74 45t-53 67t-34.5 82.5q-14 -44 -35.5 -82.5t-53 -67t-74 -45t-97.5 -16.5q-84 0 -139.5 37t-88 95t-46 129t-14.5 139v318 q1 72 14.5 142.5t47 126.5t89.5 92t141 39v-54q-71 -3 -117 -35.5t-72.5 -82t-37 -110t-11.5 -118.5v-318q1 -54 11 -115t36.5 -112.5t71.5 -85t115 -33.5q47 0 82.5 15.5t61.5 42t43 61t27.5 73t14.5 78.5t5 76l1 284h51l1 -284q1 -36 5 -76t14.5 -78.5t27.5 -73t43 -61 t61 -42t82 -15.5t82.5 15.5t61.5 42t43.5 61t27.5 73t14.5 78.5t5.5 76v318q-1 58 -11.5 118.5t-37 110t-72.5 82t-117 35.5v54zM991 1317v-44h-18q-38 1 -69 15.5t-58.5 35t-52.5 44.5t-51 44.5t-54.5 34t-61.5 13.5q-39 0 -65 -16.5t-42 -43t-24 -59t-10 -64.5l-1 -18h-51 l-2 26q0 42 12.5 83t37 73t60.5 52t82 20q37 0 67 -14t56.5 -35.5t51.5 -46.5t52 -47t57.5 -37t68.5 -16h15zM553 1067q32 28 44 61t13 75l2 99h50l2 -102q-2 -50 -24 -97t-66 -74z" />
<glyph unicode="&#x47e;" d="M394 1761h498l1 -56h-231v-103h-48v103h-220v56zM1149 1456l3 -1027q-1 -43 -5.5 -93t-16 -99.5t-30.5 -96t-49 -82t-72 -57t-98 -21.5q-53 0 -93 19t-69.5 51.5t-49.5 74.5t-32 89q-12 -47 -32 -89t-49 -74.5t-69 -51.5t-93 -19q-56 0 -98 21.5t-72 57t-49.5 82t-31 96 t-16 99.5t-4.5 93l2 1027h49l2 -1027q0 -34 3.5 -76.5t12 -86t24 -85.5t39.5 -74.5t58 -52.5t81 -20q46 0 80 20t58 52.5t39 74.5t24 86t12 86t4 76l2 1027h49l2 -1027q0 -34 3.5 -76.5t12 -86t24 -85.5t39.5 -74.5t58 -52.5t80 -20t80 20t58 52.5t39.5 74.5t24 86t12 86 t3.5 76l3 1027h48z" />
<glyph unicode="&#x47f;" d="M342 1456h561l2 -56h-264v-133h-50v133h-251zM1169 1082l1 -673q-1 -45 -6.5 -95t-19 -97.5t-35 -90.5t-53.5 -76t-75 -52t-99 -19t-99 19t-75 51t-54 74.5t-35 89.5q-13 -47 -34.5 -89.5t-53.5 -74.5t-75 -51t-98 -19q-56 0 -99.5 19t-75 52t-53.5 76t-35.5 90.5 t-19.5 97t-6 95.5l2 673h50l2 -673q0 -36 4.5 -78.5t15 -84t28 -80t43.5 -68.5t61.5 -47.5t82.5 -17.5q70 0 115.5 38t71.5 95t36.5 122.5t11.5 120.5l1 673h51l1 -673v-11q1 -55 12.5 -119t38 -118.5t71.5 -91t114 -36.5q70 0 115.5 38t71.5 95t36.5 122.5t11.5 120.5 l1 673h51z" />
<glyph unicode="&#x480;" d="M695 -351h-53v331q-89 4 -157.5 38.5t-120 90t-86.5 126.5t-56.5 149.5t-31.5 159.5t-10 155v78q0 75 11.5 156t35.5 158.5t62.5 147.5t92.5 123t125.5 84t162.5 31q103 0 182.5 -36.5t134 -99.5t85 -147.5t35.5 -181.5h-52q-12 84 -38.5 158.5t-72 130.5t-113 89 t-161.5 33q-82 0 -146.5 -29.5t-112.5 -78.5t-81.5 -114t-54.5 -136.5t-31 -145t-10 -140.5v-80q0 -67 8.5 -141.5t28 -147.5t50.5 -140t77.5 -119t109.5 -84t146 -34h41v-384z" />
<glyph unicode="&#x481;" d="M718 -351h-54v331q-111 5 -194 51t-138.5 120t-83.5 169.5t-29 199.5v42q1 68 13.5 134t38 126t63 111.5t87 89t112 58.5t137.5 21q86 0 157 -28t122.5 -78t81 -120.5t32.5 -155.5h-54q-3 73 -28.5 133.5t-69.5 104t-105 67t-136 23.5q-102 0 -176 -42t-122.5 -110.5 t-72 -156t-24.5 -177.5v-42q1 -94 24.5 -180.5t72.5 -153.5t123.5 -108.5t176.5 -44.5h46v-384z" />
<glyph unicode="&#x482;" d="M574 419l289 -172l-39 -68l-291 170l-191 -349h-102l225 398l-289 171l38 68l293 -171l235 420l-290 171l40 70l291 -171l218 386h99l-251 -435l293 -171l-43 -67l-288 170z" />
<glyph unicode="&#x483;" horiz-adv-x="0" d="M217 1362v-121h-58v173h481v108h55v-160h-478z" />
<glyph unicode="&#x484;" horiz-adv-x="0" d="M248 1361q45 1 83.5 16t73.5 36.5t68.5 47t68.5 47t72.5 35.5t81.5 14q50 0 92.5 -17t74 -47t49.5 -72t20 -92v-26h-55v18q-1 40 -15 73.5t-38 57.5t-57.5 38t-74.5 14t-77.5 -13.5t-70.5 -34t-67.5 -44.5t-68.5 -44.5t-74 -35t-83 -15.5h-17v44h14z" />
<glyph unicode="&#x485;" horiz-adv-x="0" d="M305 1500v142h97v-139l64 -126l-36 -28z" />
<glyph unicode="&#x486;" horiz-adv-x="0" d="M423 1349l-36 28l64 126v139h97v-142z" />
<glyph unicode="&#x488;" horiz-adv-x="0" d="M468 1267q3 44 19.5 79t44 59t65 37t81.5 13t81.5 -13t65 -37t44.5 -59t20 -79h-112q-5 44 -28 72.5t-71 28.5t-70 -29t-27 -72h-113zM1059 990q3 44 19.5 79t44.5 59t65 37t81 13t81.5 -13t65.5 -37t45 -59t20 -79h-113q-5 44 -27.5 72.5t-71.5 28.5q-48 0 -69.5 -29 t-26.5 -72h-114zM1246 487q3 44 19.5 79t44.5 59t65 37t81 13t81.5 -13t65 -37t44.5 -59t20 -79h-112q-5 44 -27.5 72.5t-71.5 28.5q-48 0 -70 -29t-27 -72h-113zM1049 -32q3 44 19.5 79t44.5 59t65 37t81 13t81.5 -13t65 -37t44.5 -59t20 -79h-112q-5 44 -27.5 72.5 t-71.5 28.5q-48 0 -70 -29t-27 -72h-113zM473 -316q3 44 19.5 79t44 59t65 37t81.5 13t81.5 -13t65 -37t44.5 -59t20 -79h-112q-5 44 -28 72.5t-71 28.5t-70 -29t-27 -72h-113zM-105 990q3 44 20 79t44.5 59t65 37t81.5 13t81.5 -13t65 -37t44.5 -59t20 -79h-112 q-5 44 -28 72.5t-71 28.5t-70 -29t-27 -72h-114zM-281 487q3 44 19.5 79t44.5 59t65 37t81 13t81.5 -13t65 -37t44.5 -59t20 -79h-112q-5 44 -27.5 72.5t-71.5 28.5q-48 0 -70 -29t-27 -72h-113zM-115 -32q3 44 19.5 79t44.5 59t65 37t81 13t81.5 -13t65.5 -37t45 -59 t20 -79h-113q-5 44 -27.5 72.5t-71.5 28.5q-48 0 -69.5 -29t-26.5 -72h-114z" />
<glyph unicode="&#x489;" horiz-adv-x="0" d="M1105 -60l11 -14l-122 -339h-96l70 353h137zM910 1126l-12 14l122 338h96l-70 -352h-136zM1588 631l13 12l333 -124v-98l-346 71v139zM424 433l-13 -12l-333 124v98l346 -71v-139zM1348 1002l2 16l321 153l68 -68l-294 -200zM664 21l-2 -17l-320 -153l-69 69l294 200z M524 860l-17 2l-148 326l65 69l198 -299zM1486 161l17 -2l149 -325l-66 -71l-197 299z" />
<glyph unicode="&#x48a;" d="M998 1456h50v-1456h-51l2 1364l-768 -1364h-50v1456h51l-2 -1361zM881 1810q-3 -59 -25 -105t-59 -78t-86.5 -48.5t-107.5 -16.5t-107.5 16.5t-86.5 48.5t-59.5 78t-25.5 105h54q3 -49 20.5 -85t47 -60t69.5 -35.5t88 -11.5q46 0 86 12t69.5 36t47.5 60t21 84h54zM1102 3 q-2 -81 -27 -151.5t-79 -130.5l-37 32q42 57 65 116.5t24 131.5v134h54v-132z" />
<glyph unicode="&#x48b;" d="M961 1082h56v-1082h-56v986l-693 -986h-55v1082h55v-986zM900 1468q-3 -59 -25 -105t-59 -78t-86.5 -48.5t-107.5 -16.5t-107.5 16.5t-86.5 48.5t-59.5 78t-25.5 105h54q3 -49 20.5 -85t47 -60t69.5 -35.5t88 -11.5q46 0 86 12t69.5 36t47.5 60t21 84h54zM1071 3 q-2 -81 -27 -151.5t-79 -130.5l-37 32q42 57 65 116.5t24 131.5v134h54v-132z" />
<glyph unicode="&#x48c;" d="M625 1151h-331v-363h331q90 -1 167.5 -27.5t135.5 -76.5t91 -123t33 -167q0 -95 -33 -167.5t-91 -122.5t-135.5 -76.5t-167.5 -27.5h-384v1151h-203v54h203v251h53v-251h331v-54zM294 734v-680h331q78 1 146.5 23.5t118.5 66t79 106.5t29 146q0 81 -29.5 143.5 t-80.5 105.5t-118.5 65.5t-144.5 23.5h-331z" />
<glyph unicode="&#x48d;" d="M575 864h-308v-194h370q76 -1 150 -21.5t132.5 -61.5t94 -103.5t35.5 -148.5t-35.5 -149t-93.5 -104t-132 -61t-151 -21h-425v864h-224v54h224v164h55v-164h308v-54zM267 616v-562h370q65 1 129 17.5t115 50.5t82.5 87t31.5 128q0 74 -32 126.5t-83 86t-115 49.5t-128 17 h-370z" />
<glyph unicode="&#x48e;" d="M976 541l-40 -35l-271 353l40 35zM296 615v-615h-54v1456h444q93 -2 173 -32.5t139 -86t92.5 -133t33.5 -173.5t-34 -172t-93 -130t-139 -83.5t-172 -30.5h-390zM296 669h390q79 1 149 26.5t122 72t82.5 112.5t30.5 149q0 84 -29.5 152t-81 116.5t-122 75.5t-151.5 29 h-390v-733z" />
<glyph unicode="&#x48f;" d="M953 -63l-44 -33l-248 346l45 32zM1049 531q0 -63 -10.5 -128.5t-31.5 -126.5t-54.5 -115t-80.5 -94t-109 -63.5t-140 -23.5q-49 0 -99 12t-96 34.5t-86 55.5t-68 76v-574h-54v1498h54v-180q27 46 65.5 83t83.5 63t95.5 40t102.5 14q79 0 141.5 -23t109.5 -62.5 t80.5 -93.5t55 -115t31 -126.5t10.5 -129.5v-21zM994 552q0 56 -8.5 114.5t-26 113.5t-46 103.5t-69.5 85t-96 58t-126 21.5q-59 0 -113.5 -18.5t-100.5 -52.5t-80.5 -81.5t-53.5 -105.5v-534q20 -54 57.5 -95.5t84.5 -69.5t101 -42.5t107 -14.5q70 0 125 21.5t96 58.5 t69 86t45.5 104t25.5 113t9 114v21z" />
<glyph unicode="&#x490;" d="M1082 1402h-820v-1402h-54v1456h820v372h54v-426z" />
<glyph unicode="&#x491;" d="M1047 1027h-789v-1027h-59v1082h789v372h59v-427z" />
<glyph unicode="&#x492;" d="M619 731h-366v-731h-54v731h-167v54h167v671h858v-54h-804v-617h366v-54z" />
<glyph unicode="&#x493;" d="M514 526h-243v-526h-59v526h-285v54h285v502h828v-55h-769v-447h243v-54z" />
<glyph unicode="&#x494;" d="M1098 1402h-804v-563h230q130 -1 234 -40.5t176.5 -112t111 -177t38.5 -235.5q0 -99 -29 -193.5t-85 -169t-138 -122t-188 -51.5v51q95 4 167.5 47.5t121 111.5t73 153t24.5 173q0 117 -35.5 211t-101.5 160.5t-159.5 103t-209.5 37.5h-230v-786h-54v1456h858v-54z" />
<glyph unicode="&#x495;" d="M1050 1027h-769v-421h204q110 -1 214.5 -23.5t187 -74.5t133 -137t52.5 -210q1 -88 -33.5 -158t-91.5 -121.5t-131 -86t-152 -50.5l-17 42q73 16 139 46t116.5 76.5t81.5 109t33 142.5q2 75 -19 133t-59.5 101t-90.5 73t-112 49t-124.5 27t-126.5 9h-204v-553h-59v1082 h828v-55z" />
<glyph unicode="&#x496;" d="M731 720h-94v-720h-48v720h-95l-376 -720h-58l386 733l-364 723h58l340 -682h109v682h48v-682h109l339 682h58l-364 -723l387 -733h-59zM1216 -352h-54v426h54v-426z" />
</font>
</defs>
</svg>
