<?xml version="1.0" standalone="no"?>
<!DOCTYPE svg PUBLIC "-//W3C//DTD SVG 1.1//EN" "http://www.w3.org/Graphics/SVG/1.1/DTD/svg11.dtd" >
<svg xmlns="http://www.w3.org/2000/svg" xmlns:xlink="http://www.w3.org/1999/xlink" version="1.1">
<metadata>
Created by FontForge 20190801 at Wed Aug  3 20:37:59 2005
 By www-data
(c) 2004 Just Another Foundry. All Rights Reserved.
</metadata>
<defs>
<font id="FacitRegular" horiz-adv-x="553" >
  <font-face 
    font-family="FacitRegular"
    font-weight="400"
    font-stretch="normal"
    units-per-em="1000"
    panose-1="0 0 5 0 0 0 0 0 0 0"
    ascent="800"
    descent="-200"
    x-height="493"
    cap-height="690"
    bbox="-191 -286 1174 993"
    underline-thickness="150"
    underline-position="-300"
    unicode-range="U+0020-FB03"
  />
<missing-glyph horiz-adv-x="500" 
d="M0 0v700h500v-700h-500zM250 395l170 255h-340zM280 350l170 -255v510zM80 50h340l-170 255zM50 605v-510l170 255z" />
    <glyph glyph-name="fj" unicode="fj" horiz-adv-x="594" 
d="M35 405v79h89v34q0 49 9.5 86t33 69t69.5 48.5t113 16.5q102 0 164 -44l-35 -68q-55 34 -136 34q-43 0 -69.5 -8t-39.5 -27.5t-16.5 -41.5t-3.5 -61v-38h299v-538q0 -87 -41 -136.5t-124 -49.5q-36 0 -66 11l18 80q18 -7 48 -7q46 0 60.5 23.5t14.5 79.5v458h-209v-405
h-89v405h-89z" />
    <glyph glyph-name="ff" unicode="ff" horiz-adv-x="679" 
d="M360 716l-20 -75q-21 8 -49 8q-51 0 -65.5 -29.5t-14.5 -98.5v-38h211v39q0 95 43.5 154.5t140.5 59.5q71 0 109 -26l-36 -69q-25 15 -72 15q-59 0 -78.5 -30.5t-19.5 -103.5v-39h133v-77h-133v-406h-87v406h-211v-406h-88v406h-88v77h88v44q0 98 40 149.5t132 51.5
q40 0 65 -12z" />
    <glyph glyph-name="fi" unicode="fi" horiz-adv-x="594" 
d="M35 405v79h89v34q0 49 9.5 86t33 69t69.5 48.5t113 16.5q102 0 164 -44l-35 -68q-55 34 -136 34q-43 0 -69.5 -8t-39.5 -27.5t-16.5 -41.5t-3.5 -61v-38h299v-484h-90v405h-209v-405h-89v405h-89z" />
    <glyph glyph-name="ffi" unicode="ffi" horiz-adv-x="890" 
d="M422 0v406h-211v-406h-88v406h-88v77h88v44q0 98 40 149.5t132 51.5q40 0 65 -12l-20 -75q-21 8 -49 8q-51 0 -65.5 -29.5t-14.5 -98.5v-38h211v35q0 50 9 86.5t32 68.5t68.5 48.5t112.5 16.5q102 0 164 -44l-35 -68q-56 34 -136 34q-43 0 -69.5 -8t-39 -28t-16 -41.5
t-3.5 -60.5v-39h298v-483h-89v406h-209v-406h-87z" />
    <glyph glyph-name=".notdef" horiz-adv-x="500" 
d="M0 0v700h500v-700h-500zM250 395l170 255h-340zM280 350l170 -255v510zM80 50h340l-170 255zM50 605v-510l170 255z" />
    <glyph glyph-name=".null" horiz-adv-x="0" 
 />
    <glyph glyph-name="nonmarkingreturn" horiz-adv-x="333" 
 />
    <glyph glyph-name="space" unicode=" " horiz-adv-x="215" 
 />
    <glyph glyph-name="exclam" unicode="!" horiz-adv-x="319" 
d="M226 690l-8 -492h-83l-7 492h98zM119 51q0 25 16.5 41.5t41.5 16.5t41.5 -16.5t16.5 -41.5t-16.5 -41t-41.5 -16t-41.5 16t-16.5 41z" />
    <glyph glyph-name="quotedbl" unicode="&#x22;" horiz-adv-x="404" 
d="M163 471h-81l-4 219h89zM323 471h-82l-3 219h89z" />
    <glyph glyph-name="numbersign" unicode="#" 
d="M390 690h79l-25 -184h88v-73h-100l-24 -177h91v-73h-102l-25 -183h-80l26 183h-142l-26 -183h-79l26 183h-88v73h99l24 177h-90v73h101l25 184h80l-26 -184h143zM211 433l-24 -177h143l23 177h-142z" />
    <glyph glyph-name="dollar" unicode="$" 
d="M324 765l-1 -82q94 -9 150 -51l-46 -68q-61 40 -150 40q-122 0 -122 -90q0 -37 35 -62t84.5 -41.5t99 -37t84.5 -62t35 -103.5q0 -88 -70 -136q-41 -29 -100 -40l1 -87h-95v81q-120 8 -180 62l50 69q66 -50 170 -50q128 0 128 96q0 41 -35 67.5t-84.5 43.5t-99 37
t-84.5 60t-35 101q0 81 65 127q41 29 105 41v85h95z" />
    <glyph glyph-name="percent" unicode="%" horiz-adv-x="867" 
d="M774 683l-612 -724l-57 47l612 725zM814 188q0 -115 -43 -159q-34 -36 -98 -36q-63 0 -95 35q-40 40 -40 153q0 105 36 149t105 44q57 0 93 -34q42 -43 42 -152zM741 188q0 68 -12.5 96t-50.5 28q-40 0 -53.5 -31t-13.5 -102q0 -68 12.5 -96.5t50.5 -28.5q40 0 53.5 31
t13.5 103zM329 510q0 -113 -43 -157q-34 -37 -97 -37q-61 0 -96 35q-40 40 -40 154q0 106 37 150q35 42 103 42q62 0 94 -34q42 -42 42 -153zM256 511q0 68 -12.5 96t-50.5 28q-40 0 -53.5 -31t-13.5 -102q0 -67 12.5 -95.5t50.5 -28.5q40 0 53.5 30.5t13.5 102.5z" />
    <glyph glyph-name="ampersand" unicode="&#x26;" horiz-adv-x="672" 
d="M498 354h83q0 -113 -69 -221l134 -133h-111l-72 71q-77 -82 -192 -82q-99 0 -157 52q-55 50 -55 130q0 120 107 196q-65 77 -65 156q0 77 47 124q53 53 145 53q95 0 150 -55l-52 -60q-43 38 -103 38q-96 0 -96 -94q0 -29 6.5 -52t30.5 -53.5t36.5 -43.5t58.5 -59
l132 -132q40 75 42 165zM409 123l-188 186q-74 -48 -74 -132q0 -114 124 -114q82 0 138 60z" />
    <glyph glyph-name="quotesingle" unicode="'" horiz-adv-x="245" 
d="M163 471h-81l-4 219h89z" />
    <glyph glyph-name="parenleft" unicode="(" horiz-adv-x="330" 
d="M209 742l58 -62q-69 -57 -87.5 -134t-18.5 -256q0 -181 18.5 -260t87.5 -135l-58 -62q-85 67 -111.5 168.5t-26.5 286.5t26.5 285.5t111.5 168.5z" />
    <glyph glyph-name="parenright" unicode=")" horiz-adv-x="330" 
d="M121 -167l-58 63q69 57 87.5 134t18.5 258q0 179 -18.5 258t-87.5 134l58 62q85 -67 111.5 -168t26.5 -286q0 -186 -26.5 -286.5t-111.5 -168.5z" />
    <glyph glyph-name="asterisk" unicode="*" horiz-adv-x="524" 
d="M410 418l-59 -43l-89 127l-89 -126l-59 43l91 124l-146 46l22 71l146 -50l-2 155h73l-1 -155l146 49l22 -71l-146 -45z" />
    <glyph glyph-name="plus" unicode="+" horiz-adv-x="595" 
d="M531 227h-189v-203h-89v203h-189v79h189v204h89v-204h189v-79z" />
    <glyph glyph-name="comma" unicode="," horiz-adv-x="235" 
d="M58 52q0 25 16 42.5t43 17.5q28 0 44 -17.5t16 -48.5q0 -64 -80 -189l-58 32q35 62 50 111q-31 13 -31 52z" />
    <glyph glyph-name="hyphen" unicode="-" horiz-adv-x="334" 
d="M315 224h-295v85h295v-85z" />
    <glyph glyph-name="period" unicode="." horiz-adv-x="235" 
d="M58 52q0 26 17 43t43 17t42.5 -17t16.5 -43q0 -25 -17 -42t-42 -17t-42.5 17t-17.5 42z" />
    <glyph glyph-name="slash" unicode="/" horiz-adv-x="444" 
d="M430 767l-341 -861l-84 32l342 861z" />
    <glyph glyph-name="zero" unicode="0" 
d="M501 356q0 -218 -70 -302q-56 -67 -159 -67q-104 0 -156 65q-64 79 -64 283q0 215 69 300q56 69 160 69q101 0 156 -66q64 -78 64 -282zM406 356q0 141 -27 204t-99 63q-74 0 -103.5 -68.5t-29.5 -219.5q0 -142 27 -205t99 -63q74 0 103.5 68.5t29.5 220.5z" />
    <glyph glyph-name="one" unicode="1" 
d="M87 0v82h174v515l-159 -110l-50 68l201 135h100v-608h141v-82h-407z" />
    <glyph glyph-name="two" unicode="2" 
d="M491 83v-83h-429v60q0 95 42 150t165 137q34 22 52 36.5t38.5 36t29 45.5t8.5 54q0 57 -32.5 79.5t-90.5 22.5q-94 0 -152 -58l-55 57q73 80 212 80q94 0 153 -42.5t59 -140.5q0 -50 -19.5 -89.5t-49 -66t-87.5 -67.5q-105 -73 -141 -113t-36 -101z" />
    <glyph glyph-name="three" unicode="3" 
d="M153 314v81h68q157 0 157 123q0 57 -30.5 80t-89.5 23q-99 0 -155 -56l-49 64q68 73 202 73q89 0 146 -36q72 -45 72 -140q0 -62 -30 -105.5t-88 -60.5q129 -27 129 -173q0 -111 -80 -161q-59 -37 -154 -37q-134 0 -198 70l50 66q54 -57 154 -57q65 0 98.5 28t33.5 97
q0 70 -38 95.5t-126 25.5h-72z" />
    <glyph glyph-name="four" unicode="4" 
d="M515 144h-118v-144h-88v144h-269v83l186 463h93l-187 -462h178v267h87v-266h118v-85z" />
    <glyph glyph-name="five" unicode="5" 
d="M72 55l49 66q54 -54 148 -54q48 0 81 24q45 35 45 130q0 92 -37 121q-28 22 -80 22q-70 0 -120 -54l-73 23l5 357h363v-84h-280l-5 -206q45 44 126 44q82 0 137 -48q62 -54 62 -170q0 -132 -84 -192q-61 -45 -152 -45q-120 0 -185 66z" />
    <glyph glyph-name="six" unicode="6" 
d="M487 639l-48 -65q-52 48 -144 48q-33 0 -56.5 -6t-39.5 -22.5t-25 -35.5t-14.5 -55.5t-7 -71t-2.5 -93.5q21 40 62 61.5t94 21.5q83 0 136 -48q56 -53 56 -161q0 -112 -60 -169q-57 -54 -159 -54q-123 0 -176 85q-45 72 -45 254q0 111 12 182.5t49 116.5q60 75 184 75
q122 0 184 -63zM294 348q-67 0 -102.5 -38t-35.5 -110q0 -133 128 -133q67 0 94 35t27 107q0 73 -26 106t-85 33z" />
    <glyph glyph-name="seven" unicode="7" 
d="M124 497h-76l-1 193h456v-83q-136 -284 -220 -607h-99q82 318 223 602h-281z" />
    <glyph glyph-name="eight" unicode="8" 
d="M69 528q0 61 33.5 103t79 58t98.5 16q84 0 146 -42.5t62 -130.5q0 -118 -125 -176q135 -57 135 -184q0 -92 -65 -139t-156 -47q-57 0 -104.5 18t-81 61.5t-33.5 105.5q0 123 137 182q-126 51 -126 175zM159 521q0 -31 8.5 -53t28.5 -37t36 -22t46 -18q29 10 46.5 18
t36.5 23t27.5 37t8.5 53q0 107 -118 107q-120 0 -120 -108zM148 178q0 -116 130 -116t130 116q0 33 -10 57t-31.5 39.5t-39.5 24t-50 19.5q-63 -21 -96 -50t-33 -90z" />
    <glyph glyph-name="nine" unicode="9" 
d="M66 51l48 65q52 -48 144 -48q33 0 56.5 6t39.5 22.5t25 35.5t14.5 55.5t7 71t2.5 93.5q-43 -83 -156 -83q-85 0 -136 48q-56 53 -56 161q0 112 60 169q59 54 159 54q123 0 175 -84q29 -47 37.5 -106.5t8.5 -147.5q0 -112 -12 -183t-49 -117q-60 -75 -184 -75
q-122 0 -184 63zM259 342q67 0 102.5 38t35.5 110q0 133 -128 133q-67 0 -94 -35t-27 -107q0 -73 26 -106t85 -33z" />
    <glyph glyph-name="colon" unicode=":" horiz-adv-x="254" 
d="M78 52q0 25 17 41.5t42 16.5t41.5 -16.5t16.5 -41.5t-16.5 -42t-41.5 -17t-42 16.5t-17 42.5zM78 404q0 26 17 42.5t42 16.5t41.5 -16.5t16.5 -42.5q0 -25 -16.5 -41.5t-41.5 -16.5t-42 16.5t-17 41.5z" />
    <glyph glyph-name="semicolon" unicode=";" horiz-adv-x="237" 
d="M58 407q0 26 17 43t42 17q26 0 42.5 -17t16.5 -43q0 -25 -17 -41.5t-42 -16.5t-42 16.5t-17 41.5zM57 51q0 26 16 43t43 17q28 0 44 -17.5t16 -47.5q0 -67 -80 -189l-57 32q39 74 49 111q-31 14 -31 51z" />
    <glyph glyph-name="less" unicode="&#x3c;" horiz-adv-x="595" 
d="M469 52l-401 171v87l401 172l27 -76l-342 -138l342 -140z" />
    <glyph glyph-name="equal" unicode="=" horiz-adv-x="595" 
d="M508 129h-421v77h421v-77zM508 327h-421v77h421v-77z" />
    <glyph glyph-name="greater" unicode="&#x3e;" horiz-adv-x="595" 
d="M127 482l401 -172v-87l-401 -172l-27 76l342 139l-342 140z" />
    <glyph glyph-name="question" unicode="?" horiz-adv-x="483" 
d="M120 576l-48 63q72 61 179 61q66 0 118 -29q68 -38 68 -119q0 -41 -18.5 -74t-44.5 -54t-52 -38.5t-44.5 -37.5t-18.5 -42q0 -26 23 -59l-68 -39q-41 49 -41 101q0 35 18 63.5t43.5 47.5t51 36.5t43.5 40t18 48.5q0 78 -93 78q-75 0 -134 -47zM206 52q0 25 16.5 41.5
t41.5 16.5t42 -16.5t17 -41.5t-16.5 -41.5t-42.5 -16.5q-25 0 -41.5 16.5t-16.5 41.5z" />
    <glyph glyph-name="at" unicode="@" horiz-adv-x="866" 
d="M647 134q33 0 53.5 43.5t20.5 118.5q0 133 -69.5 208.5t-209.5 75.5q-142 0 -219.5 -78.5t-77.5 -232.5q0 -306 323 -306q186 0 282 91l50 -55q-54 -52 -141.5 -84t-195.5 -32q-198 0 -301.5 104.5t-103.5 281.5q0 180 105 287.5t281 107.5q171 0 268 -99t97 -253
q0 -108 -47 -178.5t-129 -70.5q-86 0 -103 80q-45 -82 -140 -82q-59 0 -96 33.5t-37 90.5q0 127 199 127h51v20q0 44 -16 60t-61 16q-72 0 -109 -33l-45 60q53 49 157 49q84 0 125 -38.5t41 -120.5v-90q0 -101 48 -101zM508 249h-51q-25 0 -40 -1.5t-31 -7.5t-23.5 -19
t-7.5 -34q0 -51 48 -51q40 0 70.5 31t34.5 82z" />
    <glyph glyph-name="A" unicode="A" horiz-adv-x="594" 
d="M589 0h-103l-56 172h-268l-58 -172h-99l235 690h117zM408 251l-111 342l-112 -342h223z" />
    <glyph glyph-name="B" unicode="B" horiz-adv-x="589" 
d="M84 690h243q92 0 142 -40q50 -41 50 -121q0 -64 -30.5 -107.5t-92.5 -58.5q136 -17 136 -166q0 -99 -63 -150q-59 -47 -163 -47h-222v690zM177 315v-236h126q68 0 98 27q33 30 33 97q0 64 -31.5 88t-98.5 24h-127zM177 610v-219h99q68 0 106 27.5t38 94.5q0 55 -27 78
q-22 19 -77 19h-139z" />
    <glyph glyph-name="C" unicode="C" horiz-adv-x="582" 
d="M484 151l57 -56q-85 -107 -228 -107q-112 0 -174 64q-81 84 -81 287q0 207 80 291q67 72 192 72q131 0 201 -78l-54 -62q-60 59 -150 59q-91 0 -129 -53q-42 -58 -42 -225q0 -172 48 -230q37 -44 110 -44q99 0 170 82z" />
    <glyph glyph-name="D" unicode="D" horiz-adv-x="654" 
d="M84 690h234q135 0 201 -63q44 -41 60.5 -107.5t16.5 -171.5q0 -97 -16.5 -167t-63.5 -115q-68 -66 -195 -66h-237v690zM178 608v-526h138q90 0 133 46q49 52 49 215q0 169 -49 222q-42 43 -133 43h-138z" />
    <glyph glyph-name="E" unicode="E" horiz-adv-x="520" 
d="M84 690h376v-82h-283v-215h259v-82h-259v-229h287v-82h-380v690z" />
    <glyph glyph-name="F" unicode="F" horiz-adv-x="499" 
d="M84 690h375v-82h-282v-221h257v-82h-257v-305h-93v690z" />
    <glyph glyph-name="G" unicode="G" horiz-adv-x="648" 
d="M333 368h239v-340q-93 -38 -218 -38q-148 0 -218 70q-45 45 -61.5 111.5t-16.5 163.5q0 211 79 291q71 74 214 74q140 0 212 -71l-53 -68q-64 58 -170 58q-93 0 -136 -48q-25 -27 -36.5 -77t-11.5 -150q0 -107 12.5 -157.5t38.5 -76.5q44 -42 142 -42q78 0 134 17v201
h-150v82z" />
    <glyph glyph-name="H" unicode="H" horiz-adv-x="665" 
d="M84 690h93v-296h311v296h93v-690h-93v311h-311v-311h-93v690z" />
    <glyph glyph-name="I" unicode="I" horiz-adv-x="261" 
d="M84 690h93v-690h-93v690z" />
    <glyph glyph-name="J" unicode="J" horiz-adv-x="274" 
d="M98 690h92v-655q0 -244 -198 -244q-44 0 -79 13l18 86q24 -10 62 -10q62 0 83.5 36t21.5 119v655z" />
    <glyph glyph-name="K" unicode="K" horiz-adv-x="610" 
d="M84 690h93v-292h68l228 292h110l-260 -335l278 -355h-115l-243 310h-66v-310h-93v690z" />
    <glyph glyph-name="L" unicode="L" horiz-adv-x="494" 
d="M84 690h93v-607h289v-83h-382v690z" />
    <glyph glyph-name="M" unicode="M" horiz-adv-x="851" 
d="M105 690h131l190 -526l192 526h129l38 -690h-94l-26 583l-195 -546h-90l-194 546l-27 -583h-93z" />
    <glyph glyph-name="N" unicode="N" horiz-adv-x="699" 
d="M84 690h124l318 -566l-3 566h92v-690h-124l-318 565l2 -565h-91v690z" />
    <glyph glyph-name="O" unicode="O" horiz-adv-x="682" 
d="M624 352q0 -199 -80 -287q-72 -79 -208 -79t-205 76q-73 80 -73 275q0 201 79 288q72 79 209 79q136 0 205 -76q73 -82 73 -276zM524 349q0 176 -50 230q-42 45 -130 45q-92 0 -135 -49q-51 -57 -51 -236q0 -177 49 -229q41 -44 129 -44q91 0 136 48q28 31 40 85t12 150z
" />
    <glyph glyph-name="P" unicode="P" horiz-adv-x="571" 
d="M84 690h232q95 0 146 -38q68 -50 68 -175q0 -130 -69 -180q-52 -39 -146 -39h-138v-258h-93v690zM177 608v-268h140q62 0 88 26q28 28 28 109t-31 110q-26 23 -91 23h-134z" />
    <glyph glyph-name="Q" unicode="Q" horiz-adv-x="682" 
d="M624 353q0 -202 -80 -288l-4 -4l97 -102l-71 -67l-108 115q-53 -21 -123 -21q-135 0 -204 76q-73 80 -73 275q0 201 79 288q72 79 209 79q136 0 205 -76q73 -81 73 -275zM524 349q0 176 -50 230q-42 45 -130 45q-92 0 -135 -49q-51 -57 -51 -236q0 -177 49 -229
q41 -44 129 -44q91 0 136 48q28 31 40 85t12 150z" />
    <glyph glyph-name="R" unicode="R" horiz-adv-x="590" 
d="M84 690h234q94 0 147 -34q67 -44 67 -146q0 -158 -144 -189q27 -7 47.5 -24.5t35 -41t27.5 -66t21.5 -82t21.5 -107.5h-99q-35 170 -62.5 225.5t-91.5 55.5h-111v-281h-93v690zM177 609v-247h89q84 0 126 29.5t42 106.5q0 64 -27 89q-23 22 -90 22h-140z" />
    <glyph glyph-name="S" unicode="S" horiz-adv-x="519" 
d="M455 645l-45 -68q-63 44 -153 44q-118 0 -118 -102q0 -35 25 -61t62 -40t81 -33.5t81 -40.5t62 -62.5t25 -97.5q0 -100 -76 -152q-63 -43 -160 -43q-56 0 -113 17t-91 51l48 68q66 -55 170 -55q59 0 93 24t34 86q0 39 -25 66.5t-62 42.5t-80.5 34t-80.5 39t-62 60t-25 95
q0 84 65 134q66 50 161 50q115 0 184 -56z" />
    <glyph glyph-name="T" unicode="T" horiz-adv-x="544" 
d="M14 690h516v-83h-211v-607h-93v607h-212v83z" />
    <glyph glyph-name="U" unicode="U" horiz-adv-x="672" 
d="M84 690h93v-449q0 -46 4.5 -72.5t19.5 -52t48 -36.5t87 -11q53 0 85.5 10.5t48.5 35.5t21 53t5 76v446h92v-443q0 -122 -47 -179q-64 -79 -209 -79q-138 0 -199 73q-49 58 -49 180v448z" />
    <glyph glyph-name="V" unicode="V" horiz-adv-x="603" 
d="M14 690h102l186 -588l189 588h98l-235 -690h-108z" />
    <glyph glyph-name="W" unicode="W" horiz-adv-x="898" 
d="M22 690h95l133 -582l147 562h106l148 -562l132 582h94l-170 -690h-111l-148 559l-149 -559h-111z" />
    <glyph glyph-name="X" unicode="X" horiz-adv-x="595" 
d="M34 690h111l154 -268l153 268h109l-203 -332l220 -358h-111l-170 291l-170 -291h-110l221 358z" />
    <glyph glyph-name="Y" unicode="Y" horiz-adv-x="534" 
d="M4 690h107l155 -324l158 324h106l-219 -419v-271h-93v271z" />
    <glyph glyph-name="Z" unicode="Z" horiz-adv-x="548" 
d="M495 688v-82l-350 -525l360 1v-82h-469v81l349 525h-341v82h451z" />
    <glyph glyph-name="bracketleft" unicode="[" horiz-adv-x="336" 
d="M84 725h190v-74h-99v-727h99v-73h-190v874z" />
    <glyph glyph-name="backslash" unicode="\" horiz-adv-x="449" 
d="M361 -93l-347 854l83 32l347 -854z" />
    <glyph glyph-name="bracketright" unicode="]" horiz-adv-x="336" 
d="M252 -150h-189v74h99v728h-99v73h189v-875z" />
    <glyph glyph-name="asciicircum" unicode="^" horiz-adv-x="595" 
d="M77 341l177 402h88l176 -402l-77 -27l-144 343l-144 -343z" />
    <glyph glyph-name="underscore" unicode="_" horiz-adv-x="424" 
d="M424 -134h-424v82h424v-82z" />
    <glyph glyph-name="grave" unicode="`" horiz-adv-x="200" 
d="M184 604l-54 -47l-154 171l62 52z" />
    <glyph glyph-name="a" unicode="a" horiz-adv-x="503" 
d="M106 383l-49 56q63 70 181 70q95 0 141.5 -43t46.5 -139v-327h-83l-1 83q-23 -46 -65.5 -70t-93.5 -24q-69 0 -107 38q-40 37 -40 107q0 80 57 120q59 41 173 41h72v25q0 64 -22.5 89t-80.5 25q-79 0 -129 -51zM339 227h-82q-67 0 -98 -18t-31 -71q0 -75 68 -75
q54 0 97.5 42t45.5 122z" />
    <glyph glyph-name="b" unicode="b" horiz-adv-x="565" 
d="M82 765h90v-345q48 90 161 90q173 0 173 -250q0 -270 -192 -270q-100 0 -148 77l-1 -67h-83v765zM414 253q0 38 -4 67.5t-15 55.5t-32 40t-52 14q-57 0 -94 -42q-48 -54 -48 -154q0 -87 41 -130q34 -36 90 -36q65 0 89.5 49t24.5 136z" />
    <glyph glyph-name="c" unicode="c" horiz-adv-x="486" 
d="M386 129l54 -55q-66 -84 -184 -84q-92 0 -143 59q-54 62 -54 193q0 145 60 210q54 59 155 59q102 0 158 -59l-51 -60q-43 39 -106 39q-71 0 -95.5 -42t-24.5 -138q0 -95 22.5 -139t82.5 -44q74 0 126 61z" />
    <glyph glyph-name="d" unicode="d" horiz-adv-x="567" 
d="M395 765h90v-765h-86v88q-25 -47 -70 -73t-98 -26q-69 0 -113 48q-59 65 -59 204q0 148 62 213q52 55 142 55q94 0 132 -61v317zM248 68q55 0 95 43q55 58 55 164q0 85 -39 124q-31 31 -87 31q-68 0 -92.5 -44t-24.5 -140q0 -92 21 -135t72 -43z" />
    <glyph glyph-name="e" unicode="e" horiz-adv-x="537" 
d="M421 127l49 -56q-80 -81 -197 -81q-100 0 -153 53q-61 61 -61 192q0 145 59 211q58 65 160 65t149.5 -59t47.5 -155q0 -33 -3 -61l-320 -2q2 -86 25.5 -126.5t95.5 -40.5q86 0 148 60zM155 305l227 1q1 66 -21 98t-84 32q-64 0 -91 -33t-31 -98z" />
    <glyph glyph-name="f" unicode="f" horiz-adv-x="380" 
d="M35 405v79h88v38q0 94 45 154t143 60q68 0 105 -26l-33 -69q-29 15 -70 15q-60 0 -80 -30.5t-20 -103.5v-38h134v-79h-134v-405h-90v405h-88z" />
    <glyph glyph-name="g" unicode="g" horiz-adv-x="567" 
d="M405 499h80v-515q0 -226 -230 -226q-119 0 -186 57l47 68q56 -45 145 -45q83 0 110 35.5t27 113.5v101q-23 -46 -66 -71t-97 -25q-84 0 -127 59q-49 63 -49 194q0 138 59 205q52 59 141 59q100 0 144 -75zM252 70q57 0 94 41q53 56 53 163q0 84 -41 124q-35 33 -89 33
q-65 0 -89.5 -46t-24.5 -141q0 -91 21.5 -132.5t75.5 -41.5z" />
    <glyph glyph-name="h" unicode="h" 
d="M82 765h90v-362q16 47 58.5 77.5t100.5 30.5q68 0 106.5 -43.5t38.5 -122.5v-345h-90v329q0 51 -16 75.5t-54 24.5q-61 0 -102.5 -62t-41.5 -193v-174h-90v765z" />
    <glyph glyph-name="i" unicode="i" horiz-adv-x="254" 
d="M82 499h90v-499h-90v499zM69 667q0 25 16.5 41.5t41.5 16.5t41.5 -16.5t16.5 -41.5t-16.5 -42t-41.5 -17t-41.5 17t-16.5 42z" />
    <glyph glyph-name="j" unicode="j" horiz-adv-x="256" 
d="M84 499h90v-553q0 -87 -41.5 -136.5t-125.5 -49.5q-34 0 -64 11l17 80q17 -7 48 -7q46 0 61 23.5t15 79.5v552zM71 667q0 25 16.5 41.5t41.5 16.5t41.5 -16.5t16.5 -41.5t-16.5 -42t-41.5 -17t-41.5 17t-16.5 42z" />
    <glyph glyph-name="k" unicode="k" horiz-adv-x="509" 
d="M82 765h90v-465h43l149 199h109l-187 -239l206 -260h-117l-161 214h-42v-214h-90v765z" />
    <glyph glyph-name="l" unicode="l" horiz-adv-x="254" 
d="M82 765h90v-765h-90v765z" />
    <glyph glyph-name="m" unicode="m" horiz-adv-x="840" 
d="M82 499h86v-104q18 54 58 85t99 31q113 0 137 -118q19 54 60 86t99 32q67 0 104.5 -43.5t37.5 -122.5v-345h-90v324q0 54 -14.5 79.5t-53.5 25.5q-59 0 -98.5 -62t-39.5 -189v-178h-90v326q0 51 -14.5 77t-53.5 26q-59 0 -98 -62t-39 -189v-178h-90v499z" />
    <glyph glyph-name="n" unicode="n" 
d="M82 499h86l-1 -104q18 54 60.5 85t102.5 31q70 0 108 -44t38 -122v-345h-90v324q0 54 -15.5 79.5t-55.5 25.5q-63 0 -103 -63t-40 -189v-177h-90v499z" />
    <glyph glyph-name="o" unicode="o" horiz-adv-x="555" 
d="M496 256q0 -71 -13 -117t-47 -84q-60 -65 -163 -65q-101 0 -158 60q-32 34 -44 79t-12 112q0 72 13 120.5t47 85.5q59 64 163 64q103 0 158 -60q56 -61 56 -195zM402 254q0 107 -35 148q-30 32 -88 32q-61 0 -90 -35q-36 -44 -36 -155q0 -104 35 -146q26 -31 86 -31
q63 0 92 35q36 44 36 152z" />
    <glyph glyph-name="p" unicode="p" horiz-adv-x="567" 
d="M82 499h87v-88q23 46 68 73t98 27q70 0 114 -47q59 -63 59 -206q0 -156 -71 -222q-51 -46 -129 -46q-91 0 -136 60v-290h-90v739zM318 431q-62 0 -102 -51q-47 -59 -47 -157q0 -80 31 -116q33 -39 98 -39q62 0 88 43t26 143q0 94 -21.5 135.5t-72.5 41.5z" />
    <glyph glyph-name="q" unicode="q" horiz-adv-x="567" 
d="M404 499h81v-739h-90v319q-23 -42 -67 -66t-94 -24q-68 0 -115 47q-60 60 -60 204q0 150 61 215q51 54 134 54q105 0 149 -77zM155 241q0 -87 20.5 -130t77.5 -43t97 44q48 51 48 152q0 90 -39 129q-40 38 -94 38q-62 0 -86 -45t-24 -145z" />
    <glyph glyph-name="r" unicode="r" horiz-adv-x="386" 
d="M82 499h86l-1 -99q41 111 139 111q34 0 60 -14l-25 -84q-14 9 -43 9q-62 0 -94 -66.5t-32 -163.5v-192h-90v499z" />
    <glyph glyph-name="s" unicode="s" horiz-adv-x="423" 
d="M375 457l-48 -59q-46 36 -111 36q-84 0 -84 -61q0 -27 26.5 -44.5t64 -30t75 -28.5t64 -49.5t26.5 -83.5q0 -75 -55.5 -111t-135.5 -36q-115 0 -165 60l47 59q46 -46 126 -46q93 0 93 70q0 29 -26.5 48t-64 31t-75.5 27.5t-64.5 48t-26.5 80.5q0 69 51.5 105t132.5 36
q98 0 150 -52z" />
    <glyph glyph-name="t" unicode="t" horiz-adv-x="419" 
d="M363 82l8 -76q-43 -13 -100 -13q-88 0 -118 40t-30 133v245h-91v79h91v144l89 11v-155h152v-79h-152v-240q0 -58 12.5 -78.5t59.5 -20.5q39 0 79 10z" />
    <glyph glyph-name="u" unicode="u" 
d="M471 0h-84v104q-17 -54 -59 -84.5t-102 -30.5q-70 0 -107 42.5t-37 122.5v345h90v-327q0 -104 72 -104q59 0 98.5 61.5t39.5 186.5v183h89v-499z" />
    <glyph glyph-name="v" unicode="v" horiz-adv-x="486" 
d="M22 499h97l125 -404l126 404h94l-170 -499h-104z" />
    <glyph glyph-name="w" unicode="w" horiz-adv-x="735" 
d="M25 499h93l96 -396l103 382h102l104 -382l95 396h92l-135 -499h-103l-105 385l-107 -385h-104z" />
    <glyph glyph-name="x" unicode="x" horiz-adv-x="500" 
d="M41 499h104l107 -181l106 181h103l-148 -240l161 -259h-105l-119 196l-120 -196h-103l164 258z" />
    <glyph glyph-name="y" unicode="y" horiz-adv-x="500" 
d="M479 499l-145 -470q-41 -135 -93 -202.5t-133 -67.5q-47 0 -72 18l31 75q20 -10 44 -10q44 0 72.5 37.5t55.5 124.5h-53l-164 495h96l140 -450l126 450h95z" />
    <glyph glyph-name="z" unicode="z" horiz-adv-x="456" 
d="M402 493v-77l-251 -338h259v-78h-366v77l250 338h-242v78h350z" />
    <glyph glyph-name="braceleft" unicode="{" horiz-adv-x="355" 
d="M292 -149h-60q-59 0 -93 33t-34 94v164q0 63 -21.5 84t-76.5 23v76q55 2 76.5 23.5t21.5 84.5v161q0 62 33.5 96.5t93.5 34.5h60v-78h-39q-39 0 -51 -15.5t-12 -52.5v-155q0 -116 -82 -136q82 -22 82 -136v-156q0 -37 12 -53t51 -16h39v-76z" />
    <glyph glyph-name="bar" unicode="|" horiz-adv-x="259" 
d="M175 765v-1005h-91v1005h91z" />
    <glyph glyph-name="braceright" unicode="}" horiz-adv-x="355" 
d="M63 724h60q59 0 93 -33t34 -94v-164q0 -63 21.5 -84t76.5 -23v-76q-55 -1 -76.5 -23t-21.5 -85v-161q0 -61 -34 -95.5t-93 -34.5h-60v78h39q39 0 51 15t12 53v155q0 116 82 135q-82 22 -82 136v156q0 37 -12 53t-51 16h-39v76z" />
    <glyph glyph-name="asciitilde" unicode="~" horiz-adv-x="595" 
d="M489 321l51 -51q-64 -78 -138 -78q-44 0 -112.5 34t-99.5 34q-44 0 -84 -48l-50 51q62 78 137 78q44 0 112.5 -34t99.5 -34q44 0 84 48z" />
    <glyph glyph-name="exclamdown" unicode="&#xa1;" horiz-adv-x="319" 
d="M94 -78l7 492h83l7 -492h-97zM201 561q0 -25 -16.5 -41.5t-41.5 -16.5t-42 16.5t-17 41.5t17 41t42 16t41.5 -16t16.5 -41z" />
    <glyph glyph-name="cent" unicode="&#xa2;" 
d="M339 765l-1 -109q95 -8 152 -68l-54 -62q-52 49 -131 49q-87 0 -115.5 -50t-28.5 -168q0 -120 26.5 -172t101.5 -52q95 0 154 78l59 -57q-59 -80 -164 -97l1 -112h-95l1 111q-84 13 -130 77q-53 72 -53 218q0 153 57 226q46 58 126 74l-1 114h95z" />
    <glyph glyph-name="sterling" unicode="&#xa3;" 
d="M379 385v-78h-162v-229h304v-78h-474v78h77v229h-77v78h77v64q0 49 10.5 90t34 78t68.5 58.5t108 21.5q103 0 158 -56l-53 -62q-38 39 -110 39q-77 0 -100 -41t-23 -133v-59h162z" />
    <glyph glyph-name="currency" unicode="&#xa4;" 
d="M534 559l-86 -83q28 -48 28 -110q0 -64 -30 -115l90 -87l-58 -56l-88 88q-46 -30 -114 -30q-64 0 -113 29l-87 -89l-58 57l89 87q-31 48 -31 114q0 63 28 111l-87 84l57 57l85 -84q47 32 118 32q66 0 116 -31l84 82zM397 366q0 125 -121 125q-120 0 -120 -125
q0 -128 120 -128q121 0 121 128z" />
    <glyph glyph-name="yen" unicode="&#xa5;" 
d="M510 239v-80h-190v-159h-92v159h-179v80h179v39l-16 28h-163v79h121l-165 305h107l164 -323l168 323h104l-169 -305h131v-79h-174l-16 -28v-39h190z" />
    <glyph glyph-name="brokenbar" unicode="&#xa6;" horiz-adv-x="259" 
d="M175 -240h-91v376h91v-376zM175 765v-377h-91v377h91z" />
    <glyph glyph-name="section" unicode="&#xa7;" horiz-adv-x="499" 
d="M49 -55l42 62q53 -43 135 -43q112 0 112 81q0 32 -31 53t-76 35t-89.5 32.5t-75.5 57t-31 96.5q0 87 77 147q-43 40 -43 100q0 75 59.5 115t144.5 40q99 0 159 -51l-41 -61q-46 39 -129 39q-107 0 -107 -80q0 -31 31 -52t74.5 -35.5t87.5 -33t75 -57.5t31 -97
q0 -86 -76 -148q45 -38 45 -99q0 -74 -63 -114.5t-143 -40.5q-103 0 -168 54zM371 288q0 24 -10.5 42.5t-32.5 32.5t-41 22t-53 20.5t-51 19.5q-65 -48 -65 -102q0 -24 10.5 -42.5t32.5 -32t41 -21.5t53.5 -20.5t51.5 -19.5q64 48 64 101z" />
    <glyph glyph-name="dieresis" unicode="&#xa8;" horiz-adv-x="200" 
d="M194 707q23 0 38 -15.5t15 -38.5q0 -22 -15.5 -37t-37.5 -15t-37 15t-15 37q0 23 15 38.5t37 15.5zM5 707q22 0 37.5 -15.5t15.5 -38.5q0 -22 -15.5 -37t-37.5 -15t-37 15t-15 37q0 23 15 38.5t37 15.5z" />
    <glyph glyph-name="copyright" unicode="&#xa9;" horiz-adv-x="822" 
d="M58 345q0 160 92.5 265t260.5 105q167 0 260 -105t93 -265t-93.5 -265t-260.5 -105t-259.5 105t-92.5 265zM141 343q0 -130 67.5 -208t201.5 -78t202 78t68 209t-67 209.5t-200 78.5q-135 0 -203.5 -79t-68.5 -210zM510 262l59 -63q-61 -66 -160 -66q-81 0 -127 48
q-51 52 -51 158q0 99 45 154q51 60 147 60q89 0 138 -45l-53 -71q-32 27 -89 27q-48 0 -65.5 -25.5t-17.5 -92.5q0 -72 17.5 -98.5t57.5 -26.5q58 0 99 41z" />
    <glyph glyph-name="ordfeminine" unicode="&#xaa;" horiz-adv-x="320" 
d="M266 389h-221v58h221v-58zM76 696l-36 40q38 38 111 38q59 0 87 -23.5t28 -78.5v-172h-61v38q-29 -45 -89 -45q-40 0 -64 21t-24 60q0 50 41 71q35 19 96 19h36v9q0 27 -12 37.5t-41 10.5q-44 0 -72 -25zM201 618h-39q-35 0 -51 -7.5t-16 -32.5q0 -33 31 -33
q27 0 50.5 20t24.5 53z" />
    <glyph glyph-name="guillemotleft" unicode="&#xab;" horiz-adv-x="492" 
d="M181 66l-161 201l161 200l59 -46l-121 -154l121 -154zM401 66l-161 201l161 200l59 -46l-122 -154l122 -154z" />
    <glyph glyph-name="logicalnot" unicode="&#xac;" horiz-adv-x="595" 
d="M510 368v-286h-88v208h-349v78h437z" />
    <glyph glyph-name="registered" unicode="&#xae;" horiz-adv-x="590" 
d="M59 593q0 103 65.5 171.5t170.5 68.5t170.5 -69t65.5 -171t-66 -171t-171 -69q-104 0 -169.5 69t-65.5 171zM124 593q0 -79 45.5 -128t124.5 -49q80 0 126 49t46 129q0 79 -46 128t-125 49t-125 -49.5t-46 -128.5zM195 717h112q96 0 96 -71q0 -58 -56 -70
q28 -5 38.5 -27.5t18.5 -80.5h-64q-9 49 -17 66t-27 17h-39v-83h-62v249zM257 665v-64h24q30 0 44 8t14 29q0 16 -8.5 21.5t-29.5 5.5h-44z" />
    <glyph glyph-name="macron" unicode="&#xaf;" horiz-adv-x="200" 
d="M247 614h-294v76h294v-76z" />
    <glyph glyph-name="degree" unicode="&#xb0;" horiz-adv-x="444" 
d="M386 572q0 -74 -44 -120.5t-123 -46.5q-77 0 -119 44.5t-42 115.5q0 74 44 120.5t123 46.5q77 0 119 -44.5t42 -115.5zM306 571q0 40 -20.5 66t-61.5 26q-42 0 -64 -28t-22 -70q0 -40 20.5 -66t61.5 -26q42 0 64 28.5t22 69.5z" />
    <glyph glyph-name="plusminus" unicode="&#xb1;" horiz-adv-x="595" 
d="M496 318h-159v-153h-79v153h-159v74h159v149h79v-149h159v-74zM496 44h-397v73h397v-73z" />
    <glyph glyph-name="twosuperior" unicode="&#xb2;" horiz-adv-x="351" 
d="M302 562v-62h-259v47q0 50 23.5 77t93.5 68q25 14 37 22.5t22.5 23.5t10.5 32q0 42 -62 42q-52 0 -82 -30l-44 43q45 48 132 48q129 0 129 -103q0 -41 -21 -65t-70 -52q-54 -31 -74 -49.5t-20 -42.5z" />
    <glyph glyph-name="threesuperior" unicode="&#xb3;" horiz-adv-x="351" 
d="M96 658v58h46q78 0 78 53q0 25 -15.5 34.5t-46.5 9.5q-55 0 -85 -26l-36 48q38 38 123 38q58 0 92 -22q42 -25 42 -74q0 -68 -67 -87q72 -16 72 -91q0 -54 -45 -82q-38 -24 -97 -24q-84 0 -121 38l36 48q30 -26 86 -26q34 0 51 11.5t17 41.5t-19 41t-63 11h-48z" />
    <glyph glyph-name="acute" unicode="&#xb4;" horiz-adv-x="200" 
d="M66 557l-54 47l146 176l61 -52z" />
    <glyph glyph-name="mu" unicode="&#xb5;" 
d="M471 0h-85l2 104q-17 -55 -57.5 -85t-100.5 -30q-39 0 -64 11l6 -240h-90v739h90v-327q0 -103 72 -103q58 0 98 63.5t40 188.5v178h89v-499z" />
    <glyph glyph-name="paragraph" unicode="&#xb6;" horiz-adv-x="749" 
d="M665 -240h-90v868h-122v-868h-90v504h-109q-36 0 -61.5 3t-56 16t-50 35.5t-32.5 65t-13 101.5q0 58 12 100t30 65.5t47 37.5t55.5 18t61.5 4h418v-950zM363 347v280h-109q-69 0 -94.5 -34t-25.5 -107q0 -84 29.5 -111.5t96.5 -27.5h103z" />
    <glyph glyph-name="periodcentered" unicode="&#xb7;" horiz-adv-x="235" 
d="M58 267q0 25 17 42t42 17t42.5 -17t17.5 -42t-17 -42t-43 -17q-25 0 -42 17t-17 42z" />
    <glyph glyph-name="cedilla" unicode="&#xb8;" horiz-adv-x="200" 
d="M45 11h66l-6 -59q69 -27 69 -83q0 -43 -29 -73t-80 -30q-68 0 -107 57l41 43q27 -38 61 -38q19 0 31.5 10.5t12.5 29.5q0 37 -67 54z" />
    <glyph glyph-name="onesuperior" unicode="&#xb9;" horiz-adv-x="351" 
d="M56 500v63h100v231l-84 -55l-39 50l116 78h79v-304h78v-63h-250z" />
    <glyph glyph-name="ordmasculine" unicode="&#xba;" horiz-adv-x="346" 
d="M287 389h-225v58h225v-58zM305 638q0 -74 -38 -111q-34 -34 -98 -34q-60 0 -93 31q-37 34 -37 105q0 73 37 111q33 35 99 35q61 0 93 -29q37 -33 37 -108zM232 639q0 50 -19 66q-12 11 -38 11q-28 0 -44 -14q-18 -18 -18 -72q0 -49 16 -65q15 -13 41 -13q31 0 46 17
q16 20 16 70z" />
    <glyph glyph-name="guillemotright" unicode="&#xbb;" horiz-adv-x="492" 
d="M311 467l161 -200l-161 -200l-59 45l121 155l-121 153zM91 467l161 -200l-161 -200l-59 45l122 155l-122 153z" />
    <glyph glyph-name="onequarter" unicode="&#xbc;" horiz-adv-x="878" 
d="M774 683l-612 -724l-57 47l612 725zM80 323v63h94v233l-77 -55l-39 52l107 74h81v-304h74v-63h-240zM819 70h-61v-70h-67v70h-151v62l92 235h69l-92 -234h83v134h66v-133h61v-64z" />
    <glyph glyph-name="onehalf" unicode="&#xbd;" horiz-adv-x="878" 
d="M774 683l-612 -724l-57 47l612 725zM80 323v63h94v233l-77 -55l-39 52l107 74h81v-304h74v-63h-240zM805 62v-62h-252v47q0 51 22 77.5t89 66.5q25 15 37.5 23.5t22.5 23t10 32.5q0 42 -59 42q-50 0 -80 -30l-43 44q44 47 128 47q126 0 126 -103q0 -41 -21 -65.5
t-68 -52.5q-53 -32 -71 -49t-18 -42z" />
    <glyph glyph-name="threequarters" unicode="&#xbe;" horiz-adv-x="878" 
d="M774 683l-612 -724l-57 47l612 725zM819 70h-61v-70h-67v70h-151v62l92 235h69l-92 -234h83v134h66v-133h61v-64zM114 481v59h46q78 0 78 52q0 25 -15.5 34.5t-46.5 9.5q-55 0 -85 -25l-36 47q40 39 121 39q59 0 94 -22q42 -27 42 -75q0 -66 -67 -87q72 -15 72 -89
q0 -57 -45 -84q-37 -23 -98 -23q-83 0 -120 37l37 49q30 -27 85 -27q68 0 68 53q0 30 -19 41t-63 11h-48z" />
    <glyph glyph-name="questiondown" unicode="&#xbf;" horiz-adv-x="483" 
d="M363 36l49 -63q-71 -61 -178 -61q-69 0 -120 29q-68 39 -68 119q0 41 18.5 74t44.5 54t52 38.5t44.5 37.5t18.5 42q0 26 -23 59l68 39q42 -50 42 -101q0 -36 -18 -64.5t-43.5 -47.5t-51.5 -36.5t-44 -39.5t-18 -49q0 -77 93 -77q76 0 134 47zM278 560q0 -25 -17 -41.5
t-42 -16.5t-42 16.5t-17 41.5t17 41.5t42 16.5q26 0 42.5 -16.5t16.5 -41.5z" />
    <glyph glyph-name="Agrave" unicode="&#xc0;" horiz-adv-x="594" 
d="M589 0h-103l-56 172h-268l-58 -172h-99l235 690h117zM408 251l-111 342l-112 -342h223zM379 805l-38 -57l-191 125l46 67z" />
    <glyph glyph-name="Aacute" unicode="&#xc1;" horiz-adv-x="594" 
d="M589 0h-103l-56 172h-268l-58 -172h-99l235 690h117zM408 251l-111 342l-112 -342h223zM246 748l-38 57l183 135l46 -67z" />
    <glyph glyph-name="Acircumflex" unicode="&#xc2;" horiz-adv-x="594" 
d="M589 0h-103l-56 172h-268l-58 -172h-99l235 690h117zM408 251l-111 342l-112 -342h223zM148 814l150 102l149 -101l-37 -58l-113 69l-113 -70z" />
    <glyph glyph-name="Atilde" unicode="&#xc3;" horiz-adv-x="594" 
d="M589 0h-103l-56 172h-268l-58 -172h-99l235 690h117zM408 251l-111 342l-112 -342h223zM421 913l42 -49q-50 -62 -107 -62q-26 0 -66.5 16.5t-56.5 16.5q-33 0 -60 -35l-42 48q49 63 107 63q26 0 66.5 -16.5t56.5 -16.5q33 0 60 35z" />
    <glyph glyph-name="Adieresis" unicode="&#xc4;" horiz-adv-x="594" 
d="M589 0h-103l-56 172h-268l-58 -172h-99l235 690h117zM408 251l-111 342l-112 -342h223zM391 898q23 0 38 -15.5t15 -38.5q0 -22 -15.5 -37t-37.5 -15t-37 15t-15 37q0 23 15 38.5t37 15.5zM202 898q22 0 37.5 -15.5t15.5 -38.5q0 -22 -15.5 -37t-37.5 -15t-37 15t-15 37
q0 23 15 38.5t37 15.5z" />
    <glyph glyph-name="Aring" unicode="&#xc5;" horiz-adv-x="594" 
d="M589 0h-103l-56 172h-268l-58 -172h-99l235 690h117zM408 251l-111 342l-112 -342h223zM410 845q0 -45 -32 -72t-81 -27t-81 27t-32 73q0 45 31.5 71.5t81.5 26.5q49 0 81 -27t32 -72zM347 846q0 22 -14 33.5t-36 11.5t-36 -12t-14 -34t14 -33.5t36 -11.5t36 12t14 34z
" />
    <glyph glyph-name="AE" unicode="&#xc6;" horiz-adv-x="853" 
d="M417 189h-239l-87 -189h-103l328 690h477v-82h-282v-215h256v-82h-256v-230h286v-81h-380v189zM372 608l-158 -341h203v341h-45z" />
    <glyph glyph-name="Ccedilla" unicode="&#xc7;" horiz-adv-x="582" 
d="M484 151l57 -56q-82 -103 -219 -107l-3 -36q69 -27 69 -83q0 -43 -29 -73t-80 -30q-67 0 -108 57l42 43q25 -38 61 -38q19 0 31 10.5t12 29.5q0 38 -67 54l7 71q-73 11 -118 59q-81 84 -81 287q0 205 80 291q67 72 193 72q130 0 200 -78l-54 -62q-60 59 -150 59
q-91 0 -130 -54q-41 -57 -41 -226q0 -170 48 -228q37 -44 109 -44q100 0 171 82z" />
    <glyph glyph-name="Egrave" unicode="&#xc8;" horiz-adv-x="520" 
d="M84 690h376v-82h-283v-215h259v-82h-259v-229h287v-82h-380v690zM359 805l-38 -57l-191 125l46 67z" />
    <glyph glyph-name="Eacute" unicode="&#xc9;" horiz-adv-x="520" 
d="M84 690h376v-82h-283v-215h259v-82h-259v-229h287v-82h-380v690zM226 748l-38 57l183 135l46 -67z" />
    <glyph glyph-name="Ecircumflex" unicode="&#xca;" horiz-adv-x="520" 
d="M84 690h376v-82h-283v-215h259v-82h-259v-229h287v-82h-380v690zM128 814l150 102l149 -101l-37 -58l-113 69l-113 -70z" />
    <glyph glyph-name="Edieresis" unicode="&#xcb;" horiz-adv-x="520" 
d="M84 690h376v-82h-283v-215h259v-82h-259v-229h287v-82h-380v690zM371 898q23 0 38 -15.5t15 -38.5q0 -22 -15.5 -37t-37.5 -15t-37 15t-15 37q0 23 15 38.5t37 15.5zM182 898q22 0 37.5 -15.5t15.5 -38.5q0 -22 -15.5 -37t-37.5 -15t-37 15t-15 37q0 23 15 38.5t37 15.5z
" />
    <glyph glyph-name="Igrave" unicode="&#xcc;" horiz-adv-x="261" 
d="M84 690h93v-690h-93v690zM213 805l-38 -57l-191 125l46 67z" />
    <glyph glyph-name="Iacute" unicode="&#xcd;" horiz-adv-x="261" 
d="M84 690h93v-690h-93v690zM80 748l-38 57l183 135l46 -67z" />
    <glyph glyph-name="Icircumflex" unicode="&#xce;" horiz-adv-x="261" 
d="M84 690h93v-690h-93v690zM-18 814l150 102l149 -101l-37 -58l-113 69l-113 -70z" />
    <glyph glyph-name="Idieresis" unicode="&#xcf;" horiz-adv-x="261" 
d="M84 690h93v-690h-93v690zM225 898q23 0 38 -15.5t15 -38.5q0 -22 -15.5 -37t-37.5 -15t-37 15t-15 37q0 23 15 38.5t37 15.5zM36 898q22 0 37.5 -15.5t15.5 -38.5q0 -22 -15.5 -37t-37.5 -15t-37 15t-15 37q0 23 15 38.5t37 15.5z" />
    <glyph glyph-name="Eth" unicode="&#xd0;" horiz-adv-x="665" 
d="M96 690h236q137 0 204 -69q41 -43 56.5 -109.5t15.5 -163.5q0 -187 -69 -268q-68 -80 -206 -80h-237v313h-70v84h70v293zM189 608v-211h138v-84h-138v-232h141q105 0 143 58q36 54 36 206q0 167 -41 217q-37 46 -137 46h-142z" />
    <glyph glyph-name="Ntilde" unicode="&#xd1;" horiz-adv-x="699" 
d="M84 690h124l318 -566l-3 566h92v-690h-124l-318 565l2 -565h-91v690zM488 913l42 -49q-50 -62 -107 -62q-26 0 -66.5 16.5t-56.5 16.5q-33 0 -60 -35l-42 48q49 63 107 63q26 0 66.5 -16.5t56.5 -16.5q33 0 60 35z" />
    <glyph glyph-name="Ograve" unicode="&#xd2;" horiz-adv-x="682" 
d="M624 352q0 -199 -80 -287q-72 -79 -208 -79t-205 76q-73 80 -73 275q0 201 79 288q72 79 209 79q136 0 205 -76q73 -82 73 -276zM524 349q0 176 -50 230q-42 45 -130 45q-92 0 -135 -49q-51 -57 -51 -236q0 -177 49 -229q41 -44 129 -44q91 0 136 48q28 31 40 85t12 150z
M423 805l-38 -57l-191 125l46 67z" />
    <glyph glyph-name="Oacute" unicode="&#xd3;" horiz-adv-x="682" 
d="M624 352q0 -199 -80 -287q-72 -79 -208 -79t-205 76q-73 80 -73 275q0 201 79 288q72 79 209 79q136 0 205 -76q73 -82 73 -276zM524 349q0 176 -50 230q-42 45 -130 45q-92 0 -135 -49q-51 -57 -51 -236q0 -177 49 -229q41 -44 129 -44q91 0 136 48q28 31 40 85t12 150z
M290 748l-38 57l183 135l46 -67z" />
    <glyph glyph-name="Ocircumflex" unicode="&#xd4;" horiz-adv-x="682" 
d="M624 352q0 -199 -80 -287q-72 -79 -208 -79t-205 76q-73 80 -73 275q0 201 79 288q72 79 209 79q136 0 205 -76q73 -82 73 -276zM524 349q0 176 -50 230q-42 45 -130 45q-92 0 -135 -49q-51 -57 -51 -236q0 -177 49 -229q41 -44 129 -44q91 0 136 48q28 31 40 85t12 150z
M192 814l150 102l149 -101l-37 -58l-113 69l-113 -70z" />
    <glyph glyph-name="Otilde" unicode="&#xd5;" horiz-adv-x="682" 
d="M624 352q0 -199 -80 -287q-72 -79 -208 -79t-205 76q-73 80 -73 275q0 201 79 288q72 79 209 79q136 0 205 -76q73 -82 73 -276zM524 349q0 176 -50 230q-42 45 -130 45q-92 0 -135 -49q-51 -57 -51 -236q0 -177 49 -229q41 -44 129 -44q91 0 136 48q28 31 40 85t12 150z
M465 913l42 -49q-50 -62 -107 -62q-26 0 -66.5 16.5t-56.5 16.5q-33 0 -60 -35l-42 48q49 63 107 63q26 0 66.5 -16.5t56.5 -16.5q33 0 60 35z" />
    <glyph glyph-name="Odieresis" unicode="&#xd6;" horiz-adv-x="682" 
d="M624 352q0 -199 -80 -287q-72 -79 -208 -79t-205 76q-73 80 -73 275q0 201 79 288q72 79 209 79q136 0 205 -76q73 -82 73 -276zM524 349q0 176 -50 230q-42 45 -130 45q-92 0 -135 -49q-51 -57 -51 -236q0 -177 49 -229q41 -44 129 -44q91 0 136 48q28 31 40 85t12 150z
M435 898q23 0 38 -15.5t15 -38.5q0 -22 -15.5 -37t-37.5 -15t-37 15t-15 37q0 23 15 38.5t37 15.5zM246 898q22 0 37.5 -15.5t15.5 -38.5q0 -22 -15.5 -37t-37.5 -15t-37 15t-15 37q0 23 15 38.5t37 15.5z" />
    <glyph glyph-name="multiply" unicode="&#xd7;" horiz-adv-x="595" 
d="M447 64l-150 147l-149 -148l-56 57l149 147l-149 147l56 56l149 -148l149 148l56 -56l-149 -147l149 -147z" />
    <glyph glyph-name="Oslash" unicode="&#xd8;" horiz-adv-x="685" 
d="M623 354q0 -203 -81 -290q-71 -78 -208 -78q-98 0 -162 40l-66 -96l-68 47l74 108q-54 81 -54 251q0 198 74 284q72 84 214 84q98 0 162 -40l66 96l68 -48l-74 -107q55 -80 55 -251zM525 351q0 106 -17 166l-288 -421q40 -32 115 -32q108 0 150 66q40 61 40 221zM155 339
q0 -107 17 -166l288 421q-40 32 -115 32q-106 0 -149 -64q-41 -62 -41 -223z" />
    <glyph glyph-name="Ugrave" unicode="&#xd9;" horiz-adv-x="672" 
d="M84 690h93v-449q0 -46 4.5 -72.5t19.5 -52t48 -36.5t87 -11q53 0 85.5 10.5t48.5 35.5t21 53t5 76v446h92v-443q0 -122 -47 -179q-64 -79 -209 -79q-138 0 -199 73q-49 58 -49 180v448zM418 805l-38 -57l-191 125l46 67z" />
    <glyph glyph-name="Uacute" unicode="&#xda;" horiz-adv-x="672" 
d="M84 690h93v-449q0 -46 4.5 -72.5t19.5 -52t48 -36.5t87 -11q53 0 85.5 10.5t48.5 35.5t21 53t5 76v446h92v-443q0 -122 -47 -179q-64 -79 -209 -79q-138 0 -199 73q-49 58 -49 180v448zM285 748l-38 57l183 135l46 -67z" />
    <glyph glyph-name="Ucircumflex" unicode="&#xdb;" horiz-adv-x="672" 
d="M84 690h93v-449q0 -46 4.5 -72.5t19.5 -52t48 -36.5t87 -11q53 0 85.5 10.5t48.5 35.5t21 53t5 76v446h92v-443q0 -122 -47 -179q-64 -79 -209 -79q-138 0 -199 73q-49 58 -49 180v448zM187 814l150 102l149 -101l-37 -58l-113 69l-113 -70z" />
    <glyph glyph-name="Udieresis" unicode="&#xdc;" horiz-adv-x="672" 
d="M84 690h93v-449q0 -46 4.5 -72.5t19.5 -52t48 -36.5t87 -11q53 0 85.5 10.5t48.5 35.5t21 53t5 76v446h92v-443q0 -122 -47 -179q-64 -79 -209 -79q-138 0 -199 73q-49 58 -49 180v448zM430 898q23 0 38 -15.5t15 -38.5q0 -22 -15.5 -37t-37.5 -15t-37 15t-15 37
q0 23 15 38.5t37 15.5zM241 898q22 0 37.5 -15.5t15.5 -38.5q0 -22 -15.5 -37t-37.5 -15t-37 15t-15 37q0 23 15 38.5t37 15.5z" />
    <glyph glyph-name="Yacute" unicode="&#xdd;" horiz-adv-x="534" 
d="M4 690h107l155 -324l158 324h106l-219 -419v-271h-93v271zM216 748l-38 57l183 135l46 -67z" />
    <glyph glyph-name="Thorn" unicode="&#xde;" horiz-adv-x="585" 
d="M177 554h136q85 0 136 -32q78 -48 78 -180q0 -138 -82 -189q-52 -31 -134 -31h-134v-122h-93v690h93v-136zM177 472v-268h137q63 0 88 26q28 29 28 109q0 85 -33 113q-25 20 -89 20h-131z" />
    <glyph glyph-name="germandbls" unicode="&#xdf;" horiz-adv-x="584" 
d="M82 0v485q0 34 4 65.5t17.5 71t35.5 67.5t63 47.5t96 19.5q99 0 151 -64q47 -59 47 -163q0 -46 -5 -84q-36 0 -56 -0.5t-43.5 -4t-35 -10.5t-19.5 -20t-8 -32q0 -29 22.5 -47t55 -30t64.5 -28t54.5 -49.5t22.5 -85.5q0 -71 -54 -112q-50 -37 -123 -37q-98 0 -151 53
l41 65q47 -43 122 -43q41 0 58.5 16t17.5 51q0 31 -22.5 51.5t-54.5 33t-64.5 28t-55 47t-22.5 79.5q0 57 39 95q47 43 123 49q3 14 3 39q0 64 -25 95q-22 28 -76 28q-43 0 -70.5 -14t-40.5 -42t-17 -56.5t-4 -70.5v-493h-90z" />
    <glyph glyph-name="agrave" unicode="&#xe0;" horiz-adv-x="503" 
d="M106 383l-49 56q63 70 181 70q95 0 141.5 -43t46.5 -139v-327h-83l-1 83q-23 -46 -65.5 -70t-93.5 -24q-69 0 -107 38q-40 37 -40 107q0 80 57 120q59 41 173 41h72v25q0 64 -22.5 89t-80.5 25q-79 0 -129 -51zM339 227h-82q-67 0 -98 -18t-31 -71q0 -75 68 -75
q54 0 97.5 42t45.5 122zM331 604l-54 -47l-154 171l62 52z" />
    <glyph glyph-name="aacute" unicode="&#xe1;" horiz-adv-x="503" 
d="M106 383l-49 56q63 70 181 70q95 0 141.5 -43t46.5 -139v-327h-83l-1 83q-23 -46 -65.5 -70t-93.5 -24q-69 0 -107 38q-40 37 -40 107q0 80 57 120q59 41 173 41h72v25q0 64 -22.5 89t-80.5 25q-79 0 -129 -51zM339 227h-82q-67 0 -98 -18t-31 -71q0 -75 68 -75
q54 0 97.5 42t45.5 122zM213 557l-54 47l146 176l61 -52z" />
    <glyph glyph-name="acircumflex" unicode="&#xe2;" horiz-adv-x="503" 
d="M106 383l-49 56q63 70 181 70q95 0 141.5 -43t46.5 -139v-327h-83l-1 83q-23 -46 -65.5 -70t-93.5 -24q-69 0 -107 38q-40 37 -40 107q0 80 57 120q59 41 173 41h72v25q0 64 -22.5 89t-80.5 25q-79 0 -129 -51zM339 227h-82q-67 0 -98 -18t-31 -71q0 -75 68 -75
q54 0 97.5 42t45.5 122zM108 615l140 148l139 -147l-49 -48l-91 95l-92 -96z" />
    <glyph glyph-name="atilde" unicode="&#xe3;" horiz-adv-x="503" 
d="M106 383l-49 56q63 70 181 70q95 0 141.5 -43t46.5 -139v-327h-83l-1 83q-23 -46 -65.5 -70t-93.5 -24q-69 0 -107 38q-40 37 -40 107q0 80 57 120q59 41 173 41h72v25q0 64 -22.5 89t-80.5 25q-79 0 -129 -51zM339 227h-82q-67 0 -98 -18t-31 -71q0 -75 68 -75
q54 0 97.5 42t45.5 122zM371 722l42 -49q-50 -62 -107 -62q-26 0 -66.5 16.5t-56.5 16.5q-33 0 -60 -35l-42 48q49 63 107 63q26 0 66.5 -16.5t56.5 -16.5q33 0 60 35z" />
    <glyph glyph-name="adieresis" unicode="&#xe4;" horiz-adv-x="503" 
d="M106 383l-49 56q63 70 181 70q95 0 141.5 -43t46.5 -139v-327h-83l-1 83q-23 -46 -65.5 -70t-93.5 -24q-69 0 -107 38q-40 37 -40 107q0 80 57 120q59 41 173 41h72v25q0 64 -22.5 89t-80.5 25q-79 0 -129 -51zM339 227h-82q-67 0 -98 -18t-31 -71q0 -75 68 -75
q54 0 97.5 42t45.5 122zM341 707q23 0 38 -15.5t15 -38.5q0 -22 -15.5 -37t-37.5 -15t-37 15t-15 37q0 23 15 38.5t37 15.5zM152 707q22 0 37.5 -15.5t15.5 -38.5q0 -22 -15.5 -37t-37.5 -15t-37 15t-15 37q0 23 15 38.5t37 15.5z" />
    <glyph glyph-name="aring" unicode="&#xe5;" horiz-adv-x="503" 
d="M106 383l-49 56q63 70 181 70q95 0 141.5 -43t46.5 -139v-327h-83l-1 83q-23 -46 -65.5 -70t-93.5 -24q-69 0 -107 38q-40 37 -40 107q0 80 57 120q59 41 173 41h72v25q0 64 -22.5 89t-80.5 25q-79 0 -129 -51zM339 227h-82q-67 0 -98 -18t-31 -71q0 -75 68 -75
q54 0 97.5 42t45.5 122zM364 685q0 -48 -33 -78.5t-84 -30.5t-84 30.5t-33 78.5t32.5 78.5t84.5 30.5q51 0 84 -30.5t33 -78.5zM296 685q0 24 -14 37.5t-35 13.5q-22 0 -35.5 -14t-13.5 -38t14 -37t35 -13t35 14t14 37z" />
    <glyph glyph-name="ae" unicode="&#xe6;" horiz-adv-x="813" 
d="M697 126l50 -58q-78 -78 -188 -78q-130 0 -181 108q-57 -109 -186 -109q-74 0 -115 38.5t-41 107.5q0 43 16.5 74t41 48t60 27t64.5 12.5t65 2.5h58v17q0 63 -23 90t-86 27q-81 0 -130 -46l-45 57q61 65 174 65q120 0 164 -87q55 89 166 89q94 0 141 -62.5t47 -163.5
q0 -29 -4 -53l-311 -2q-1 -82 23 -122.5t96 -40.5q80 0 144 59zM341 230h-63h-33t-29.5 -1.5t-29 -5t-22.5 -10t-19.5 -16.5t-10.5 -25t-5 -35q0 -37 17 -55.5t57 -18.5q71 0 105 51t33 116zM437 299h219q1 72 -20 104.5t-80 32.5q-62 0 -89 -35.5t-30 -101.5z" />
    <glyph glyph-name="ccedilla" unicode="&#xe7;" horiz-adv-x="489" 
d="M386 129l54 -55q-58 -76 -163 -84l-4 -38q69 -27 69 -83q0 -43 -29 -73t-80 -30q-68 0 -107 57l41 43q27 -38 61 -38q19 0 31.5 10.5t12.5 29.5q0 37 -67 54l7 72q-60 10 -99 55q-54 63 -54 194q0 142 60 207q54 59 156 59q101 0 157 -59l-51 -60q-43 39 -106 39
q-71 0 -95.5 -41.5t-24.5 -137.5q0 -95 22.5 -138.5t83.5 -43.5q74 0 125 61z" />
    <glyph glyph-name="egrave" unicode="&#xe8;" horiz-adv-x="537" 
d="M421 127l49 -56q-80 -81 -197 -81q-100 0 -153 53q-61 61 -61 192q0 145 59 211q58 65 160 65t149.5 -59t47.5 -155q0 -33 -3 -61l-320 -2q2 -86 25.5 -126.5t95.5 -40.5q86 0 148 60zM155 305l227 1q1 66 -21 98t-84 32q-64 0 -91 -33t-31 -98zM357 604l-54 -47
l-154 171l62 52z" />
    <glyph glyph-name="eacute" unicode="&#xe9;" horiz-adv-x="537" 
d="M421 127l49 -56q-80 -81 -197 -81q-100 0 -153 53q-61 61 -61 192q0 145 59 211q58 65 160 65t149.5 -59t47.5 -155q0 -33 -3 -61l-320 -2q2 -86 25.5 -126.5t95.5 -40.5q86 0 148 60zM155 305l227 1q1 66 -21 98t-84 32q-64 0 -91 -33t-31 -98zM239 557l-54 47l146 176
l61 -52z" />
    <glyph glyph-name="ecircumflex" unicode="&#xea;" horiz-adv-x="537" 
d="M421 127l49 -56q-80 -81 -197 -81q-100 0 -153 53q-61 61 -61 192q0 145 59 211q58 65 160 65t149.5 -59t47.5 -155q0 -33 -3 -61l-320 -2q2 -86 25.5 -126.5t95.5 -40.5q86 0 148 60zM155 305l227 1q1 66 -21 98t-84 32q-64 0 -91 -33t-31 -98zM134 615l140 148
l139 -147l-49 -48l-91 95l-92 -96z" />
    <glyph glyph-name="edieresis" unicode="&#xeb;" horiz-adv-x="537" 
d="M421 127l49 -56q-80 -81 -197 -81q-100 0 -153 53q-61 61 -61 192q0 145 59 211q58 65 160 65t149.5 -59t47.5 -155q0 -33 -3 -61l-320 -2q2 -86 25.5 -126.5t95.5 -40.5q86 0 148 60zM155 305l227 1q1 66 -21 98t-84 32q-64 0 -91 -33t-31 -98zM367 707q23 0 38 -15.5
t15 -38.5q0 -22 -15.5 -37t-37.5 -15t-37 15t-15 37q0 23 15 38.5t37 15.5zM178 707q22 0 37.5 -15.5t15.5 -38.5q0 -22 -15.5 -37t-37.5 -15t-37 15t-15 37q0 23 15 38.5t37 15.5z" />
    <glyph glyph-name="igrave" unicode="&#xec;" horiz-adv-x="253" 
d="M82 499h90v-499h-90v499zM210 604l-54 -47l-154 171l62 52z" />
    <glyph glyph-name="iacute" unicode="&#xed;" horiz-adv-x="253" 
d="M82 499h90v-499h-90v499zM92 557l-54 47l146 176l61 -52z" />
    <glyph glyph-name="icircumflex" unicode="&#xee;" horiz-adv-x="253" 
d="M82 499h90v-499h-90v499zM-13 615l140 148l139 -147l-49 -48l-91 95l-92 -96z" />
    <glyph glyph-name="idieresis" unicode="&#xef;" horiz-adv-x="253" 
d="M82 499h90v-499h-90v499zM220 707q23 0 38 -15.5t15 -38.5q0 -22 -15.5 -37t-37.5 -15t-37 15t-15 37q0 23 15 38.5t37 15.5zM31 707q22 0 37.5 -15.5t15.5 -38.5q0 -22 -15.5 -37t-37.5 -15t-37 15t-15 37q0 23 15 38.5t37 15.5z" />
    <glyph glyph-name="eth" unicode="&#xf0;" horiz-adv-x="565" 
d="M230 572l76 54q-48 42 -140 86l38 72q109 -47 175 -107l78 55l40 -51l-73 -52q83 -105 83 -300q0 -340 -232 -340q-104 0 -160 64.5t-56 174.5q0 107 53 172.5t155 65.5q104 0 142 -63q-6 104 -58 175l-82 -58zM277 394q-68 0 -94 -38t-26 -123q0 -93 27.5 -130.5
t91.5 -37.5q74 0 103.5 43t29.5 121q0 85 -31.5 125t-100.5 40z" />
    <glyph glyph-name="ntilde" unicode="&#xf1;" 
d="M82 499h86l-1 -104q18 54 60.5 85t102.5 31q70 0 108 -44t38 -122v-345h-90v324q0 54 -15.5 79.5t-55.5 25.5q-63 0 -103 -63t-40 -189v-177h-90v499zM402 722l42 -49q-50 -62 -107 -62q-26 0 -66.5 16.5t-56.5 16.5q-33 0 -60 -35l-42 48q49 63 107 63q26 0 66.5 -16.5
t56.5 -16.5q33 0 60 35z" />
    <glyph glyph-name="ograve" unicode="&#xf2;" horiz-adv-x="555" 
d="M496 256q0 -71 -13 -117t-47 -84q-60 -65 -163 -65q-101 0 -158 60q-32 34 -44 79t-12 112q0 72 13 120.5t47 85.5q59 64 163 64q103 0 158 -60q56 -61 56 -195zM402 254q0 107 -35 148q-30 32 -88 32q-61 0 -90 -35q-36 -44 -36 -155q0 -104 35 -146q26 -31 86 -31
q63 0 92 35q36 44 36 152zM361 604l-54 -47l-154 171l62 52z" />
    <glyph glyph-name="oacute" unicode="&#xf3;" horiz-adv-x="555" 
d="M496 256q0 -71 -13 -117t-47 -84q-60 -65 -163 -65q-101 0 -158 60q-32 34 -44 79t-12 112q0 72 13 120.5t47 85.5q59 64 163 64q103 0 158 -60q56 -61 56 -195zM402 254q0 107 -35 148q-30 32 -88 32q-61 0 -90 -35q-36 -44 -36 -155q0 -104 35 -146q26 -31 86 -31
q63 0 92 35q36 44 36 152zM243 557l-54 47l146 176l61 -52z" />
    <glyph glyph-name="ocircumflex" unicode="&#xf4;" horiz-adv-x="555" 
d="M496 256q0 -71 -13 -117t-47 -84q-60 -65 -163 -65q-101 0 -158 60q-32 34 -44 79t-12 112q0 72 13 120.5t47 85.5q59 64 163 64q103 0 158 -60q56 -61 56 -195zM402 254q0 107 -35 148q-30 32 -88 32q-61 0 -90 -35q-36 -44 -36 -155q0 -104 35 -146q26 -31 86 -31
q63 0 92 35q36 44 36 152zM138 615l140 148l139 -147l-49 -48l-91 95l-92 -96z" />
    <glyph glyph-name="otilde" unicode="&#xf5;" horiz-adv-x="555" 
d="M496 256q0 -71 -13 -117t-47 -84q-60 -65 -163 -65q-101 0 -158 60q-32 34 -44 79t-12 112q0 72 13 120.5t47 85.5q59 64 163 64q103 0 158 -60q56 -61 56 -195zM402 254q0 107 -35 148q-30 32 -88 32q-61 0 -90 -35q-36 -44 -36 -155q0 -104 35 -146q26 -31 86 -31
q63 0 92 35q36 44 36 152zM401 722l42 -49q-50 -62 -107 -62q-26 0 -66.5 16.5t-56.5 16.5q-33 0 -60 -35l-42 48q49 63 107 63q26 0 66.5 -16.5t56.5 -16.5q33 0 60 35z" />
    <glyph glyph-name="odieresis" unicode="&#xf6;" horiz-adv-x="555" 
d="M496 256q0 -71 -13 -117t-47 -84q-60 -65 -163 -65q-101 0 -158 60q-32 34 -44 79t-12 112q0 72 13 120.5t47 85.5q59 64 163 64q103 0 158 -60q56 -61 56 -195zM402 254q0 107 -35 148q-30 32 -88 32q-61 0 -90 -35q-36 -44 -36 -155q0 -104 35 -146q26 -31 86 -31
q63 0 92 35q36 44 36 152zM371 707q23 0 38 -15.5t15 -38.5q0 -22 -15.5 -37t-37.5 -15t-37 15t-15 37q0 23 15 38.5t37 15.5zM182 707q22 0 37.5 -15.5t15.5 -38.5q0 -22 -15.5 -37t-37.5 -15t-37 15t-15 37q0 23 15 38.5t37 15.5z" />
    <glyph glyph-name="divide" unicode="&#xf7;" horiz-adv-x="595" 
d="M243 97q0 22 15.5 37.5t38.5 15.5t39 -15.5t16 -37.5q0 -23 -16 -38.5t-39 -15.5t-38.5 15.5t-15.5 38.5zM243 437q0 23 16 38.5t39 15.5t38.5 -15.5t15.5 -38.5t-15.5 -38.5t-38.5 -15.5t-39 15.5t-16 38.5zM523 225h-452v83h452v-83z" />
    <glyph glyph-name="oslash" unicode="&#xf8;" horiz-adv-x="560" 
d="M512 525l-56 -88q45 -60 45 -179q0 -139 -60 -205q-58 -65 -163 -65q-54 0 -98 18l-52 -81l-73 49l56 87q-46 60 -46 178q0 130 54 198q59 73 170 73q54 0 97 -18l53 82zM412 257q0 56 -10 95l-180 -281q21 -10 58 -10q69 0 99 43q33 46 33 153zM155 241q0 -61 9 -96
l181 282q-23 10 -57 10q-65 0 -96 -37q-37 -45 -37 -159z" />
    <glyph glyph-name="ugrave" unicode="&#xf9;" 
d="M471 0h-84v104q-17 -54 -59 -84.5t-102 -30.5q-70 0 -107 42.5t-37 122.5v345h90v-327q0 -104 72 -104q59 0 98.5 61.5t39.5 186.5v183h89v-499zM361 604l-54 -47l-154 171l62 52z" />
    <glyph glyph-name="uacute" unicode="&#xfa;" 
d="M471 0h-84v104q-17 -54 -59 -84.5t-102 -30.5q-70 0 -107 42.5t-37 122.5v345h90v-327q0 -104 72 -104q59 0 98.5 61.5t39.5 186.5v183h89v-499zM243 557l-54 47l146 176l61 -52z" />
    <glyph glyph-name="ucircumflex" unicode="&#xfb;" 
d="M471 0h-84v104q-17 -54 -59 -84.5t-102 -30.5q-70 0 -107 42.5t-37 122.5v345h90v-327q0 -104 72 -104q59 0 98.5 61.5t39.5 186.5v183h89v-499zM138 615l140 148l139 -147l-49 -48l-91 95l-92 -96z" />
    <glyph glyph-name="udieresis" unicode="&#xfc;" 
d="M471 0h-84v104q-17 -54 -59 -84.5t-102 -30.5q-70 0 -107 42.5t-37 122.5v345h90v-327q0 -104 72 -104q59 0 98.5 61.5t39.5 186.5v183h89v-499zM371 707q23 0 38 -15.5t15 -38.5q0 -22 -15.5 -37t-37.5 -15t-37 15t-15 37q0 23 15 38.5t37 15.5zM182 707
q22 0 37.5 -15.5t15.5 -38.5q0 -22 -15.5 -37t-37.5 -15t-37 15t-15 37q0 23 15 38.5t37 15.5z" />
    <glyph glyph-name="yacute" unicode="&#xfd;" horiz-adv-x="500" 
d="M479 499l-145 -470q-41 -135 -93 -202.5t-133 -67.5q-47 0 -72 18l31 75q20 -10 44 -10q44 0 72.5 37.5t55.5 124.5h-53l-164 495h96l140 -450l126 450h95zM216 557l-54 47l146 176l61 -52z" />
    <glyph glyph-name="thorn" unicode="&#xfe;" horiz-adv-x="567" 
d="M82 765h90v-348q24 44 68.5 69t94.5 25q70 0 114 -47q59 -63 59 -206q0 -156 -71 -222q-51 -46 -129 -46q-91 0 -136 60v-290h-90v1005zM318 431q-62 0 -102 -51q-47 -59 -47 -157q0 -80 31 -116q33 -39 98 -39q62 0 88 43t26 143q0 94 -21.5 135.5t-72.5 41.5z" />
    <glyph glyph-name="ydieresis" unicode="&#xff;" horiz-adv-x="500" 
d="M479 499l-145 -470q-41 -135 -93 -202.5t-133 -67.5q-47 0 -72 18l31 75q20 -10 44 -10q44 0 72.5 37.5t55.5 124.5h-53l-164 495h96l140 -450l126 450h95zM344 707q23 0 38 -15.5t15 -38.5q0 -22 -15.5 -37t-37.5 -15t-37 15t-15 37q0 23 15 38.5t37 15.5zM155 707
q22 0 37.5 -15.5t15.5 -38.5q0 -22 -15.5 -37t-37.5 -15t-37 15t-15 37q0 23 15 38.5t37 15.5z" />
    <glyph glyph-name="Amacron" unicode="&#x100;" horiz-adv-x="594" 
d="M589 0h-103l-56 172h-268l-58 -172h-99l235 690h117zM408 251l-111 342l-112 -342h223zM444 805h-294v76h294v-76z" />
    <glyph glyph-name="amacron" unicode="&#x101;" horiz-adv-x="503" 
d="M106 383l-49 56q63 70 181 70q95 0 141.5 -43t46.5 -139v-327h-83l-1 83q-23 -46 -65.5 -70t-93.5 -24q-69 0 -107 38q-40 37 -40 107q0 80 57 120q59 41 173 41h72v25q0 64 -22.5 89t-80.5 25q-79 0 -129 -51zM339 227h-82q-67 0 -98 -18t-31 -71q0 -75 68 -75
q54 0 97.5 42t45.5 122zM394 614h-294v76h294v-76z" />
    <glyph glyph-name="Abreve" unicode="&#x102;" horiz-adv-x="594" 
d="M589 0h-103l-56 172h-268l-58 -172h-99l235 690h117zM408 251l-111 342l-112 -342h223zM388 927h75q-5 -71 -50 -114.5t-115 -43.5t-116 43.5t-50 114.5h76q4 -42 28 -68t62 -26t61.5 25.5t28.5 68.5z" />
    <glyph glyph-name="abreve" unicode="&#x103;" horiz-adv-x="503" 
d="M106 383l-49 56q63 70 181 70q95 0 141.5 -43t46.5 -139v-327h-83l-1 83q-23 -46 -65.5 -70t-93.5 -24q-69 0 -107 38q-40 37 -40 107q0 80 57 120q59 41 173 41h72v25q0 64 -22.5 89t-80.5 25q-79 0 -129 -51zM339 227h-82q-67 0 -98 -18t-31 -71q0 -75 68 -75
q54 0 97.5 42t45.5 122zM338 736h75q-5 -71 -50 -114.5t-115 -43.5t-116 43.5t-50 114.5h76q4 -42 28 -68t62 -26t61.5 25.5t28.5 68.5z" />
    <glyph glyph-name="Aogonek" unicode="&#x104;" horiz-adv-x="591" 
d="M588 0q-78 -33 -113.5 -63.5t-35.5 -63.5q0 -42 46 -42q44 0 75 43l43 -45q-43 -60 -122 -60q-57 0 -87 26.5t-30 71.5q0 78 119 139l-54 166h-269l-57 -172h-99l235 690h117zM407 251l-111 342l-112 -342h223z" />
    <glyph glyph-name="aogonek" unicode="&#x105;" horiz-adv-x="505" 
d="M106 383l-49 56q62 70 180 70q96 0 142.5 -43t46.5 -139v-327q-69 -34 -98.5 -63.5t-29.5 -61.5q0 -46 47 -46q41 0 70 41l44 -45q-43 -58 -118 -58q-57 0 -86.5 27.5t-29.5 73.5q0 39 26 72.5t91 74.5v70q-23 -47 -65.5 -71.5t-93.5 -24.5q-67 0 -107 38q-40 37 -40 106
q0 93 73 131q57 31 161 31h68v25q0 65 -23 89.5t-82 24.5q-79 0 -127 -51zM338 227h-75q-70 0 -102.5 -17t-32.5 -72q0 -76 69 -76q50 0 94.5 44t46.5 121z" />
    <glyph glyph-name="Cacute" unicode="&#x106;" horiz-adv-x="582" 
d="M484 151l57 -56q-85 -107 -228 -107q-112 0 -174 64q-81 84 -81 287q0 207 80 291q67 72 192 72q131 0 201 -78l-54 -62q-60 59 -150 59q-91 0 -129 -53q-42 -58 -42 -225q0 -172 48 -230q37 -44 110 -44q99 0 170 82zM280 748l-38 57l183 135l46 -67z" />
    <glyph glyph-name="cacute" unicode="&#x107;" horiz-adv-x="489" 
d="M386 129l54 -55q-66 -84 -184 -84q-92 0 -143 59q-54 62 -54 193q0 145 60 210q54 59 155 59q102 0 158 -59l-51 -60q-43 39 -106 39q-71 0 -95.5 -42t-24.5 -138q0 -95 22.5 -139t82.5 -44q74 0 126 61zM228 557l-54 47l146 176l61 -52z" />
    <glyph glyph-name="Ccircumflex" unicode="&#x108;" horiz-adv-x="582" 
d="M484 151l57 -56q-85 -107 -228 -107q-112 0 -174 64q-81 84 -81 287q0 207 80 291q67 72 192 72q131 0 201 -78l-54 -62q-60 59 -150 59q-91 0 -129 -53q-42 -58 -42 -225q0 -172 48 -230q37 -44 110 -44q99 0 170 82zM182 814l150 102l149 -101l-37 -58l-113 69
l-113 -70z" />
    <glyph glyph-name="ccircumflex" unicode="&#x109;" horiz-adv-x="489" 
d="M386 129l54 -55q-66 -84 -184 -84q-92 0 -143 59q-54 62 -54 193q0 145 60 210q54 59 155 59q102 0 158 -59l-51 -60q-43 39 -106 39q-71 0 -95.5 -42t-24.5 -138q0 -95 22.5 -139t82.5 -44q74 0 126 61zM123 615l140 148l139 -147l-49 -48l-91 95l-92 -96z" />
    <glyph glyph-name="Cdotaccent" unicode="&#x10a;" horiz-adv-x="582" 
d="M484 151l57 -56q-85 -107 -228 -107q-112 0 -174 64q-81 84 -81 287q0 207 80 291q67 72 192 72q131 0 201 -78l-54 -62q-60 59 -150 59q-91 0 -129 -53q-42 -58 -42 -225q0 -172 48 -230q37 -44 110 -44q99 0 170 82zM277 843q0 23 15.5 39t37.5 16t38.5 -16t16.5 -39
q0 -22 -16 -37.5t-39 -15.5q-22 0 -37.5 15.5t-15.5 37.5z" />
    <glyph glyph-name="cdotaccent" unicode="&#x10b;" horiz-adv-x="489" 
d="M386 129l54 -55q-66 -84 -184 -84q-92 0 -143 59q-54 62 -54 193q0 145 60 210q54 59 155 59q102 0 158 -59l-51 -60q-43 39 -106 39q-71 0 -95.5 -42t-24.5 -138q0 -95 22.5 -139t82.5 -44q74 0 126 61zM208 652q0 23 15.5 39t37.5 16q23 0 39 -16.5t16 -38.5t-16 -37.5
t-39 -15.5q-22 0 -37.5 15.5t-15.5 37.5z" />
    <glyph glyph-name="Ccaron" unicode="&#x10c;" horiz-adv-x="582" 
d="M484 151l57 -56q-85 -107 -228 -107q-112 0 -174 64q-81 84 -81 287q0 207 80 291q67 72 192 72q131 0 201 -78l-54 -62q-60 59 -150 59q-91 0 -129 -53q-42 -58 -42 -225q0 -172 48 -230q37 -44 110 -44q99 0 170 82zM481 847l-151 -103l-148 102l36 58l113 -70l114 71z
" />
    <glyph glyph-name="ccaron" unicode="&#x10d;" horiz-adv-x="489" 
d="M386 129l54 -55q-66 -84 -184 -84q-92 0 -143 59q-54 62 -54 193q0 145 60 210q54 59 155 59q102 0 158 -59l-51 -60q-43 39 -106 39q-71 0 -95.5 -42t-24.5 -138q0 -95 22.5 -139t82.5 -44q74 0 126 61zM402 703l-141 -148l-138 147l48 49l91 -96l92 96z" />
    <glyph glyph-name="Dcaron" unicode="&#x10e;" horiz-adv-x="654" 
d="M84 690h234q135 0 201 -63q44 -41 60.5 -107.5t16.5 -171.5q0 -97 -16.5 -167t-63.5 -115q-68 -66 -195 -66h-237v690zM178 608v-526h138q90 0 133 46q49 52 49 215q0 169 -49 222q-42 43 -133 43h-138zM471 847l-151 -103l-148 102l36 58l113 -70l114 71z" />
    <glyph glyph-name="dcaron" unicode="&#x10f;" horiz-adv-x="567" 
d="M395 765h90v-765h-86v88q-25 -47 -70 -73t-98 -26q-69 0 -113 48q-59 65 -59 204q0 148 62 213q52 55 142 55q94 0 132 -61v317zM248 68q55 0 95 43q55 58 55 164q0 85 -39 124q-31 31 -87 31q-68 0 -92.5 -44t-24.5 -140q0 -92 21 -135t72 -43zM543 722q0 25 16.5 42.5
t42.5 17.5q27 0 43.5 -17.5t16.5 -44.5q0 -72 -80 -194l-58 33q40 75 50 111q-31 13 -31 52z" />
    <glyph glyph-name="Dcroat" unicode="&#x110;" horiz-adv-x="665" 
d="M96 690h236q137 0 204 -69q41 -43 56.5 -109t15.5 -162q0 -189 -69 -270q-68 -80 -206 -80h-237v313h-70v84h70v293zM189 608v-211h138v-84h-138v-232h141q105 0 143 58q36 54 36 206q0 167 -41 217q-37 46 -137 46h-142z" />
    <glyph glyph-name="dcroat" unicode="&#x111;" horiz-adv-x="567" 
d="M578 570h-93v-570h-86v88q-25 -47 -70 -73t-98 -26q-69 0 -113 48q-59 63 -59 204q0 147 61 212q53 56 143 56q94 0 132 -61v122h-112v82h112v113h90v-113h93v-82zM250 68q52 0 94 44q54 57 54 164q0 85 -40 124q-30 30 -86 30q-68 0 -92.5 -44t-24.5 -140
q0 -93 21 -135.5t74 -42.5z" />
    <glyph glyph-name="Emacron" unicode="&#x112;" horiz-adv-x="520" 
d="M84 690h376v-82h-283v-215h259v-82h-259v-229h287v-82h-380v690zM424 805h-294v76h294v-76z" />
    <glyph glyph-name="emacron" unicode="&#x113;" horiz-adv-x="537" 
d="M421 127l49 -56q-80 -81 -197 -81q-100 0 -153 53q-61 61 -61 192q0 145 59 211q58 65 160 65t149.5 -59t47.5 -155q0 -33 -3 -61l-320 -2q2 -86 25.5 -126.5t95.5 -40.5q86 0 148 60zM155 305l227 1q1 66 -21 98t-84 32q-64 0 -91 -33t-31 -98zM420 614h-294v76h294v-76
z" />
    <glyph glyph-name="Ebreve" unicode="&#x114;" horiz-adv-x="520" 
d="M84 690h376v-82h-283v-215h259v-82h-259v-229h287v-82h-380v690zM368 927h75q-5 -71 -50 -114.5t-115 -43.5t-116 43.5t-50 114.5h76q4 -42 28 -68t62 -26t61.5 25.5t28.5 68.5z" />
    <glyph glyph-name="ebreve" unicode="&#x115;" horiz-adv-x="537" 
d="M421 127l49 -56q-80 -81 -197 -81q-100 0 -153 53q-61 61 -61 192q0 145 59 211q58 65 160 65t149.5 -59t47.5 -155q0 -33 -3 -61l-320 -2q2 -86 25.5 -126.5t95.5 -40.5q86 0 148 60zM155 305l227 1q1 66 -21 98t-84 32q-64 0 -91 -33t-31 -98zM364 736h75
q-5 -71 -50 -114.5t-115 -43.5t-116 43.5t-50 114.5h76q4 -42 28 -68t62 -26t61.5 25.5t28.5 68.5z" />
    <glyph glyph-name="Edotaccent" unicode="&#x116;" horiz-adv-x="520" 
d="M84 690h376v-82h-283v-215h259v-82h-259v-229h287v-82h-380v690zM223 843q0 23 15.5 39t37.5 16t38.5 -16t16.5 -39q0 -22 -16 -37.5t-39 -15.5q-22 0 -37.5 15.5t-15.5 37.5z" />
    <glyph glyph-name="edotaccent" unicode="&#x117;" horiz-adv-x="537" 
d="M421 127l49 -56q-80 -81 -197 -81q-100 0 -153 53q-61 61 -61 192q0 145 59 211q58 65 160 65t149.5 -59t47.5 -155q0 -33 -3 -61l-320 -2q2 -86 25.5 -126.5t95.5 -40.5q86 0 148 60zM155 305l227 1q1 66 -21 98t-84 32q-64 0 -91 -33t-31 -98zM219 652q0 23 15.5 39
t37.5 16t38.5 -16.5t16.5 -38.5t-16 -37.5t-39 -15.5q-22 0 -37.5 15.5t-15.5 37.5z" />
    <glyph glyph-name="Eogonek" unicode="&#x118;" horiz-adv-x="520" 
d="M85 690h375v-82h-282v-215h258v-82h-258v-229h286v-82q-76 -20 -118 -56t-42 -72q0 -40 46 -40q45 0 75 42l43 -45q-44 -60 -122 -60q-55 0 -86 26.5t-31 69.5q0 83 113 135h-257v690z" />
    <glyph glyph-name="eogonek" unicode="&#x119;" horiz-adv-x="538" 
d="M408 -130l44 -45q-44 -58 -118 -58q-57 0 -86.5 27.5t-29.5 73.5q0 69 52 122q-112 0 -165 69q-47 62 -47 181q0 137 59 205q56 66 161 66q103 0 150 -60t47 -160q0 -30 -4 -55l-319 -2q1 -86 25 -126.5t96 -40.5q85 0 147 60l49 -56q-24 -24 -72 -56
q-59 -39 -82.5 -70.5t-23.5 -65.5q0 -50 46 -50q42 0 71 41zM155 305l227 1q0 67 -22 98.5t-84 31.5q-64 0 -91 -33.5t-30 -97.5z" />
    <glyph glyph-name="Ecaron" unicode="&#x11a;" horiz-adv-x="520" 
d="M84 690h376v-82h-283v-215h259v-82h-259v-229h287v-82h-380v690zM427 847l-151 -103l-148 102l36 58l113 -70l114 71z" />
    <glyph glyph-name="ecaron" unicode="&#x11b;" horiz-adv-x="537" 
d="M421 127l49 -56q-80 -81 -197 -81q-100 0 -153 53q-61 61 -61 192q0 145 59 211q58 65 160 65t149.5 -59t47.5 -155q0 -33 -3 -61l-320 -2q2 -86 25.5 -126.5t95.5 -40.5q86 0 148 60zM155 305l227 1q1 66 -21 98t-84 32q-64 0 -91 -33t-31 -98zM413 703l-141 -148
l-138 147l48 49l91 -96l92 96z" />
    <glyph glyph-name="Gcircumflex" unicode="&#x11c;" horiz-adv-x="648" 
d="M333 368h239v-340q-93 -38 -218 -38q-148 0 -218 70q-45 45 -61.5 111.5t-16.5 163.5q0 211 79 291q71 74 214 74q140 0 212 -71l-53 -68q-64 58 -170 58q-93 0 -136 -48q-25 -27 -36.5 -77t-11.5 -150q0 -107 12.5 -157.5t38.5 -76.5q44 -42 142 -42q78 0 134 17v201
h-150v82zM191 814l150 102l149 -101l-37 -58l-113 69l-113 -70z" />
    <glyph glyph-name="gcircumflex" unicode="&#x11d;" horiz-adv-x="567" 
d="M405 499h80v-515q0 -226 -230 -226q-119 0 -186 57l47 68q56 -45 145 -45q83 0 110 35.5t27 113.5v101q-23 -46 -66 -71t-97 -25q-84 0 -127 59q-49 63 -49 194q0 138 59 205q52 59 141 59q100 0 144 -75zM252 70q57 0 94 41q53 56 53 163q0 84 -41 124q-35 33 -89 33
q-65 0 -89.5 -46t-24.5 -141q0 -91 21.5 -132.5t75.5 -41.5zM144 615l140 148l139 -147l-49 -48l-91 95l-92 -96z" />
    <glyph glyph-name="Gbreve" unicode="&#x11e;" horiz-adv-x="648" 
d="M333 368h239v-340q-93 -38 -218 -38q-148 0 -218 70q-45 45 -61.5 111.5t-16.5 163.5q0 211 79 291q71 74 214 74q140 0 212 -71l-53 -68q-64 58 -170 58q-93 0 -136 -48q-25 -27 -36.5 -77t-11.5 -150q0 -107 12.5 -157.5t38.5 -76.5q44 -42 142 -42q78 0 134 17v201
h-150v82zM431 927h75q-5 -71 -50 -114.5t-115 -43.5t-116 43.5t-50 114.5h76q4 -42 28 -68t62 -26t61.5 25.5t28.5 68.5z" />
    <glyph glyph-name="gbreve" unicode="&#x11f;" horiz-adv-x="567" 
d="M405 499h80v-515q0 -226 -230 -226q-119 0 -186 57l47 68q56 -45 145 -45q83 0 110 35.5t27 113.5v101q-23 -46 -66 -71t-97 -25q-84 0 -127 59q-49 63 -49 194q0 138 59 205q52 59 141 59q100 0 144 -75zM252 70q57 0 94 41q53 56 53 163q0 84 -41 124q-35 33 -89 33
q-65 0 -89.5 -46t-24.5 -141q0 -91 21.5 -132.5t75.5 -41.5zM374 736h75q-5 -71 -50 -114.5t-115 -43.5t-116 43.5t-50 114.5h76q4 -42 28 -68t62 -26t61.5 25.5t28.5 68.5z" />
    <glyph glyph-name="Gdotaccent" unicode="&#x120;" horiz-adv-x="648" 
d="M333 368h239v-340q-93 -38 -218 -38q-148 0 -218 70q-45 45 -61.5 111.5t-16.5 163.5q0 211 79 291q71 74 214 74q140 0 212 -71l-53 -68q-64 58 -170 58q-93 0 -136 -48q-25 -27 -36.5 -77t-11.5 -150q0 -107 12.5 -157.5t38.5 -76.5q44 -42 142 -42q78 0 134 17v201
h-150v82zM286 843q0 23 15.5 39t37.5 16q23 0 39 -16t16 -39q0 -22 -16 -37.5t-39 -15.5q-22 0 -37.5 15.5t-15.5 37.5z" />
    <glyph glyph-name="gdotaccent" unicode="&#x121;" horiz-adv-x="567" 
d="M405 499h80v-515q0 -226 -230 -226q-119 0 -186 57l47 68q56 -45 145 -45q83 0 110 35.5t27 113.5v101q-23 -46 -66 -71t-97 -25q-84 0 -127 59q-49 63 -49 194q0 138 59 205q52 59 141 59q100 0 144 -75zM252 70q57 0 94 41q53 56 53 163q0 84 -41 124q-35 33 -89 33
q-65 0 -89.5 -46t-24.5 -141q0 -91 21.5 -132.5t75.5 -41.5zM229 652q0 23 15.5 39t37.5 16t38.5 -16.5t16.5 -38.5t-16 -37.5t-39 -15.5q-22 0 -37.5 15.5t-15.5 37.5z" />
    <glyph glyph-name="Gcommaaccent" unicode="&#x122;" horiz-adv-x="648" 
d="M333 368h239v-340q-93 -38 -218 -38q-148 0 -218 70q-45 45 -61.5 111.5t-16.5 163.5q0 211 79 291q71 74 214 74q140 0 212 -71l-53 -68q-64 58 -170 58q-93 0 -136 -48q-25 -27 -36.5 -77t-11.5 -150q0 -107 12.5 -157.5t38.5 -76.5q44 -42 142 -42q78 0 134 17v201
h-150v82zM292 -104q0 24 14.5 40t40.5 16t41 -16t15 -45q0 -61 -75 -177l-53 30q34 63 46 104q-29 11 -29 48z" />
    <glyph glyph-name="gcommaaccent" unicode="&#x123;" horiz-adv-x="567" 
d="M405 499h80v-515q0 -226 -230 -226q-119 0 -186 57l47 68q56 -45 145 -45q83 0 110 35.5t27 113.5v101q-23 -46 -66 -71t-97 -25q-84 0 -127 59q-49 63 -49 194q0 138 59 205q52 59 141 59q100 0 144 -75zM252 70q57 0 94 41q53 56 53 163q0 84 -41 124q-35 33 -89 33
q-65 0 -89.5 -46t-24.5 -141q0 -91 21.5 -132.5t75.5 -41.5zM335 627q0 -26 -16 -43t-43 -17t-43 17.5t-16 44.5q0 71 79 194l58 -33q-39 -74 -49 -111q30 -13 30 -52z" />
    <glyph glyph-name="Hcircumflex" unicode="&#x124;" horiz-adv-x="665" 
d="M84 690h93v-296h311v296h93v-690h-93v311h-311v-311h-93v690zM183 814l150 102l149 -101l-37 -58l-113 69l-113 -70z" />
    <glyph glyph-name="hcircumflex" unicode="&#x125;" 
d="M82 765h90v-362q16 47 58.5 77.5t100.5 30.5q68 0 106.5 -43.5t38.5 -122.5v-345h-90v329q0 51 -16 75.5t-54 24.5q-61 0 -102.5 -62t-41.5 -193v-174h-90v765zM185 615l140 148l139 -147l-49 -48l-91 95l-92 -96z" />
    <glyph glyph-name="Hbar" unicode="&#x126;" horiz-adv-x="698" 
d="M101 690h93v-123h310v123h93v-123h125v-75h-125v-492h-93v311h-310v-311h-93v492h-124v75h124v123zM194 394h310v98h-310v-98z" />
    <glyph glyph-name="Itilde" unicode="&#x128;" horiz-adv-x="261" 
d="M84 690h93v-690h-93v690zM255 913l42 -49q-50 -62 -107 -62q-26 0 -66.5 16.5t-56.5 16.5q-33 0 -60 -35l-42 48q49 63 107 63q26 0 66.5 -16.5t56.5 -16.5q33 0 60 35z" />
    <glyph glyph-name="itilde" unicode="&#x129;" horiz-adv-x="253" 
d="M82 499h90v-499h-90v499zM250 722l42 -49q-50 -62 -107 -62q-26 0 -66.5 16.5t-56.5 16.5q-33 0 -60 -35l-42 48q49 63 107 63q26 0 66.5 -16.5t56.5 -16.5q33 0 60 35z" />
    <glyph glyph-name="Imacron" unicode="&#x12a;" horiz-adv-x="261" 
d="M84 690h93v-690h-93v690zM278 805h-294v76h294v-76z" />
    <glyph glyph-name="imacron" unicode="&#x12b;" horiz-adv-x="253" 
d="M82 499h90v-499h-90v499zM273 614h-294v76h294v-76z" />
    <glyph glyph-name="Iogonek" unicode="&#x12e;" horiz-adv-x="263" 
d="M200 -125l44 -46q-45 -61 -118 -61q-59 0 -89.5 30t-30.5 79q0 72 79 131v682h93v-690q-96 -54 -96 -116q0 -52 48 -52q38 0 70 43z" />
    <glyph glyph-name="iogonek" unicode="&#x12f;" horiz-adv-x="252" 
d="M193 -125l44 -46q-45 -61 -118 -61q-59 0 -89.5 30t-30.5 79q0 72 82 134v488h90v-499q-96 -54 -96 -116q0 -52 48 -52q38 0 70 43zM69 667q0 25 16 41.5t41 16.5t41.5 -16.5t16.5 -41.5t-16.5 -42t-41.5 -17t-41 17t-16 42z" />
    <glyph glyph-name="Idotaccent" unicode="&#x130;" horiz-adv-x="261" 
d="M84 690h93v-690h-93v690zM77 843q0 23 15.5 39t37.5 16t38.5 -16t16.5 -39q0 -22 -16 -37.5t-39 -15.5q-22 0 -37.5 15.5t-15.5 37.5z" />
    <glyph glyph-name="dotlessi" unicode="&#x131;" horiz-adv-x="253" 
d="M82 499h90v-499h-90v499z" />
    <glyph glyph-name="Kcommaaccent" unicode="&#x136;" horiz-adv-x="610" 
d="M84 690h93v-292h68l228 292h110l-260 -335l278 -355h-115l-243 310h-66v-310h-93v690zM249 -104q0 24 14.5 40t40.5 16t41 -16t15 -45q0 -61 -75 -177l-53 30q34 63 46 104q-29 11 -29 48z" />
    <glyph glyph-name="kcommaaccent" unicode="&#x137;" horiz-adv-x="509" 
d="M82 765h90v-465h43l149 199h109l-187 -239l206 -260h-117l-161 214h-42v-214h-90v765zM201 -104q0 24 14.5 40t40.5 16t41 -16t15 -45q0 -61 -75 -177l-53 30q34 63 46 104q-29 11 -29 48z" />
    <glyph glyph-name="Lacute" unicode="&#x139;" horiz-adv-x="494" 
d="M84 690h93v-607h289v-83h-382v690zM130 706l-54 47l146 176l61 -52z" />
    <glyph glyph-name="lacute" unicode="&#x13a;" horiz-adv-x="254" 
d="M82 765h90v-765h-90v765zM107 770l-54 47l146 176l61 -52z" />
    <glyph glyph-name="Lcommaaccent" unicode="&#x13b;" horiz-adv-x="494" 
d="M84 690h93v-607h289v-83h-382v690zM232 -104q0 24 14.5 40t40.5 16t41 -16t15 -45q0 -61 -75 -177l-53 30q34 63 46 104q-29 11 -29 48z" />
    <glyph glyph-name="lcommaaccent" unicode="&#x13c;" horiz-adv-x="254" 
d="M82 765h90v-765h-90v765zM75 -104q0 24 14.5 40t40.5 16t41 -16t15 -45q0 -61 -75 -177l-53 30q34 63 46 104q-29 11 -29 48z" />
    <glyph glyph-name="Lcaron" unicode="&#x13d;" horiz-adv-x="494" 
d="M84 690h93v-607h289v-83h-382v690zM243 639q0 25 16.5 42.5t42.5 17.5q27 0 43.5 -17.5t16.5 -44.5q0 -71 -80 -194l-58 33q40 75 50 111q-31 13 -31 52z" />
    <glyph glyph-name="lcaron" unicode="&#x13e;" horiz-adv-x="254" 
d="M82 765h90v-765h-90v765zM236 722q0 25 16.5 42.5t42.5 17.5q27 0 43.5 -17.5t16.5 -44.5q0 -72 -80 -194l-58 33q40 75 50 111q-31 13 -31 52z" />
    <glyph glyph-name="Lslash" unicode="&#x141;" horiz-adv-x="502" 
d="M93 690h93v-264l64 35l39 -73l-103 -56v-250h289v-82h-382v282l-46 -25l-39 72l85 46v315z" />
    <glyph glyph-name="lslash" unicode="&#x142;" horiz-adv-x="287" 
d="M93 765h90v-334l67 36l40 -72l-107 -57v-338h-90v289l-49 -26l-39 72l88 47v383z" />
    <glyph glyph-name="Nacute" unicode="&#x143;" horiz-adv-x="699" 
d="M84 690h124l318 -566l-3 566h92v-690h-124l-318 565l2 -565h-91v690zM313 748l-38 57l183 135l46 -67z" />
    <glyph glyph-name="nacute" unicode="&#x144;" 
d="M82 499h86l-1 -104q18 54 60.5 85t102.5 31q70 0 108 -44t38 -122v-345h-90v324q0 54 -15.5 79.5t-55.5 25.5q-63 0 -103 -63t-40 -189v-177h-90v499zM244 557l-54 47l146 176l61 -52z" />
    <glyph glyph-name="Ncommaaccent" unicode="&#x145;" horiz-adv-x="699" 
d="M84 690h124l318 -566l-3 566h92v-690h-124l-318 565l2 -565h-91v690zM291 -104q0 24 14.5 40t40.5 16t41 -16t15 -45q0 -61 -75 -177l-53 30q34 63 46 104q-29 11 -29 48z" />
    <glyph glyph-name="ncommaaccent" unicode="&#x146;" 
d="M82 499h86l-1 -104q18 54 60.5 85t102.5 31q70 0 108 -44t38 -122v-345h-90v324q0 54 -15.5 79.5t-55.5 25.5q-63 0 -103 -63t-40 -189v-177h-90v499zM232 -104q0 24 14.5 40t40.5 16t41 -16t15 -45q0 -61 -75 -177l-53 30q34 63 46 104q-29 11 -29 48z" />
    <glyph glyph-name="Ncaron" unicode="&#x147;" horiz-adv-x="699" 
d="M84 690h124l318 -566l-3 566h92v-690h-124l-318 565l2 -565h-91v690zM514 847l-151 -103l-148 102l36 58l113 -70l114 71z" />
    <glyph glyph-name="ncaron" unicode="&#x148;" 
d="M82 499h86l-1 -104q18 54 60.5 85t102.5 31q70 0 108 -44t38 -122v-345h-90v324q0 54 -15.5 79.5t-55.5 25.5q-63 0 -103 -63t-40 -189v-177h-90v499zM418 703l-141 -148l-138 147l48 49l91 -96l92 96z" />
    <glyph glyph-name="Omacron" unicode="&#x14c;" horiz-adv-x="682" 
d="M624 352q0 -199 -80 -287q-72 -79 -208 -79t-205 76q-73 80 -73 275q0 201 79 288q72 79 209 79q136 0 205 -76q73 -82 73 -276zM524 349q0 176 -50 230q-42 45 -130 45q-92 0 -135 -49q-51 -57 -51 -236q0 -177 49 -229q41 -44 129 -44q91 0 136 48q28 31 40 85t12 150z
M488 805h-294v76h294v-76z" />
    <glyph glyph-name="omacron" unicode="&#x14d;" horiz-adv-x="555" 
d="M496 256q0 -71 -13 -117t-47 -84q-60 -65 -163 -65q-101 0 -158 60q-32 34 -44 79t-12 112q0 72 13 120.5t47 85.5q59 64 163 64q103 0 158 -60q56 -61 56 -195zM402 254q0 107 -35 148q-30 32 -88 32q-61 0 -90 -35q-36 -44 -36 -155q0 -104 35 -146q26 -31 86 -31
q63 0 92 35q36 44 36 152zM424 614h-294v76h294v-76z" />
    <glyph glyph-name="Obreve" unicode="&#x14e;" horiz-adv-x="682" 
d="M624 352q0 -199 -80 -287q-72 -79 -208 -79t-205 76q-73 80 -73 275q0 201 79 288q72 79 209 79q136 0 205 -76q73 -82 73 -276zM524 349q0 176 -50 230q-42 45 -130 45q-92 0 -135 -49q-51 -57 -51 -236q0 -177 49 -229q41 -44 129 -44q91 0 136 48q28 31 40 85t12 150z
M432 927h75q-5 -71 -50 -114.5t-115 -43.5t-116 43.5t-50 114.5h76q4 -42 28 -68t62 -26t61.5 25.5t28.5 68.5z" />
    <glyph glyph-name="obreve" unicode="&#x14f;" horiz-adv-x="555" 
d="M496 256q0 -71 -13 -117t-47 -84q-60 -65 -163 -65q-101 0 -158 60q-32 34 -44 79t-12 112q0 72 13 120.5t47 85.5q59 64 163 64q103 0 158 -60q56 -61 56 -195zM402 254q0 107 -35 148q-30 32 -88 32q-61 0 -90 -35q-36 -44 -36 -155q0 -104 35 -146q26 -31 86 -31
q63 0 92 35q36 44 36 152zM368 736h75q-5 -71 -50 -114.5t-115 -43.5t-116 43.5t-50 114.5h76q4 -42 28 -68t62 -26t61.5 25.5t28.5 68.5z" />
    <glyph glyph-name="Ohungarumlaut" unicode="&#x150;" horiz-adv-x="682" 
d="M624 352q0 -199 -80 -287q-72 -79 -208 -79t-205 76q-73 80 -73 275q0 201 79 288q72 79 209 79q136 0 205 -76q73 -82 73 -276zM524 349q0 176 -50 230q-42 45 -130 45q-92 0 -135 -49q-51 -57 -51 -236q0 -177 49 -229q41 -44 129 -44q91 0 136 48q28 31 40 85t12 150z
M233 748l-41 46l167 147l48 -53zM428 748l-42 46l167 147l49 -53z" />
    <glyph glyph-name="ohungarumlaut" unicode="&#x151;" horiz-adv-x="555" 
d="M496 256q0 -71 -13 -117t-47 -84q-60 -65 -163 -65q-101 0 -158 60q-32 34 -44 79t-12 112q0 72 13 120.5t47 85.5q59 64 163 64q103 0 158 -60q56 -61 56 -195zM402 254q0 107 -35 148q-30 32 -88 32q-61 0 -90 -35q-36 -44 -36 -155q0 -104 35 -146q26 -31 86 -31
q63 0 92 35q36 44 36 152zM177 557l-49 43l143 173l56 -48zM367 557l-48 43l142 173l56 -48z" />
    <glyph glyph-name="OE" unicode="&#x152;" horiz-adv-x="951" 
d="M890 690v-82h-328q55 -59 57 -215h246v-82h-246q0 -80 -12 -136.5t-49 -93.5h336v-81h-438q-17 0 -54.5 -2t-58.5 -2q-160 0 -230 98q-55 77 -55 244q0 177 60 257q73 99 230 99q18 0 59.5 -2t57.5 -2h425zM521 345q0 47 -1 73.5t-4 60t-10 50.5t-19.5 36t-31 27.5
t-45.5 14.5t-63 6q-39 0 -68 -6.5t-49 -16t-33.5 -29.5t-21 -38t-11 -50.5t-4.5 -57.5t-1 -69q0 -46 1 -72.5t4.5 -59.5t10.5 -50.5t20 -36.5t32 -28t46.5 -15t64.5 -6q38 0 66.5 6.5t48 15.5t32.5 29t20.5 37.5t11 50.5t4 58t0.5 70z" />
    <glyph glyph-name="oe" unicode="&#x153;" horiz-adv-x="884" 
d="M765 127l51 -54q-78 -83 -196 -83q-124 0 -172 92q-57 -93 -177 -93q-103 0 -159 68q-53 62 -53 183q0 127 59 199q61 72 165 72q119 0 171 -92q51 92 168 92q101 0 149 -62t48 -164q0 -11 -1.5 -29t-1.5 -21l-318 -2q-1 -89 21.5 -127.5t93.5 -38.5q94 0 152 60z
M404 257q0 91 -24.5 133t-97.5 42q-77 0 -102.5 -47t-25.5 -146q0 -89 23 -130.5t96 -41.5q78 0 104.5 48t26.5 142zM500 304h226q1 72 -20 102.5t-84 30.5q-64 0 -90.5 -32t-31.5 -101z" />
    <glyph glyph-name="Racute" unicode="&#x154;" horiz-adv-x="590" 
d="M84 690h234q94 0 147 -34q67 -44 67 -146q0 -158 -144 -189q27 -7 47.5 -24.5t35 -41t27.5 -66t21.5 -82t21.5 -107.5h-99q-35 170 -62.5 225.5t-91.5 55.5h-111v-281h-93v690zM177 609v-247h89q84 0 126 29.5t42 106.5q0 64 -27 89q-23 22 -90 22h-140zM247 748l-38 57
l183 135l46 -67z" />
    <glyph glyph-name="racute" unicode="&#x155;" horiz-adv-x="392" 
d="M82 499h86l-1 -99q41 111 139 111q34 0 60 -14l-25 -84q-14 9 -43 9q-62 0 -94 -66.5t-32 -163.5v-192h-90v499zM167 557l-54 47l146 176l61 -52z" />
    <glyph glyph-name="Rcommaaccent" unicode="&#x156;" horiz-adv-x="590" 
d="M84 690h234q94 0 147 -34q67 -44 67 -146q0 -158 -144 -189q27 -7 47.5 -24.5t35 -41t27.5 -66t21.5 -82t21.5 -107.5h-99q-35 170 -62.5 225.5t-91.5 55.5h-111v-281h-93v690zM177 609v-247h89q84 0 126 29.5t42 106.5q0 64 -27 89q-23 22 -90 22h-140zM249 -104
q0 24 14.5 40t40.5 16t41 -16t15 -45q0 -61 -75 -177l-53 30q34 63 46 104q-29 11 -29 48z" />
    <glyph glyph-name="rcommaaccent" unicode="&#x157;" horiz-adv-x="392" 
d="M82 499h86l-1 -99q41 111 139 111q34 0 60 -14l-25 -84q-14 9 -43 9q-62 0 -94 -66.5t-32 -163.5v-192h-90v499zM108 -104q0 24 14.5 40t40.5 16t41 -16t15 -45q0 -61 -75 -177l-53 30q34 63 46 104q-29 11 -29 48z" />
    <glyph glyph-name="Rcaron" unicode="&#x158;" horiz-adv-x="590" 
d="M84 690h234q94 0 147 -34q67 -44 67 -146q0 -158 -144 -189q27 -7 47.5 -24.5t35 -41t27.5 -66t21.5 -82t21.5 -107.5h-99q-35 170 -62.5 225.5t-91.5 55.5h-111v-281h-93v690zM177 609v-247h89q84 0 126 29.5t42 106.5q0 64 -27 89q-23 22 -90 22h-140zM448 847
l-151 -103l-148 102l36 58l113 -70l114 71z" />
    <glyph glyph-name="rcaron" unicode="&#x159;" horiz-adv-x="392" 
d="M82 499h86l-1 -99q41 111 139 111q34 0 60 -14l-25 -84q-14 9 -43 9q-62 0 -94 -66.5t-32 -163.5v-192h-90v499zM341 703l-141 -148l-138 147l48 49l91 -96l92 96z" />
    <glyph glyph-name="Sacute" unicode="&#x15a;" horiz-adv-x="519" 
d="M455 645l-45 -68q-63 44 -153 44q-118 0 -118 -102q0 -35 25 -61t62 -40t81 -33.5t81 -40.5t62 -62.5t25 -97.5q0 -100 -76 -152q-63 -43 -160 -43q-56 0 -113 17t-91 51l48 68q66 -55 170 -55q59 0 93 24t34 86q0 39 -25 66.5t-62 42.5t-80.5 34t-80.5 39t-62 60t-25 95
q0 84 65 134q66 50 161 50q115 0 184 -56zM209 748l-38 57l183 135l46 -67z" />
    <glyph glyph-name="sacute" unicode="&#x15b;" horiz-adv-x="423" 
d="M375 457l-48 -59q-46 36 -111 36q-84 0 -84 -61q0 -27 26.5 -44.5t64 -30t75 -28.5t64 -49.5t26.5 -83.5q0 -75 -55.5 -111t-135.5 -36q-115 0 -165 60l47 59q46 -46 126 -46q93 0 93 70q0 29 -26.5 48t-64 31t-75.5 27.5t-64.5 48t-26.5 80.5q0 69 51.5 105t132.5 36
q98 0 150 -52zM184 557l-54 47l146 176l61 -52z" />
    <glyph glyph-name="Scircumflex" unicode="&#x15c;" horiz-adv-x="519" 
d="M455 645l-45 -68q-63 44 -153 44q-118 0 -118 -102q0 -35 25 -61t62 -40t81 -33.5t81 -40.5t62 -62.5t25 -97.5q0 -100 -76 -152q-63 -43 -160 -43q-56 0 -113 17t-91 51l48 68q66 -55 170 -55q59 0 93 24t34 86q0 39 -25 66.5t-62 42.5t-80.5 34t-80.5 39t-62 60t-25 95
q0 84 65 134q66 50 161 50q115 0 184 -56zM111 814l150 102l149 -101l-37 -58l-113 69l-113 -70z" />
    <glyph glyph-name="scircumflex" unicode="&#x15d;" horiz-adv-x="423" 
d="M375 457l-48 -59q-46 36 -111 36q-84 0 -84 -61q0 -27 26.5 -44.5t64 -30t75 -28.5t64 -49.5t26.5 -83.5q0 -75 -55.5 -111t-135.5 -36q-115 0 -165 60l47 59q46 -46 126 -46q93 0 93 70q0 29 -26.5 48t-64 31t-75.5 27.5t-64.5 48t-26.5 80.5q0 69 51.5 105t132.5 36
q98 0 150 -52zM79 615l140 148l139 -147l-49 -48l-91 95l-92 -96z" />
    <glyph glyph-name="Scedilla" unicode="&#x15e;" horiz-adv-x="519" 
d="M455 645l-45 -68q-63 44 -152 44q-119 0 -119 -102q0 -35 25 -61t62 -40t81 -33.5t81 -40.5t62 -62.5t25 -97.5q0 -98 -75 -151q-53 -37 -131 -43l-4 -38q69 -27 69 -83q0 -43 -29 -73t-80 -30q-68 0 -107 57l41 43q27 -38 61 -38q19 0 31.5 10.5t12.5 29.5q0 37 -67 54
l6 68q-112 11 -168 67l48 68q66 -55 171 -55q126 0 126 110q0 39 -25 66.5t-62 42.5t-80.5 34t-80.5 39t-62 60t-25 95q0 84 65 134q66 50 162 50q114 0 183 -56z" />
    <glyph glyph-name="scedilla" unicode="&#x15f;" horiz-adv-x="423" 
d="M375 457l-48 -59q-46 36 -112 36q-83 0 -83 -61q0 -27 26.5 -44.5t64 -30t75 -28.5t64 -49.5t26.5 -83.5q0 -70 -47.5 -105.5t-120.5 -40.5l-3 -39q68 -27 68 -83q0 -44 -28.5 -73.5t-79.5 -29.5q-69 0 -108 57l42 43q25 -38 60 -38q19 0 31.5 10.5t12.5 29.5
q0 37 -67 54l7 70q-85 12 -123 58l47 59q46 -46 127 -46q92 0 92 70q0 29 -26.5 48t-64 31t-75.5 27.5t-64.5 48t-26.5 80.5q0 69 51.5 105t132.5 36q98 0 150 -52z" />
    <glyph glyph-name="Scaron" unicode="&#x160;" horiz-adv-x="519" 
d="M455 645l-45 -68q-63 44 -153 44q-118 0 -118 -102q0 -35 25 -61t62 -40t81 -33.5t81 -40.5t62 -62.5t25 -97.5q0 -100 -76 -152q-63 -43 -160 -43q-56 0 -113 17t-91 51l48 68q66 -55 170 -55q59 0 93 24t34 86q0 39 -25 66.5t-62 42.5t-80.5 34t-80.5 39t-62 60t-25 95
q0 84 65 134q66 50 161 50q115 0 184 -56zM410 847l-151 -103l-148 102l36 58l113 -70l114 71z" />
    <glyph glyph-name="scaron" unicode="&#x161;" horiz-adv-x="423" 
d="M375 457l-48 -59q-46 36 -111 36q-84 0 -84 -61q0 -27 26.5 -44.5t64 -30t75 -28.5t64 -49.5t26.5 -83.5q0 -75 -55.5 -111t-135.5 -36q-115 0 -165 60l47 59q46 -46 126 -46q93 0 93 70q0 29 -26.5 48t-64 31t-75.5 27.5t-64.5 48t-26.5 80.5q0 69 51.5 105t132.5 36
q98 0 150 -52zM358 703l-141 -148l-138 147l48 49l91 -96l92 96z" />
    <glyph glyph-name="Tcommaaccent" unicode="&#x162;" horiz-adv-x="544" 
d="M14 690h516v-83h-211v-607h-93v607h-212v83zM222 -104q0 24 14.5 40t40.5 16t41 -16t15 -45q0 -61 -75 -177l-53 30q34 63 46 104q-29 11 -29 48z" />
    <glyph glyph-name="tcommaaccent" unicode="&#x163;" horiz-adv-x="419" 
d="M363 82l8 -76q-43 -13 -100 -13q-88 0 -118 40t-30 133v245h-91v79h91v144l89 11v-155h152v-79h-152v-240q0 -58 12.5 -78.5t59.5 -20.5q39 0 79 10zM177 -104q0 24 14.5 40t40.5 16t41 -16t15 -45q0 -61 -75 -177l-53 30q34 63 46 104q-29 11 -29 48z" />
    <glyph glyph-name="Tcaron" unicode="&#x164;" horiz-adv-x="544" 
d="M14 690h516v-83h-211v-607h-93v607h-212v83zM422 847l-151 -103l-148 102l36 58l113 -70l114 71z" />
    <glyph glyph-name="tcaron" unicode="&#x165;" horiz-adv-x="419" 
d="M363 82l8 -76q-43 -13 -100 -13q-88 0 -118 40t-30 133v245h-91v79h91v144l89 11v-155h152v-79h-152v-240q0 -58 12.5 -78.5t59.5 -20.5q39 0 79 10zM273 745q0 25 16.5 42.5t42.5 17.5q27 0 43.5 -17.5t16.5 -44.5q0 -71 -80 -194l-58 33q40 75 50 111q-31 13 -31 52z
" />
    <glyph glyph-name="Utilde" unicode="&#x168;" horiz-adv-x="672" 
d="M84 690h93v-449q0 -46 4.5 -72.5t19.5 -52t48 -36.5t87 -11q53 0 85.5 10.5t48.5 35.5t21 53t5 76v446h92v-443q0 -122 -47 -179q-64 -79 -209 -79q-138 0 -199 73q-49 58 -49 180v448zM460 913l42 -49q-50 -62 -107 -62q-26 0 -66.5 16.5t-56.5 16.5q-33 0 -60 -35
l-42 48q49 63 107 63q26 0 66.5 -16.5t56.5 -16.5q33 0 60 35z" />
    <glyph glyph-name="utilde" unicode="&#x169;" 
d="M471 0h-84v104q-17 -54 -59 -84.5t-102 -30.5q-70 0 -107 42.5t-37 122.5v345h90v-327q0 -104 72 -104q59 0 98.5 61.5t39.5 186.5v183h89v-499zM401 722l42 -49q-50 -62 -107 -62q-26 0 -66.5 16.5t-56.5 16.5q-33 0 -60 -35l-42 48q49 63 107 63q26 0 66.5 -16.5
t56.5 -16.5q33 0 60 35z" />
    <glyph glyph-name="Umacron" unicode="&#x16a;" horiz-adv-x="672" 
d="M84 690h93v-449q0 -46 4.5 -72.5t19.5 -52t48 -36.5t87 -11q53 0 85.5 10.5t48.5 35.5t21 53t5 76v446h92v-443q0 -122 -47 -179q-64 -79 -209 -79q-138 0 -199 73q-49 58 -49 180v448zM483 805h-294v76h294v-76z" />
    <glyph glyph-name="umacron" unicode="&#x16b;" 
d="M471 0h-84v104q-17 -54 -59 -84.5t-102 -30.5q-70 0 -107 42.5t-37 122.5v345h90v-327q0 -104 72 -104q59 0 98.5 61.5t39.5 186.5v183h89v-499zM424 614h-294v76h294v-76z" />
    <glyph glyph-name="Ubreve" unicode="&#x16c;" horiz-adv-x="672" 
d="M84 690h93v-449q0 -46 4.5 -72.5t19.5 -52t48 -36.5t87 -11q53 0 85.5 10.5t48.5 35.5t21 53t5 76v446h92v-443q0 -122 -47 -179q-64 -79 -209 -79q-138 0 -199 73q-49 58 -49 180v448zM427 927h75q-5 -71 -50 -114.5t-115 -43.5t-116 43.5t-50 114.5h76q4 -42 28 -68
t62 -26t61.5 25.5t28.5 68.5z" />
    <glyph glyph-name="ubreve" unicode="&#x16d;" 
d="M471 0h-84v104q-17 -54 -59 -84.5t-102 -30.5q-70 0 -107 42.5t-37 122.5v345h90v-327q0 -104 72 -104q59 0 98.5 61.5t39.5 186.5v183h89v-499zM368 736h75q-5 -71 -50 -114.5t-115 -43.5t-116 43.5t-50 114.5h76q4 -42 28 -68t62 -26t61.5 25.5t28.5 68.5z" />
    <glyph glyph-name="Uring" unicode="&#x16e;" horiz-adv-x="672" 
d="M84 690h93v-449q0 -46 4.5 -72.5t19.5 -52t48 -36.5t87 -11q53 0 85.5 10.5t48.5 35.5t21 53t5 76v446h92v-443q0 -122 -47 -179q-64 -79 -209 -79q-138 0 -199 73q-49 58 -49 180v448zM449 845q0 -45 -32 -72t-81 -27t-81 27t-32 73q0 45 31.5 71.5t81.5 26.5
q49 0 81 -27t32 -72zM386 846q0 22 -14 33.5t-36 11.5t-36 -12t-14 -34t14 -33.5t36 -11.5t36 12t14 34z" />
    <glyph glyph-name="uring" unicode="&#x16f;" 
d="M471 0h-84v104q-17 -54 -59 -84.5t-102 -30.5q-70 0 -107 42.5t-37 122.5v345h90v-327q0 -104 72 -104q59 0 98.5 61.5t39.5 186.5v183h89v-499zM394 685q0 -48 -33 -78.5t-84 -30.5t-84 30.5t-33 78.5t32.5 78.5t84.5 30.5q51 0 84 -30.5t33 -78.5zM326 685
q0 24 -14 37.5t-35 13.5q-22 0 -35.5 -14t-13.5 -38t14 -37t35 -13t35 14t14 37z" />
    <glyph glyph-name="Uhungarumlaut" unicode="&#x170;" horiz-adv-x="672" 
d="M84 690h93v-449q0 -46 4.5 -72.5t19.5 -52t48 -36.5t87 -11q53 0 85.5 10.5t48.5 35.5t21 53t5 76v446h92v-443q0 -122 -47 -179q-64 -79 -209 -79q-138 0 -199 73q-49 58 -49 180v448zM228 748l-41 46l167 147l48 -53zM423 748l-42 46l167 147l49 -53z" />
    <glyph glyph-name="uhungarumlaut" unicode="&#x171;" 
d="M471 0h-84v104q-17 -54 -59 -84.5t-102 -30.5q-70 0 -107 42.5t-37 122.5v345h90v-327q0 -104 72 -104q59 0 98.5 61.5t39.5 186.5v183h89v-499zM177 557l-49 43l143 173l56 -48zM367 557l-48 43l142 173l56 -48z" />
    <glyph glyph-name="Uogonek" unicode="&#x172;" horiz-adv-x="676" 
d="M85 690h93v-449q0 -46 4 -72.5t19 -52t48.5 -36.5t87.5 -11q53 0 85.5 10.5t48 35.5t20.5 53t5 76v446h93v-443q0 -121 -48 -179q-35 -43 -93 -62q-62 -30 -94 -65.5t-32 -66.5q0 -42 47 -42q43 0 73 43l45 -46q-45 -61 -122 -61q-56 0 -87.5 27t-31.5 71q0 68 71 123
q-127 4 -184 73q-48 58 -48 180v448z" />
    <glyph glyph-name="uogonek" unicode="&#x173;" horiz-adv-x="552" 
d="M466 -132l42 -43q-42 -58 -117 -58q-56 0 -86 26.5t-30 71.5q0 41 24 75.5t87 73.5v90q-17 -54 -59 -84.5t-100 -30.5q-72 0 -109 42t-37 123v345h90v-327q0 -104 73 -104q58 0 97.5 64t39.5 190v177h90v-499q-69 -35 -96.5 -64.5t-27.5 -62.5q0 -47 48 -47q42 0 71 42z
" />
    <glyph glyph-name="Wcircumflex" unicode="&#x174;" horiz-adv-x="898" 
d="M22 690h95l133 -582l147 562h106l148 -562l132 582h94l-170 -690h-111l-148 559l-149 -559h-111zM300 814l150 102l149 -101l-37 -58l-113 69l-113 -70z" />
    <glyph glyph-name="wcircumflex" unicode="&#x175;" horiz-adv-x="735" 
d="M25 499h93l96 -396l103 382h102l104 -382l95 396h92l-135 -499h-103l-105 385l-107 -385h-104zM228 615l140 148l139 -147l-49 -48l-91 95l-92 -96z" />
    <glyph glyph-name="Ycircumflex" unicode="&#x176;" horiz-adv-x="534" 
d="M4 690h107l155 -324l158 324h106l-219 -419v-271h-93v271zM118 814l150 102l149 -101l-37 -58l-113 69l-113 -70z" />
    <glyph glyph-name="ycircumflex" unicode="&#x177;" horiz-adv-x="500" 
d="M479 499l-145 -470q-41 -135 -93 -202.5t-133 -67.5q-47 0 -72 18l31 75q20 -10 44 -10q44 0 72.5 37.5t55.5 124.5h-53l-164 495h96l140 -450l126 450h95zM111 615l140 148l139 -147l-49 -48l-91 95l-92 -96z" />
    <glyph glyph-name="Ydieresis" unicode="&#x178;" horiz-adv-x="534" 
d="M4 690h107l155 -324l158 324h106l-219 -419v-271h-93v271zM361 898q23 0 38 -15.5t15 -38.5q0 -22 -15.5 -37t-37.5 -15t-37 15t-15 37q0 23 15 38.5t37 15.5zM172 898q22 0 37.5 -15.5t15.5 -38.5q0 -22 -15.5 -37t-37.5 -15t-37 15t-15 37q0 23 15 38.5t37 15.5z" />
    <glyph glyph-name="Zacute" unicode="&#x179;" horiz-adv-x="548" 
d="M495 688v-82l-350 -525l360 1v-82h-469v81l349 525h-341v82h451zM225 748l-38 57l183 135l46 -67z" />
    <glyph glyph-name="zacute" unicode="&#x17a;" horiz-adv-x="456" 
d="M402 493v-77l-251 -338h259v-78h-366v77l250 338h-242v78h350zM196 557l-54 47l146 176l61 -52z" />
    <glyph glyph-name="Zdotaccent" unicode="&#x17b;" horiz-adv-x="548" 
d="M495 688v-82l-350 -525l360 1v-82h-469v81l349 525h-341v82h451zM222 843q0 23 15.5 39t37.5 16q23 0 39 -16t16 -39q0 -22 -16 -37.5t-39 -15.5q-22 0 -37.5 15.5t-15.5 37.5z" />
    <glyph glyph-name="zdotaccent" unicode="&#x17c;" horiz-adv-x="456" 
d="M402 493v-77l-251 -338h259v-78h-366v77l250 338h-242v78h350zM176 652q0 23 15.5 39t37.5 16q23 0 39 -16.5t16 -38.5t-16 -37.5t-39 -15.5q-22 0 -37.5 15.5t-15.5 37.5z" />
    <glyph glyph-name="Zcaron" unicode="&#x17d;" horiz-adv-x="548" 
d="M495 688v-82l-350 -525l360 1v-82h-469v81l349 525h-341v82h451zM426 847l-151 -103l-148 102l36 58l113 -70l114 71z" />
    <glyph glyph-name="zcaron" unicode="&#x17e;" horiz-adv-x="456" 
d="M402 493v-77l-251 -338h259v-78h-366v77l250 338h-242v78h350zM370 703l-141 -148l-138 147l48 49l91 -96l92 96z" />
    <glyph glyph-name="florin" unicode="&#x192;" 
d="M114 427v82h95v28q0 107 42 165.5t153 58.5q42 0 80 -6l-3 -81q-24 6 -69 6q-72 0 -92 -30.5t-20 -113.5v-27h143v-82h-143v-475q0 -94 -37.5 -142t-127.5 -48q-35 0 -65 6l5 81q28 -6 57 -6q48 0 62.5 24t14.5 81v479h-95z" />
    <glyph glyph-name="Scommaaccent" unicode="&#x218;" horiz-adv-x="519" 
d="M455 645l-45 -68q-63 44 -153 44q-118 0 -118 -102q0 -35 25 -61t62 -40t81 -33.5t81 -40.5t62 -62.5t25 -97.5q0 -100 -76 -152q-63 -43 -160 -43q-56 0 -113 17t-91 51l48 68q66 -55 170 -55q59 0 93 24t34 86q0 39 -25 66.5t-62 42.5t-80.5 34t-80.5 39t-62 60t-25 95
q0 84 65 134q66 50 161 50q115 0 184 -56zM200 -104q0 24 14.5 40t40.5 16t41 -16t15 -45q0 -61 -75 -177l-53 30q34 63 46 104q-29 11 -29 48z" />
    <glyph glyph-name="scommaaccent" unicode="&#x219;" horiz-adv-x="423" 
d="M375 457l-48 -59q-46 36 -111 36q-84 0 -84 -61q0 -27 26.5 -44.5t64 -30t75 -28.5t64 -49.5t26.5 -83.5q0 -75 -55.5 -111t-135.5 -36q-115 0 -165 60l47 59q46 -46 126 -46q93 0 93 70q0 29 -26.5 48t-64 31t-75.5 27.5t-64.5 48t-26.5 80.5q0 69 51.5 105t132.5 36
q98 0 150 -52zM146 -104q0 24 14.5 40t40.5 16t41 -16t15 -45q0 -61 -75 -177l-53 30q34 63 46 104q-29 11 -29 48z" />
    <glyph glyph-name="hsuperior" unicode="&#x2b0;" horiz-adv-x="348" 
d="M52 906h70v-179q10 21 33.5 34.5t54.5 13.5q41 0 63 -24t22 -69v-182h-70v172q0 39 -34 39q-28 0 -48.5 -27t-20.5 -81v-103h-70v406z" />
    <glyph glyph-name="circumflex" unicode="&#x2c6;" horiz-adv-x="200" 
d="M-39 615l140 148l139 -147l-49 -48l-91 95l-92 -96z" />
    <glyph glyph-name="caron" unicode="&#x2c7;" horiz-adv-x="200" 
d="M240 703l-141 -148l-138 147l48 49l91 -96l92 96z" />
    <glyph glyph-name="breve" unicode="&#x2d8;" horiz-adv-x="200" 
d="M191 736h75q-5 -71 -50 -114.5t-115 -43.5t-116 43.5t-50 114.5h76q4 -42 28 -68t62 -26t61.5 25.5t28.5 68.5z" />
    <glyph glyph-name="dotaccent" unicode="&#x2d9;" horiz-adv-x="200" 
d="M46 652q0 23 15.5 39t37.5 16q23 0 39 -16.5t16 -38.5t-16 -37.5t-39 -15.5q-22 0 -37.5 15.5t-15.5 37.5z" />
    <glyph glyph-name="ring" unicode="&#x2da;" horiz-adv-x="200" 
d="M217 685q0 -48 -33 -78.5t-84 -30.5t-84 30.5t-33 78.5t32.5 78.5t84.5 30.5q51 0 84 -30.5t33 -78.5zM149 685q0 24 -14 37.5t-35 13.5q-22 0 -35.5 -14t-13.5 -38t14 -37t35 -13t35 14t14 37z" />
    <glyph glyph-name="ogonek" unicode="&#x2db;" horiz-adv-x="200" 
d="M174 -130l43 -45q-42 -58 -118 -58q-57 0 -86.5 27.5t-29.5 73.5q0 40 27 74.5t97 75.5l77 -18q-69 -34 -98 -63.5t-29 -61.5q0 -46 46 -46q42 0 71 41z" />
    <glyph glyph-name="tilde" unicode="&#x2dc;" horiz-adv-x="200" 
d="M224 722l42 -49q-50 -62 -107 -62q-26 0 -66.5 16.5t-56.5 16.5q-33 0 -60 -35l-42 48q49 63 107 63q26 0 66.5 -16.5t56.5 -16.5q33 0 60 35z" />
    <glyph glyph-name="hungarumlaut" unicode="&#x2dd;" horiz-adv-x="200" 
d="M0 557l-49 43l143 173l56 -48zM190 557l-48 43l142 173l56 -48z" />
    <glyph glyph-name="pi" unicode="&#x3c0;" horiz-adv-x="660" 
d="M601 423h-79v-274q0 -100 15 -149h-88q-17 27 -17 142v281h-163q-4 -105 -23.5 -233.5t-44.5 -189.5h-89q26 75 45.5 199.5t22.5 223.5q-57 0 -110 -17l-11 66q53 23 147 23h395v-72z" />
    <glyph glyph-name="endash" unicode="&#x2013;" horiz-adv-x="500" 
d="M480 224h-460v85h460v-85z" />
    <glyph glyph-name="emdash" unicode="&#x2014;" horiz-adv-x="1000" 
d="M980 224h-960v85h960v-85z" />
    <glyph glyph-name="quoteleft" unicode="&#x2018;" horiz-adv-x="235" 
d="M177 583q0 -26 -16 -43t-43 -17t-43 17.5t-16 44.5q0 71 79 194l58 -33q-39 -74 -49 -111q30 -13 30 -52z" />
    <glyph glyph-name="quoteright" unicode="&#x2019;" horiz-adv-x="235" 
d="M58 696q0 25 16.5 42.5t42.5 17.5q27 0 43.5 -17.5t16.5 -44.5q0 -72 -80 -194l-58 33q40 75 50 111q-31 13 -31 52z" />
    <glyph glyph-name="quotesinglbase" unicode="&#x201a;" horiz-adv-x="234" 
d="M58 51q0 25 16 42t42 17q27 0 43.5 -17t16.5 -44q0 -67 -79 -189l-58 32q40 76 49 108q-30 13 -30 51z" />
    <glyph glyph-name="quotedblleft" unicode="&#x201c;" horiz-adv-x="414" 
d="M357 566q0 -25 -16.5 -42t-42.5 -17q-27 0 -43 17t-16 44q0 69 79 189l57 -32q-41 -77 -49 -108q31 -13 31 -51zM177 566q0 -25 -16.5 -42t-42.5 -17q-27 0 -43 17t-16 44q0 68 78 189l58 -32q-41 -77 -49 -108q31 -13 31 -51z" />
    <glyph glyph-name="quotedblright" unicode="&#x201d;" horiz-adv-x="414" 
d="M58 676q0 25 16 42t42 17q27 0 43.5 -17.5t16.5 -43.5q0 -68 -79 -190l-58 32q40 76 49 109q-30 13 -30 51zM238 676q0 25 16 42t42 17q27 0 43.5 -17.5t16.5 -43.5q0 -70 -79 -190l-57 32q40 81 48 109q-30 13 -30 51z" />
    <glyph glyph-name="quotedblbase" unicode="&#x201e;" horiz-adv-x="414" 
d="M58 51q0 25 16 42t42 17q27 0 43.5 -17t16.5 -44q0 -67 -79 -189l-58 32q40 76 49 108q-30 13 -30 51zM238 51q0 25 16 42t42 17q27 0 43.5 -17t16.5 -44q0 -69 -79 -189l-57 32q41 81 48 108q-30 13 -30 51z" />
    <glyph glyph-name="dagger" unicode="&#x2020;" horiz-adv-x="550" 
d="M321 710l-4 -218h174v-77h-174l3 -115l-7 -344h-76l-7 344l3 115h-174v77h174l-4 218h92z" />
    <glyph glyph-name="daggerdbl" unicode="&#x2021;" horiz-adv-x="550" 
d="M229 -66l4 182h-174v77h174l-3 129l3 129h-174v77h174l-4 182h92l-4 -182h174v-77h-174l3 -129l-3 -129h174v-77h-174l4 -182h-92z" />
    <glyph glyph-name="bullet" unicode="&#x2022;" horiz-adv-x="295" 
d="M237 333q0 -37 -26 -63t-64 -26t-63.5 26t-25.5 63q0 39 25 64.5t64 25.5t64.5 -26t25.5 -64z" />
    <glyph glyph-name="onedotenleader" unicode="&#x2024;" horiz-adv-x="500" 
d="M191 52q0 26 16.5 43t42.5 17t42.5 -17t16.5 -43q0 -25 -17 -42t-42 -17t-42 17t-17 42z" />
    <glyph glyph-name="twodotenleader" unicode="&#x2025;" horiz-adv-x="500" 
d="M66 52q0 26 16.5 43t42.5 17t42.5 -17t16.5 -43q0 -25 -17 -42t-42 -17t-42 17t-17 42zM316 52q0 26 16.5 43t42.5 17t42.5 -17t16.5 -43q0 -25 -17 -42t-42 -17t-42 17t-17 42z" />
    <glyph glyph-name="ellipsis" unicode="&#x2026;" horiz-adv-x="1000" 
d="M107 52q0 26 17 43t43 17t42.5 -17t16.5 -43q0 -25 -17 -42t-42 -17t-42.5 17t-17.5 42zM441 52q0 26 16.5 43t42.5 17t42.5 -17t16.5 -43q0 -25 -17 -42t-42 -17t-42 17t-17 42zM774 52q0 26 16.5 43t42.5 17t43 -17t17 -43q0 -25 -17.5 -42t-42.5 -17t-42 17t-17 42z
" />
    <glyph glyph-name="perthousand" unicode="&#x2030;" horiz-adv-x="1226" 
d="M774 683l-612 -724l-57 47l612 725zM814 188q0 -115 -43 -159q-34 -36 -98 -36q-63 0 -95 35q-40 40 -40 153q0 105 36 149t105 44q57 0 93 -34q42 -43 42 -152zM741 188q0 68 -12.5 96t-50.5 28q-40 0 -53.5 -31t-13.5 -102q0 -68 12.5 -96.5t50.5 -28.5q40 0 53.5 31
t13.5 103zM329 510q0 -113 -43 -157q-34 -37 -97 -37q-61 0 -96 35q-40 40 -40 154q0 106 37 150q35 42 103 42q62 0 94 -34q42 -42 42 -153zM256 511q0 68 -12.5 96t-50.5 28q-40 0 -53.5 -31t-13.5 -102q0 -67 12.5 -95.5t50.5 -28.5q40 0 53.5 30.5t13.5 102.5zM1174 190
q0 -118 -43 -161q-33 -36 -100 -36q-58 0 -93 35q-41 41 -41 151q0 106 37 152q35 43 103 43q61 0 95 -34q42 -43 42 -150zM1101 187q0 68 -12.5 96.5t-50.5 28.5q-40 0 -53.5 -30.5t-13.5 -100.5t12.5 -98.5t50.5 -28.5q40 0 53.5 31t13.5 102z" />
    <glyph glyph-name="guilsinglleft" unicode="&#x2039;" horiz-adv-x="294" 
d="M200 60l-180 206l180 207l62 -49l-134 -158l134 -156z" />
    <glyph glyph-name="guilsinglright" unicode="&#x203a;" horiz-adv-x="294" 
d="M95 473l179 -206l-179 -207l-63 49l135 158l-135 157z" />
    <glyph glyph-name="fraction" unicode="&#x2044;" horiz-adv-x="287" 
d="M478 684l-612 -725l-57 47l612 725z" />
    <glyph glyph-name="zerosuperior" unicode="&#x2070;" horiz-adv-x="351" 
d="M310 687q0 -113 -42 -157q-34 -37 -98 -37q-63 0 -96 36q-38 43 -38 150q0 112 41 157q35 38 98 38q65 0 97 -37q38 -43 38 -150zM236 689q0 67 -13 95t-49 28q-37 0 -50.5 -31t-13.5 -104q0 -67 12.5 -95t48.5 -28q37 0 51 31t14 104z" />
    <glyph glyph-name="foursuperior" unicode="&#x2074;" horiz-adv-x="351" 
d="M314 570h-61v-70h-67v70h-153v62l93 235h70l-93 -234h84v134h66v-133h61v-64z" />
    <glyph glyph-name="fivesuperior" unicode="&#x2075;" horiz-adv-x="351" 
d="M46 530l36 48q32 -26 83 -26q28 0 43 10q23 15 23 56q0 37 -20 51q-14 10 -40 10q-36 0 -62 -23l-53 13l2 198h223v-61h-161l-3 -88q25 19 67 19q50 0 82 -26q38 -29 38 -91q0 -69 -48 -101q-38 -26 -94 -26q-78 0 -116 37z" />
    <glyph glyph-name="sixsuperior" unicode="&#x2076;" horiz-adv-x="351" 
d="M302 839l-36 -48q-27 23 -81 23q-48 0 -61 -25t-14 -96q24 34 83 34q52 0 81 -25q34 -29 34 -88q0 -63 -37 -93q-35 -28 -95 -28q-72 0 -104 40q-32 39 -32 145q0 116 37 156q37 39 112 39q78 0 113 -34zM182 676q-68 0 -68 -66q0 -60 63 -60q35 0 48.5 15.5t13.5 48.5
t-13 47.5t-44 14.5z" />
    <glyph glyph-name="sevensuperior" unicode="&#x2077;" horiz-adv-x="351" 
d="M95 743h-58l-1 124h272v-64q-77 -151 -122 -303h-78q44 144 126 299h-137z" />
    <glyph glyph-name="eightsuperior" unicode="&#x2078;" horiz-adv-x="351" 
d="M46 778q0 50 38 73.5t90 23.5t89.5 -23t37.5 -71q0 -63 -69 -92q75 -28 75 -96q0 -50 -39 -75.5t-95 -25.5q-55 0 -94.5 25t-39.5 75q0 65 77 95q-70 26 -70 91zM112 772q0 -18 9.5 -30.5t20.5 -17t31 -10.5q21 6 31.5 11t20 17.5t9.5 30.5q0 47 -60 47q-62 0 -62 -48z
M106 599q0 -52 67 -52t67 51q0 20 -10.5 33.5t-22.5 19t-34 12.5q-33 -10 -50 -23t-17 -41z" />
    <glyph glyph-name="ninesuperior" unicode="&#x2079;" horiz-adv-x="351" 
d="M44 527l36 48q28 -23 81 -23q48 0 61 25t14 96q-25 -34 -83 -34q-50 0 -81 26q-34 27 -34 87q0 63 37 93q33 28 95 28q72 0 104 -40q32 -39 32 -144q0 -117 -37 -156q-37 -40 -112 -40q-78 0 -113 34zM164 691q68 0 68 65q0 60 -63 60q-35 0 -48.5 -15.5t-13.5 -48.5
q0 -32 13 -46.5t44 -14.5z" />
    <glyph glyph-name="parenleftsuperior" unicode="&#x207d;" horiz-adv-x="226" 
d="M136 932l42 -52q-41 -29 -51.5 -66.5t-10.5 -130.5q0 -92 10.5 -130.5t51.5 -66.5l-42 -51q-54 36 -71.5 92t-17.5 157q0 100 17.5 155.5t71.5 92.5z" />
    <glyph glyph-name="parenrightsuperior" unicode="&#x207e;" horiz-adv-x="226" 
d="M83 434l-42 52q40 29 50.5 66.5t10.5 130.5t-10.5 131t-50.5 67l42 51q54 -37 71.5 -93t17.5 -156q0 -101 -17.5 -156.5t-71.5 -92.5z" />
    <glyph glyph-name="nsuperior" unicode="&#x207f;" horiz-adv-x="348" 
d="M52 768h66v-47q26 54 91 54q86 0 86 -93v-182h-70v170q0 41 -34 41q-29 0 -49 -27.5t-20 -79.5v-104h-70v268z" />
    <glyph glyph-name="zeroinferior" unicode="&#x2080;" horiz-adv-x="351" 
d="M310 4q0 -113 -42 -157q-34 -37 -98 -37q-63 0 -96 36q-38 43 -38 150q0 111 41 157q36 38 98 38q63 0 97 -37q38 -44 38 -150zM236 5q0 67 -13 95.5t-49 28.5q-37 0 -50.5 -31t-13.5 -104q0 -67 12.5 -95t48.5 -28q37 0 51 31t14 103z" />
    <glyph glyph-name="oneinferior" unicode="&#x2081;" horiz-adv-x="351" 
d="M56 -183v63h100v231l-84 -56l-39 51l116 77h79v-303h78v-63h-250z" />
    <glyph glyph-name="twoinferior" unicode="&#x2082;" horiz-adv-x="351" 
d="M302 -121v-62h-259v47q0 51 24 78t95 68q24 14 35.5 22t22 22.5t10.5 31.5q0 43 -61 43q-51 0 -83 -30l-44 43q44 47 131 47q130 0 130 -102q0 -41 -21 -65t-71 -53q-54 -31 -73.5 -48.5t-19.5 -42.5z" />
    <glyph glyph-name="threeinferior" unicode="&#x2083;" horiz-adv-x="351" 
d="M96 -25v58h46q78 0 78 52q0 45 -62 45q-54 0 -85 -26l-36 47q39 39 123 39q58 0 92 -22q42 -25 42 -74q0 -68 -67 -87q72 -16 72 -91q0 -54 -45 -82q-38 -24 -97 -24q-84 0 -121 38l36 48q30 -26 86 -26q34 0 51 11.5t17 41.5t-19 41t-63 11h-48z" />
    <glyph glyph-name="fourinferior" unicode="&#x2084;" horiz-adv-x="351" 
d="M314 -113h-61v-70h-67v70h-153v62l93 234h70l-93 -233h84v134h66v-133h61v-64z" />
    <glyph glyph-name="fiveinferior" unicode="&#x2085;" horiz-adv-x="351" 
d="M46 -153l36 48q32 -26 83 -26q28 0 43 10q23 15 23 56q0 37 -20 51q-14 10 -40 10q-36 0 -62 -23l-53 13l2 197h223v-60h-161l-3 -88q24 18 67 18q49 0 82 -25q38 -30 38 -91q0 -69 -48 -101q-38 -26 -94 -26q-78 0 -116 37z" />
    <glyph glyph-name="sixinferior" unicode="&#x2086;" horiz-adv-x="351" 
d="M302 156l-36 -48q-28 23 -81 23q-48 0 -61 -25t-14 -96q25 34 83 34q50 0 81 -26q34 -28 34 -87q0 -63 -37 -93q-35 -28 -95 -28q-72 0 -104 40q-32 39 -32 145q0 116 37 155q37 40 112 40q78 0 113 -34zM182 -7q-68 0 -68 -66q0 -60 63 -60q35 0 48.5 15.5t13.5 48.5
t-13 47.5t-44 14.5z" />
    <glyph glyph-name="seveninferior" unicode="&#x2087;" horiz-adv-x="351" 
d="M95 59h-58l-1 124h272v-64q-77 -153 -122 -302h-78q44 144 126 299h-137z" />
    <glyph glyph-name="eightinferior" unicode="&#x2088;" horiz-adv-x="351" 
d="M46 94q0 50 38 73.5t90 23.5t89.5 -22.5t37.5 -71.5q0 -62 -69 -91q75 -28 75 -96q0 -50 -39 -75.5t-95 -25.5q-55 0 -94.5 25t-39.5 75q0 66 77 94q-70 28 -70 91zM112 89q0 -18 9.5 -30.5t20.5 -17.5t31 -11q30 9 45.5 21t15.5 38q0 48 -60 48q-62 0 -62 -48zM106 -84
q0 -52 67 -52t67 51q0 20 -10.5 33.5t-22.5 19t-34 12.5q-33 -10 -50 -23t-17 -41z" />
    <glyph glyph-name="nineinferior" unicode="&#x2089;" horiz-adv-x="351" 
d="M44 -156l36 48q28 -23 81 -23q48 0 61 25t14 96q-25 -34 -83 -34q-50 0 -81 26q-34 27 -34 87q0 63 37 93q35 28 95 28q72 0 104 -40q32 -39 32 -145q0 -116 -37 -155q-37 -40 -112 -40q-78 0 -113 34zM164 7q68 0 68 66q0 60 -63 60q-35 0 -48.5 -15.5t-13.5 -48.5
t13 -47.5t44 -14.5z" />
    <glyph glyph-name="parenleftinferior" unicode="&#x208d;" horiz-adv-x="226" 
d="M136 249l42 -52q-41 -29 -51.5 -66.5t-10.5 -130.5q0 -92 10.5 -130.5t51.5 -66.5l-42 -51q-54 36 -71.5 92t-17.5 156q0 101 17.5 156.5t71.5 92.5z" />
    <glyph glyph-name="parenrightinferior" unicode="&#x208e;" horiz-adv-x="226" 
d="M83 -249l-42 52q40 29 50.5 66.5t10.5 130.5t-10.5 131t-50.5 66l42 51q54 -36 71.5 -92t17.5 -156q0 -101 -17.5 -156.5t-71.5 -92.5z" />
    <glyph glyph-name="Euro" unicode="&#x20ac;" 
d="M410 291l-20 -78h-205q11 -74 43.5 -108.5t98.5 -34.5q88 0 168 63v-91q-68 -52 -166 -52q-80 0 -131.5 32.5t-76.5 81.5q-23 45 -33 109h-83l19 78h57v95h-76l19 77h63q12 85 46 137q63 100 213 100q98 0 163 -40l-25 -78q-61 37 -144 37q-79 0 -113.5 -37.5
t-43.5 -118.5h270l-20 -77h-255q0 -62 1 -95h231z" />
    <glyph glyph-name="afii61289" unicode="&#x2113;" horiz-adv-x="491" 
d="M429 159l41 -38q-68 -130 -193 -130q-81 0 -122.5 49.5t-46.5 126.5v12q-9 -7 -28 -22.5t-27 -21.5l-26 51q77 66 80 69v263q0 124 46 183t115 59q63 0 96 -46.5t33 -119.5q0 -161 -202 -356v-36q1 -68 29.5 -102.5t72.5 -34.5q41 0 75 27.5t57 66.5zM195 522v-196
q140 154 140 269q0 97 -65 97q-30 0 -52.5 -40.5t-22.5 -129.5z" />
    <glyph glyph-name="trademark" unicode="&#x2122;" horiz-adv-x="619" 
d="M14 710h208v-60h-70v-194h-68v194h-70v60zM277 710h90l53 -151l52 151h90l16 -254h-66l-7 180l-55 -169h-62l-55 169l-7 -180h-66z" />
    <glyph glyph-name="Omega" unicode="&#x2126;" horiz-adv-x="758" 
d="M700 75v-75h-264v61q69 44 111 121.5t42 184.5q0 128 -52.5 203t-154.5 75q-100 0 -156.5 -69t-56.5 -207q0 -101 42 -183t111 -125v-61h-264v75l155 -2q-142 118 -142 309q0 166 81.5 254t230.5 88q150 0 227 -90t77 -249q0 -102 -40 -182t-105 -130z" />
    <glyph glyph-name="estimated" unicode="&#x212e;" horiz-adv-x="864" 
d="M830 335h-645q-5 0 -5 -4v-195q0 -12 8 -22q103 -106 244 -106q154 0 257 119h57q-54 -64 -137 -101.5t-178 -37.5q-164 0 -281 104.5t-117 252.5t117 253.5t281 105.5q166 0 282.5 -105t116.5 -254v-10zM684 361v196q0 13 -10 23q-104 102 -242 102q-140 0 -243 -105
q-9 -9 -9 -24v-192q0 -6 5 -6h494q5 0 5 6z" />
    <glyph glyph-name="onethird" unicode="&#x2153;" horiz-adv-x="878" 
d="M774 683l-612 -724l-57 47l612 725zM80 323v63h94v233l-77 -55l-39 52l107 74h81v-304h74v-63h-240zM601 158v58h46q78 0 78 53q0 25 -15 34.5t-46 9.5q-56 0 -86 -26l-36 48q39 38 123 38q58 0 92 -22q42 -25 42 -74q0 -68 -67 -87q72 -16 72 -91q0 -54 -45 -82
q-36 -23 -96 -23q-85 0 -122 37l37 48q30 -26 85 -26q34 0 51 11.5t17 41.5t-19 41t-63 11h-48z" />
    <glyph glyph-name="twothirds" unicode="&#x2154;" horiz-adv-x="878" 
d="M774 683l-612 -724l-57 47l612 725zM601 158v58h46q78 0 78 53q0 25 -15.5 34.5t-46.5 9.5q-55 0 -85 -26l-36 48q39 38 123 38q58 0 92 -22q42 -25 42 -74q0 -68 -67 -87q72 -16 72 -91q0 -52 -44 -81q-38 -24 -96 -24q-86 0 -123 37l37 48q30 -26 86 -26q33 0 50 11.5
t17 41.5t-19 41t-63 11h-48zM319 386v-63h-252v47q0 50 23.5 78.5t89.5 67.5q25 15 36.5 22.5t21.5 21.5t10 32q0 44 -58 44q-50 0 -81 -30l-43 43q43 47 128 47q127 0 127 -103q0 -41 -20.5 -64t-69.5 -53q-53 -32 -71 -49t-18 -42z" />
    <glyph glyph-name="oneeighth" unicode="&#x215b;" horiz-adv-x="878" 
d="M774 683l-612 -724l-57 47l612 725zM80 323v63h94v233l-77 -55l-39 52l107 74h81v-304h74v-63h-240zM548 278q0 50 38.5 73.5t91.5 23.5t91 -22.5t38 -71.5q0 -63 -71 -92q77 -28 77 -96q0 -51 -39.5 -76t-96.5 -25q-56 0 -95.5 25t-39.5 75q0 65 78 95q-72 26 -72 91z
M615 273q0 -26 16 -38.5t46 -20.5q21 6 32 11.5t21 18t10 30.5q0 47 -62 47q-63 0 -63 -48zM608 98q0 -52 69 -52q68 0 68 52q0 28 -17.5 41.5t-51.5 23.5q-33 -10 -50.5 -23.5t-17.5 -41.5z" />
    <glyph glyph-name="threeeighths" unicode="&#x215c;" horiz-adv-x="878" 
d="M774 683l-612 -724l-57 47l612 725zM114 481v59h46q78 0 78 52q0 25 -15 34.5t-46 9.5q-56 0 -86 -25l-36 47q40 39 123 39q55 0 92 -22q42 -27 42 -75q0 -66 -67 -87q72 -15 72 -90q0 -55 -45 -83q-38 -23 -96 -23q-85 0 -122 37l37 49q30 -27 85 -27q68 0 68 53
q0 30 -19 41t-63 11h-48zM548 278q0 50 38.5 73.5t91.5 23.5t91 -22.5t38 -71.5q0 -63 -71 -92q77 -28 77 -96q0 -51 -39.5 -76t-96.5 -25q-56 0 -95.5 25t-39.5 75q0 65 78 95q-72 26 -72 91zM615 273q0 -26 16 -38.5t46 -20.5q21 6 32 11.5t21 18t10 30.5q0 47 -62 47
q-63 0 -63 -48zM608 98q0 -52 69 -52q68 0 68 52q0 28 -17.5 41.5t-51.5 23.5q-33 -10 -50.5 -23.5t-17.5 -41.5z" />
    <glyph glyph-name="fiveeighths" unicode="&#x215d;" horiz-adv-x="878" 
d="M774 683l-612 -724l-57 47l612 725zM548 278q0 50 38.5 73.5t91.5 23.5t91 -22.5t38 -71.5q0 -63 -71 -92q77 -28 77 -96q0 -51 -39.5 -76t-96.5 -25q-56 0 -95.5 25t-39.5 75q0 65 78 95q-72 26 -72 91zM615 273q0 -26 16 -38.5t46 -20.5q21 6 32 11.5t21 18t10 30.5
q0 47 -62 47q-63 0 -63 -48zM608 98q0 -52 69 -52q68 0 68 52q0 28 -17.5 41.5t-51.5 23.5q-33 -10 -50.5 -23.5t-17.5 -41.5zM63 353l36 49q29 -26 81 -26q28 0 42 10q22 14 22 56q0 35 -18 50q-14 10 -40 10q-36 0 -60 -23l-54 14l3 197h220v-61h-159l-2 -88q23 19 66 19
q48 0 80 -25q38 -30 38 -91q0 -67 -48 -102q-39 -25 -92 -25q-78 0 -115 36z" />
    <glyph glyph-name="seveneighths" unicode="&#x215e;" horiz-adv-x="878" 
d="M774 683l-612 -724l-57 47l612 725zM548 278q0 50 38.5 73.5t91.5 23.5t91 -22.5t38 -71.5q0 -63 -71 -92q77 -28 77 -96q0 -51 -39.5 -76t-96.5 -25q-56 0 -95.5 25t-39.5 75q0 65 78 95q-72 26 -72 91zM615 273q0 -26 16 -38.5t46 -20.5q21 6 32 11.5t21 18t10 30.5
q0 47 -62 47q-63 0 -63 -48zM608 98q0 -52 69 -52q68 0 68 52q0 28 -17.5 41.5t-51.5 23.5q-33 -10 -50.5 -23.5t-17.5 -41.5zM114 566h-58l-1 124h262v-64q-71 -151 -117 -303h-77q42 147 120 300h-127z" />
    <glyph glyph-name="arrowleft" unicode="&#x2190;" horiz-adv-x="604" 
d="M584 304h-429l108 -127l-59 -47l-184 215l184 214l59 -45l-108 -129h429v-81z" />
    <glyph glyph-name="arrowup" unicode="&#x2191;" horiz-adv-x="698" 
d="M349 627l215 -184l-47 -59l-127 107v-428h-81v429l-129 -108l-46 59z" />
    <glyph glyph-name="arrowright" unicode="&#x2192;" horiz-adv-x="604" 
d="M20 386h428l-107 127l59 47l184 -215l-184 -214l-59 45l108 129h-429v81z" />
    <glyph glyph-name="arrowdown" unicode="&#x2193;" horiz-adv-x="698" 
d="M389 628v-431l129 108l46 -59l-215 -184l-215 184l47 59l128 -107v430h80z" />
    <glyph glyph-name="arrowboth" unicode="&#x2194;" horiz-adv-x="698" 
d="M494 559l184 -214l-184 -215l-59 46l108 129h-388l108 -128l-59 -46l-184 214l184 215l59 -46l-108 -129h387l-107 128z" />
    <glyph glyph-name="arrowupdn" unicode="&#x2195;" horiz-adv-x="698" 
d="M349 674l215 -184l-47 -59l-128 107v-387l129 108l46 -59l-215 -184l-215 184l47 59l128 -107v387l-129 -108l-46 59z" />
    <glyph glyph-name="uni2196" unicode="&#x2196;" horiz-adv-x="604" 
d="M490 121l-304 302l-14 -166l-75 9l22 282l282 21l10 -74l-168 -14l303 -304z" />
    <glyph glyph-name="uni2197" unicode="&#x2197;" horiz-adv-x="604" 
d="M485 548l22 -282l-75 -9l-14 166l-304 -302l-57 56l304 304l-168 14l10 74z" />
    <glyph glyph-name="uni2198" unicode="&#x2198;" horiz-adv-x="604" 
d="M507 423l-21 -281l-283 -22l-9 74l168 15l-305 304l57 57l304 -304l14 166z" />
    <glyph glyph-name="uni2199" unicode="&#x2199;" horiz-adv-x="604" 
d="M547 513l-305 -304l168 -15l-10 -74l-282 22l-22 281l75 9l14 -166l305 304z" />
    <glyph glyph-name="uni21AF" unicode="&#x21af;" horiz-adv-x="717" 
d="M415 462v-292l129 108l46 -59l-215 -184l-215 184l47 59l127 -107v187l-126 -45v342h81v-240z" />
    <glyph glyph-name="partialdiff" unicode="&#x2202;" horiz-adv-x="612" 
d="M120 673l-32 65q78 59 185 59q135 0 208.5 -97.5t73.5 -293.5q0 -198 -75.5 -307t-210.5 -109q-59 0 -102 20.5t-66.5 56t-34.5 76t-11 87.5q0 118 62 188.5t164 70.5q114 0 177 -89q1 9 1 31q0 130 -49 209.5t-150 79.5q-75 0 -140 -47zM446 306q-17 44 -57 76t-97 32
q-68 0 -104 -48.5t-36 -133.5q0 -77 30 -121.5t92 -44.5q75 0 118.5 66t53.5 174z" />
    <glyph glyph-name="Delta" unicode="&#x2206;" horiz-adv-x="691" 
d="M28 0v58l262 652h114l259 -651v-59h-635zM129 76h425l-211 542z" />
    <glyph glyph-name="product" unicode="&#x220f;" horiz-adv-x="811" 
d="M754 627h-118v-727h-92v727h-276v-727h-93v727h-117v83h696v-83z" />
    <glyph glyph-name="summation" unicode="&#x2211;" horiz-adv-x="602" 
d="M575 -100h-547v55l280 348l-267 347v60h516v-76h-388l247 -321l-266 -333h425v-80z" />
    <glyph glyph-name="minus" unicode="&#x2212;" horiz-adv-x="595" 
d="M525 227h-455v79h455v-79z" />
    <glyph glyph-name="radical" unicode="&#x221a;" horiz-adv-x="769" 
d="M351 -37l210 884h194v-79h-127l-233 -915h-87l-163 454l-85 -33l-25 66l166 63z" />
    <glyph glyph-name="infinity" unicode="&#x221e;" horiz-adv-x="854" 
d="M796 270q0 -84 -51.5 -135t-126.5 -51q-51 0 -89.5 26.5t-102.5 94.5q-55 -63 -99 -92t-96 -29q-72 0 -122.5 50.5t-50.5 130.5q0 81 51.5 132.5t127.5 51.5q53 0 95.5 -28.5t99.5 -94.5q57 64 100.5 93.5t96.5 29.5q72 0 119.5 -49.5t47.5 -129.5zM239 160
q26 0 48.5 12.5t36.5 26t62 64.5q-47 62 -80.5 86.5t-72.5 24.5q-46 0 -70 -28.5t-24 -78.5q0 -51 25.5 -79t74.5 -28zM618 374q-37 0 -66 -24t-80 -80q57 -66 86.5 -88t64.5 -22q48 0 70.5 30t22.5 78q0 106 -98 106z" />
    <glyph glyph-name="integral" unicode="&#x222b;" horiz-adv-x="406" 
d="M380 857l-14 -64q-18 11 -44 11q-47 0 -66 -48.5t-19 -145.5q0 -87 7.5 -258.5t7.5 -250.5q0 -268 -158 -268q-44 0 -68 15l14 63q20 -10 44 -10q47 0 66 49t19 145q0 86 -7.5 258t-7.5 251q0 268 158 268q44 0 68 -15z" />
    <glyph glyph-name="approxequal" unicode="&#x2248;" horiz-adv-x="593" 
d="M501 420l48 -52q-63 -77 -139 -77q-46 0 -115 36.5t-102 36.5q-45 0 -87 -50l-48 52q64 77 139 77q46 0 115 -36.5t102 -36.5q47 0 87 50zM501 220l48 -53q-64 -76 -139 -76q-46 0 -115 36t-102 36q-47 0 -87 -50l-48 53q64 76 139 76q46 0 115 -36t102 -36q49 0 87 50z
" />
    <glyph glyph-name="notequal" unicode="&#x2260;" horiz-adv-x="595" 
d="M517 126h-238l-66 -142l-65 33l50 109h-109v77h144l58 126h-202v78h238l65 142l65 -33l-50 -109h110v-78h-146l-57 -126h203v-77z" />
    <glyph glyph-name="lessequal" unicode="&#x2264;" horiz-adv-x="595" 
d="M479 182l-377 163v79l377 163l27 -69l-318 -133l318 -133zM499 44h-397v73h397v-73z" />
    <glyph glyph-name="greaterequal" unicode="&#x2265;" horiz-adv-x="595" 
d="M116 587l377 -164v-78l-377 -163l-27 69l319 132l-319 134zM96 117h397v-73h-397v73z" />
    <glyph glyph-name="lozenge" unicode="&#x25ca;" horiz-adv-x="636" 
d="M578 345l-217 -402h-88l-215 402l217 402h88zM480 342l-163 313l-161 -308l162 -312z" />
    <glyph glyph-name="uni2639" unicode="&#x2639;" horiz-adv-x="852" 
d="M58 345q0 155 102.5 262t265.5 107q162 0 265 -107t103 -262t-103.5 -262t-265.5 -107q-163 0 -265 106.5t-102 262.5zM141 343q0 -126 77.5 -207t206.5 -81t207.5 81.5t78.5 207.5q0 127 -78 208.5t-207 81.5q-128 0 -206.5 -82.5t-78.5 -208.5zM254 156l-68 54
q36 64 93.5 91t146.5 27t147 -27.5t93 -90.5l-68 -54q-35 46 -67.5 62t-104.5 16q-73 0 -105 -16t-67 -62zM314 507q28 0 46 -18.5t18 -47.5t-18 -48t-46 -19t-46 19t-18 48t18 47.5t46 18.5zM539 507q27 0 45 -19t18 -47q0 -29 -18 -48t-45 -19q-28 0 -46 19t-18 48
t18 47.5t46 18.5z" />
    <glyph glyph-name="smileface" unicode="&#x263a;" horiz-adv-x="852" 
d="M598 320l68 -54q-36 -64 -93 -91t-146 -27t-147.5 27.5t-93.5 90.5l68 54q35 -46 68 -62t105 -16q73 0 105 16t66 62zM314 507q28 0 46 -18.5t18 -47.5t-18 -48t-46 -19q-27 0 -45.5 19t-18.5 47q0 29 18 48t46 19zM539 507q28 0 46 -18.5t18 -47.5t-18 -48t-46 -19
t-46 19t-18 48t18 47.5t46 18.5zM58 345q0 155 102.5 262t265.5 107q162 0 265 -107t103 -262t-103.5 -262t-265.5 -107q-163 0 -265 106.5t-102 262.5zM141 343q0 -126 77.5 -207t206.5 -81t207.5 81.5t78.5 207.5q0 127 -78 208.5t-207 81.5q-128 0 -206.5 -82.5
t-78.5 -208.5z" />
    <glyph glyph-name="Abrevesmall" unicode="&#xe000;" horiz-adv-x="522" 
d="M497 0h-96l-42 122h-208l-42 -122h-93l186 532h110zM339 196l-83 245l-84 -245h167zM352 769h75q-5 -71 -50 -114.5t-115 -43.5t-116 43.5t-50 114.5h76q4 -42 28 -68t62 -26t61.5 25.5t28.5 68.5z" />
    <glyph glyph-name="Amacronsmall" unicode="&#xe001;" horiz-adv-x="522" 
d="M497 0h-96l-42 122h-208l-42 -122h-93l186 532h110zM339 196l-83 245l-84 -245h167zM408 647h-294v76h294v-76z" />
    <glyph glyph-name="Aogoneksmall" unicode="&#xe002;" horiz-adv-x="519" 
d="M496 0q-120 -47 -120 -93q0 -29 35 -29q33 0 58 30l41 -42q-37 -47 -103 -47q-49 0 -75 22t-26 59q0 60 92 105l-40 117h-208l-42 -122h-93l186 532h110zM338 196l-83 245l-84 -245h167z" />
    <glyph glyph-name="Cacutesmall" unicode="&#xe003;" horiz-adv-x="490" 
d="M399 128l53 -55q-70 -82 -187 -82q-93 0 -143 50q-65 64 -65 220q0 158 65 224q54 56 159 56q106 0 163 -60l-50 -60q-45 42 -117 42q-68 0 -96 -37q-31 -41 -31 -165q0 -123 36 -162q26 -31 81 -31q77 0 132 60zM238 590l-54 47l146 176l61 -52z" />
    <glyph glyph-name="Ccaronsmall" unicode="&#xe004;" horiz-adv-x="490" 
d="M399 128l53 -55q-70 -82 -187 -82q-93 0 -143 50q-65 64 -65 220q0 158 65 224q54 56 159 56q106 0 163 -60l-50 -60q-45 42 -117 42q-68 0 -96 -37q-31 -41 -31 -165q0 -123 36 -162q26 -31 81 -31q77 0 132 60zM412 736l-141 -148l-138 147l48 49l91 -96l92 96z" />
    <glyph glyph-name="Ccircumflexsmall" unicode="&#xe005;" horiz-adv-x="490" 
d="M399 128l53 -55q-70 -82 -187 -82q-93 0 -143 50q-65 64 -65 220q0 158 65 224q54 56 159 56q106 0 163 -60l-50 -60q-45 42 -117 42q-68 0 -96 -37q-31 -41 -31 -165q0 -123 36 -162q26 -31 81 -31q77 0 132 60zM133 648l140 148l139 -147l-49 -48l-91 95l-92 -96z" />
    <glyph glyph-name="Cdotaccentsmall" unicode="&#xe006;" horiz-adv-x="490" 
d="M399 128l53 -55q-70 -82 -187 -82q-93 0 -143 50q-65 64 -65 220q0 158 65 224q54 56 159 56q106 0 163 -60l-50 -60q-45 42 -117 42q-68 0 -96 -37q-31 -41 -31 -165q0 -123 36 -162q26 -31 81 -31q77 0 132 60zM218 685q0 23 15.5 39t37.5 16q23 0 39 -16t16 -39
q0 -22 -16 -37.5t-39 -15.5q-22 0 -37.5 15.5t-15.5 37.5z" />
    <glyph glyph-name="Dcaronsmall" unicode="&#xe007;" horiz-adv-x="560" 
d="M78 532h197q109 0 164 -49q35 -32 48.5 -83.5t13.5 -131.5q0 -158 -66 -218q-55 -50 -157 -50h-200v532zM168 454v-376h104q68 0 100 32q36 36 36 154q0 124 -38 161q-31 29 -98 29h-104zM406 736l-141 -148l-138 147l48 49l91 -96l92 96z" />
    <glyph glyph-name="Dcroatsmall" unicode="&#xe008;" horiz-adv-x="569" 
d="M88 532h198q111 0 165 -54q59 -58 59 -208q0 -147 -58 -211q-56 -59 -165 -59h-199v233h-55v78h55v221zM176 454v-143h103v-78h-103v-156h106q79 0 107 40q27 36 27 149q0 121 -30 156q-29 32 -103 32h-107z" />
    <glyph glyph-name="E.alt" unicode="&#xe009;" horiz-adv-x="542" 
d="M474 103l18 -76q-55 -37 -160 -37q-141 0 -209 82q-38 46 -51.5 112t-13.5 161q0 85 11.5 147t46.5 111q71 98 225 98q91 0 146 -26l-18 -79q-51 22 -132 22q-99 0 -140 -49q-38 -45 -41 -173h293v-85h-293q3 -144 41 -189q39 -49 137 -49q88 0 140 30z" />
    <glyph glyph-name="E.altsmall" unicode="&#xe00a;" horiz-adv-x="467" 
d="M398 91l16 -72q-49 -27 -133 -27q-116 0 -171 62q-53 60 -53 208q0 142 48 204q58 74 185 74q77 0 120 -20l-16 -73q-41 15 -106 15q-78 0 -109 -34q-27 -30 -30 -117h230v-79h-231q3 -96 31 -129q31 -34 105 -34q70 0 114 22z" />
    <glyph glyph-name="Ebrevesmall" unicode="&#xe00b;" horiz-adv-x="457" 
d="M78 532h311v-77h-223v-146h204v-77h-204v-156h227v-76h-315v532zM331 769h75q-5 -71 -50 -114.5t-115 -43.5t-116 43.5t-50 114.5h76q4 -42 28 -68t62 -26t61.5 25.5t28.5 68.5z" />
    <glyph glyph-name="Ecaronsmall" unicode="&#xe00c;" horiz-adv-x="457" 
d="M78 532h311v-77h-223v-146h204v-77h-204v-156h227v-76h-315v532zM380 736l-141 -148l-138 147l48 49l91 -96l92 96z" />
    <glyph glyph-name="Edotaccentsmall" unicode="&#xe00d;" horiz-adv-x="457" 
d="M78 532h311v-77h-223v-146h204v-77h-204v-156h227v-76h-315v532zM186 685q0 23 15.5 39t37.5 16q23 0 39 -16t16 -39q0 -22 -16 -37.5t-39 -15.5q-22 0 -37.5 15.5t-15.5 37.5z" />
    <glyph glyph-name="Emacronsmall" unicode="&#xe00e;" horiz-adv-x="457" 
d="M78 532h311v-77h-223v-146h204v-77h-204v-156h227v-76h-315v532zM387 647h-294v76h294v-76z" />
    <glyph glyph-name="Eogoneksmall" unicode="&#xe00f;" horiz-adv-x="457" 
d="M79 532h311v-77h-223v-146h204v-77h-204v-156h226v-76q-61 -15 -95 -41.5t-34 -52.5q0 -28 35 -28q34 0 58 30l41 -42q-38 -47 -103 -47q-48 0 -74.5 22t-26.5 58q0 61 86 101h-201v532z" />
    <glyph glyph-name="Euro.alt" unicode="&#xe010;" 
d="M501 136v-92q-69 -54 -168 -54q-126 0 -191 88q-57 77 -62 232h-85l18 82h67q5 150 56 225q67 99 213 99q102 0 166 -43l-27 -80q-59 41 -143 41q-52 0 -85.5 -15t-51 -49t-23.5 -74t-7 -104h260l-20 -82h-239q3 -124 34.5 -181.5t115.5 -57.5q92 0 172 65z" />
    <glyph glyph-name="Euro.alt.fitted" unicode="&#xe011;" horiz-adv-x="621" 
d="M553 136v-92q-77 -54 -183 -54q-131 0 -202 89q-61 75 -68 231h-92l19 82h73q5 146 60 224q72 100 228 100q110 0 178 -43l-27 -80q-63 41 -157 41q-108 0 -145 -57.5t-39 -184.5h285l-20 -82h-264q4 -124 39.5 -181.5t127.5 -57.5q100 0 187 65z" />
    <glyph glyph-name="Euro.alt.fitted.oldstyle" unicode="&#xe012;" horiz-adv-x="575" 
d="M509 124v-86q-67 -46 -163 -46q-120 0 -183 78q-54 65 -61 199h-83l19 78h64q5 125 54 191q65 89 206 89q98 0 160 -37l-26 -75q-58 35 -139 35q-50 0 -82 -13t-48.5 -41t-23 -62t-7.5 -87h251l-19 -78h-232q4 -105 35 -153t112 -48q90 0 166 56z" />
    <glyph glyph-name="Euro.alt.taboldstyle" unicode="&#xe013;" horiz-adv-x="534" 
d="M466 124v-86q-63 -46 -153 -46q-112 0 -172 78q-51 66 -56 199h-77l18 78h59q5 125 50 191q61 89 194 89q93 0 149 -37l-25 -75q-55 35 -129 35q-45 0 -74 -13t-44 -41t-21 -62t-7 -87h231l-18 -78h-212q3 -105 31 -153t101 -48q84 0 155 56z" />
    <glyph glyph-name="Euro.fitted" unicode="&#xe014;" horiz-adv-x="599" 
d="M439 291l-20 -78h-219q12 -74 46.5 -108.5t105.5 -34.5q93 0 178 63v-91q-73 -52 -176 -52q-151 0 -216 114q-24 45 -36 109h-88l20 78h61q-1 19 -1 51q0 29 1 44h-81l20 77h67q12 84 48 137q67 100 225 100q103 0 169 -40l-25 -78q-64 37 -152 37q-84 0 -122 -37.5
t-47 -118.5h288l-20 -77h-273v-35q0 -42 1 -60h246z" />
    <glyph glyph-name="Euro.fitted.oldstyle" unicode="&#xe015;" horiz-adv-x="556" 
d="M408 257l-19 -70h-193q11 -62 41.5 -91t92.5 -29q84 0 159 53v-84q-65 -44 -158 -44q-136 0 -193 97q-24 39 -34 98h-79l18 70h54q-1 16 -1 43q0 25 1 37h-72l18 71h60q12 76 44 120q62 86 202 86q93 0 153 -34l-24 -74q-58 32 -135 32q-74 0 -107 -31t-42 -99h255
l-19 -71h-241q0 -53 1 -80h218z" />
    <glyph glyph-name="G.alt" unicode="&#xe016;" horiz-adv-x="649" 
d="M336 373h237v-373h-86l2 108q-21 -54 -72 -87t-126 -33q-116 0 -173 78q-60 79 -60 262q0 103 12.5 171t54.5 118q70 83 225 83q143 0 212 -72l-55 -66q-62 56 -167 56q-106 0 -147 -54q-23 -31 -30 -85.5t-7 -147.5q0 -158 32 -211q31 -52 111 -52q173 0 186 225h-149
v80z" />
    <glyph glyph-name="G.altsmall" unicode="&#xe017;" horiz-adv-x="551" 
d="M284 293h196v-293h-81l1 78q-17 -39 -57.5 -63t-99.5 -24q-89 0 -136 58q-50 60 -50 210q0 153 55 215q57 65 185 65q119 0 175 -55l-52 -62q-48 39 -130 39q-84 0 -112 -37q-28 -36 -28 -166q0 -122 24 -157q23 -35 83 -35q128 0 142 154h-115v73z" />
    <glyph glyph-name="Gbrevesmall" unicode="&#xe018;" horiz-adv-x="551" 
d="M282 289h198v-266q-81 -30 -181 -30q-121 0 -178 54q-37 36 -50.5 87t-13.5 126q0 160 65 222q59 57 175 57q115 0 176 -55l-51 -63q-50 41 -132 41q-73 0 -104 -33q-35 -36 -35 -164q0 -136 37 -170q32 -30 106 -30q59 0 102 12v138h-114v74zM390 769h75
q-5 -71 -50 -114.5t-115 -43.5t-116 43.5t-50 114.5h76q4 -42 28 -68t62 -26t61.5 25.5t28.5 68.5z" />
    <glyph glyph-name="Gcircumflexsmall" unicode="&#xe019;" horiz-adv-x="551" 
d="M282 289h198v-266q-81 -30 -181 -30q-121 0 -178 54q-37 36 -50.5 87t-13.5 126q0 160 65 222q59 57 175 57q115 0 176 -55l-51 -63q-50 41 -132 41q-73 0 -104 -33q-35 -36 -35 -164q0 -136 37 -170q32 -30 106 -30q59 0 102 12v138h-114v74zM160 648l140 148l139 -147
l-49 -48l-91 95l-92 -96z" />
    <glyph glyph-name="Gcommaaccentsmall" unicode="&#xe01a;" horiz-adv-x="551" 
d="M282 289h198v-266q-81 -30 -181 -30q-121 0 -178 54q-37 36 -50.5 87t-13.5 126q0 160 65 222q59 57 175 57q115 0 176 -55l-51 -63q-50 41 -132 41q-73 0 -104 -33q-35 -36 -35 -164q0 -136 37 -170q32 -30 106 -30q59 0 102 12v138h-114v74zM256 -104q0 24 14.5 40
t40.5 16t41 -16t15 -45q0 -61 -75 -177l-53 30q34 63 46 104q-29 11 -29 48z" />
    <glyph glyph-name="Gdotaccentsmall" unicode="&#xe01b;" horiz-adv-x="551" 
d="M282 289h198v-266q-81 -30 -181 -30q-121 0 -178 54q-37 36 -50.5 87t-13.5 126q0 160 65 222q59 57 175 57q115 0 176 -55l-51 -63q-50 41 -132 41q-73 0 -104 -33q-35 -36 -35 -164q0 -136 37 -170q32 -30 106 -30q59 0 102 12v138h-114v74zM245 685q0 23 15.5 39
t37.5 16t38.5 -16t16.5 -39q0 -22 -16 -37.5t-39 -15.5q-22 0 -37.5 15.5t-15.5 37.5z" />
    <glyph glyph-name="Hbarsmall" unicode="&#xe01c;" horiz-adv-x="599" 
d="M92 532h89v-89h233v89h88v-89h98v-63h-98v-380h-88v232h-233v-232h-89v380h-97v63h97v89zM181 311h233v69h-233v-69z" />
    <glyph glyph-name="Hcircumflexsmall" unicode="&#xe01d;" horiz-adv-x="572" 
d="M78 532h89v-221h233v221h89v-532h-89v232h-233v-232h-89v532zM147 648l140 148l139 -147l-49 -48l-91 95l-92 -96z" />
    <glyph glyph-name="Idotaccentsmall" unicode="&#xe01e;" horiz-adv-x="259" 
d="M78 532h89v-532h-89v532zM75 685q0 23 15.5 39t37.5 16t38.5 -16t16.5 -39q0 -22 -16 -37.5t-39 -15.5q-22 0 -37.5 15.5t-15.5 37.5z" />
    <glyph glyph-name="Imacronsmall" unicode="&#xe01f;" horiz-adv-x="259" 
d="M78 532h89v-532h-89v532zM276 647h-294v76h294v-76z" />
    <glyph glyph-name="Iogoneksmall" unicode="&#xe020;" horiz-adv-x="259" 
d="M179 -91l42 -44q-39 -46 -100 -46q-51 0 -77.5 24t-26.5 64q0 54 62 100v525h89v-532q-80 -39 -80 -85q0 -37 37 -37q29 0 54 31z" />
    <glyph glyph-name="Itildesmall" unicode="&#xe021;" horiz-adv-x="259" 
d="M78 532h89v-532h-89v532zM253 755l42 -49q-50 -62 -107 -62q-26 0 -66.5 16.5t-56.5 16.5q-33 0 -60 -35l-42 48q49 63 107 63q26 0 66.5 -16.5t56.5 -16.5q33 0 60 35z" />
    <glyph glyph-name="J.alt" unicode="&#xe022;" horiz-adv-x="441" 
d="M264 690h93v-488q0 -211 -194 -211q-97 0 -147 50l50 63q37 -33 96 -33q34 0 56 10.5t31.5 32.5t12 41.5t2.5 50.5v484z" />
    <glyph glyph-name="J.altsmall" unicode="&#xe023;" horiz-adv-x="403" 
d="M223 532h89v-367q0 -172 -165 -172q-81 0 -123 41l47 61q29 -25 75 -25q26 0 42.5 7.5t23.5 23.5t9 29.5t2 36.5v365z" />
    <glyph glyph-name="Kcommaaccentsmall" unicode="&#xe024;" horiz-adv-x="545" 
d="M78 532h89v-218h54l171 218h104l-200 -258l214 -274h-108l-183 230h-52v-230h-89v532zM218 -104q0 24 14.5 40t40.5 16t41 -16t15 -45q0 -61 -75 -177l-53 30q34 63 46 104q-29 11 -29 48z" />
    <glyph glyph-name="Lacutesmall" unicode="&#xe025;" horiz-adv-x="425" 
d="M78 532h89v-453h224v-79h-313v532zM133 539l-54 47l146 176l61 -52z" />
    <glyph glyph-name="Lcaronsmall" unicode="&#xe026;" horiz-adv-x="425" 
d="M78 532h89v-453h224v-79h-313v532zM235 529q0 25 16.5 42.5t42.5 17.5q27 0 43.5 -17.5t16.5 -44.5q0 -71 -80 -194l-58 33q40 75 50 111q-31 13 -31 52z" />
    <glyph glyph-name="Lcommaaccentsmall" unicode="&#xe027;" horiz-adv-x="425" 
d="M78 532h89v-453h224v-79h-313v532zM185 -104q0 24 14.5 40t40.5 16t41 -16t15 -45q0 -61 -75 -177l-53 30q34 63 46 104q-29 11 -29 48z" />
    <glyph glyph-name="Nacutesmall" unicode="&#xe028;" horiz-adv-x="600" 
d="M78 532h117l238 -413l-3 413h87v-532h-117l-238 412l3 -412h-87v532zM283 590l-54 47l146 176l61 -52z" />
    <glyph glyph-name="Ncaronsmall" unicode="&#xe029;" horiz-adv-x="600" 
d="M78 532h117l238 -413l-3 413h87v-532h-117l-238 412l3 -412h-87v532zM457 736l-141 -148l-138 147l48 49l91 -96l92 96z" />
    <glyph glyph-name="Ncommaaccentsmall" unicode="&#xe02a;" horiz-adv-x="600" 
d="M78 532h117l238 -413l-3 413h87v-532h-117l-238 412l3 -412h-87v532zM253 -104q0 24 14.5 40t40.5 16t41 -16t15 -45q0 -61 -75 -177l-53 30q34 63 46 104q-29 11 -29 48z" />
    <glyph glyph-name="Obrevesmall" unicode="&#xe02b;" horiz-adv-x="581" 
d="M523 271q0 -155 -66 -222q-60 -60 -172 -60q-113 0 -169 59q-59 63 -59 212q0 157 66 223q59 59 172 59q111 0 167 -58q61 -62 61 -213zM427 268q0 129 -37 167q-32 32 -98 32t-101 -35q-39 -42 -39 -171t38 -166q30 -30 97 -30q69 0 102 35q38 39 38 168zM381 769h75
q-5 -71 -50 -114.5t-115 -43.5t-116 43.5t-50 114.5h76q4 -42 28 -68t62 -26t61.5 25.5t28.5 68.5z" />
    <glyph glyph-name="Ohungarumlautsmall" unicode="&#xe02c;" horiz-adv-x="581" 
d="M523 271q0 -155 -66 -222q-60 -60 -172 -60q-113 0 -169 59q-59 63 -59 212q0 157 66 223q59 59 172 59q111 0 167 -58q61 -62 61 -213zM427 268q0 129 -37 167q-32 32 -98 32t-101 -35q-39 -42 -39 -171t38 -166q30 -30 97 -30q69 0 102 35q38 39 38 168zM190 590
l-49 43l143 173l56 -48zM380 590l-48 43l142 173l56 -48z" />
    <glyph glyph-name="Omacronsmall" unicode="&#xe02d;" horiz-adv-x="581" 
d="M523 271q0 -155 -66 -222q-60 -60 -172 -60q-113 0 -169 59q-59 63 -59 212q0 157 66 223q59 59 172 59q111 0 167 -58q61 -62 61 -213zM427 268q0 129 -37 167q-32 32 -98 32t-101 -35q-39 -42 -39 -171t38 -166q30 -30 97 -30q69 0 102 35q38 39 38 168zM437 647h-294
v76h294v-76z" />
    <glyph glyph-name="Oslash.alt" unicode="&#xe02e;" horiz-adv-x="685" 
d="M654 712l-81 -110q53 -82 53 -248q0 -201 -80 -289q-72 -79 -209 -79q-99 0 -161 39l-67 -98l-79 54l81 110q-51 79 -51 245q0 197 74 284q74 84 215 84q95 0 158 -38l69 99zM526 350q0 167 -44 223q-41 51 -134 51q-106 0 -149 -64q-39 -59 -39 -221q0 -165 42 -221
q40 -52 136 -52q107 0 149 66q39 61 39 218z" />
    <glyph glyph-name="Oslash.altsmall" unicode="&#xe02f;" horiz-adv-x="583" 
d="M547 543l-63 -84q40 -61 40 -187q0 -158 -67 -224q-59 -59 -171 -59q-75 0 -127 27l-52 -76l-74 50l64 84q-39 61 -39 185q0 155 61 220q60 63 177 63q75 0 124 -26l54 78zM429 268q0 123 -34 163q-31 36 -100 36q-79 0 -112 -45q-30 -42 -30 -160q0 -122 33 -161
q29 -36 101 -36q80 0 112 46q30 43 30 157z" />
    <glyph glyph-name="Racutesmall" unicode="&#xe030;" horiz-adv-x="528" 
d="M78 532h199q79 0 122 -28q56 -35 56 -117q0 -120 -114 -145q51 -11 75 -64t45 -178h-94q-25 125 -45.5 165t-68.5 40h-86v-205h-89v532zM167 455v-174h69q64 0 95 20.5t31 76.5q0 44 -21 62q-18 15 -67 15h-107zM227 590l-54 47l146 176l61 -52z" />
    <glyph glyph-name="Rcaronsmall" unicode="&#xe031;" horiz-adv-x="528" 
d="M78 532h199q79 0 122 -28q56 -35 56 -117q0 -120 -114 -145q51 -11 75 -64t45 -178h-94q-25 125 -45.5 165t-68.5 40h-86v-205h-89v532zM167 455v-174h69q64 0 95 20.5t31 76.5q0 44 -21 62q-18 15 -67 15h-107zM401 736l-141 -148l-138 147l48 49l91 -96l92 96z" />
    <glyph glyph-name="Rcommaaccentsmall" unicode="&#xe032;" horiz-adv-x="528" 
d="M78 532h199q79 0 122 -28q56 -35 56 -117q0 -120 -114 -145q51 -11 75 -64t45 -178h-94q-25 125 -45.5 165t-68.5 40h-86v-205h-89v532zM167 455v-174h69q64 0 95 20.5t31 76.5q0 44 -21 62q-18 15 -67 15h-107zM215 -104q0 24 14.5 40t40.5 16t41 -16t15 -45
q0 -61 -75 -177l-53 30q34 63 46 104q-29 11 -29 48z" />
    <glyph glyph-name="Sacutesmall" unicode="&#xe033;" horiz-adv-x="456" 
d="M389 496l-42 -64q-51 32 -122 32q-89 0 -89 -70q0 -28 27.5 -47t67 -32t79 -29.5t67 -51.5t27.5 -87q0 -79 -62 -121q-55 -35 -135 -35q-113 0 -169 52l45 66q53 -42 137 -42q94 0 94 76q0 32 -27.5 52.5t-67 33.5t-79 29t-67 49.5t-27.5 84.5q0 70 55 108q55 40 135 40
q98 0 153 -44zM197 590l-54 47l146 176l61 -52z" />
    <glyph glyph-name="Scedillasmall" unicode="&#xe034;" horiz-adv-x="456" 
d="M389 496l-42 -64q-51 32 -122 32q-89 0 -89 -70q0 -28 27.5 -47t67 -32t79 -29.5t67 -51.5t27.5 -87q0 -79 -62 -121q-45 -28 -107 -33l-3 -41q68 -27 68 -83q0 -44 -28.5 -73.5t-79.5 -29.5q-69 0 -108 57l42 43q25 -38 60 -38q19 0 31.5 10.5t12.5 29.5q0 37 -67 54
l7 71q-89 9 -132 50l45 66q53 -42 137 -42q94 0 94 76q0 32 -27.5 52.5t-67 33.5t-79 29t-67 49.5t-27.5 84.5q0 70 55 108q55 40 135 40q98 0 153 -44z" />
    <glyph glyph-name="Scircumflexsmall" unicode="&#xe035;" horiz-adv-x="456" 
d="M389 496l-42 -64q-51 32 -122 32q-89 0 -89 -70q0 -28 27.5 -47t67 -32t79 -29.5t67 -51.5t27.5 -87q0 -79 -62 -121q-55 -35 -135 -35q-113 0 -169 52l45 66q53 -42 137 -42q94 0 94 76q0 32 -27.5 52.5t-67 33.5t-79 29t-67 49.5t-27.5 84.5q0 70 55 108q55 40 135 40
q98 0 153 -44zM92 648l140 148l139 -147l-49 -48l-91 95l-92 -96z" />
    <glyph glyph-name="Scommaaccentsmall" unicode="&#xe036;" horiz-adv-x="456" 
d="M389 496l-42 -64q-51 32 -122 32q-89 0 -89 -70q0 -28 27.5 -47t67 -32t79 -29.5t67 -51.5t27.5 -87q0 -79 -62 -121q-55 -35 -135 -35q-113 0 -169 52l45 66q53 -42 137 -42q94 0 94 76q0 32 -27.5 52.5t-67 33.5t-79 29t-67 49.5t-27.5 84.5q0 70 55 108q55 40 135 40
q98 0 153 -44zM178 -104q0 24 14.5 40t40.5 16t41 -16t15 -45q0 -61 -75 -177l-53 30q34 63 46 104q-29 11 -29 48z" />
    <glyph glyph-name="Tcaronsmall" unicode="&#xe037;" horiz-adv-x="460" 
d="M23 532h418v-80h-164v-452h-89v452h-165v80zM370 736l-141 -148l-138 147l48 49l91 -96l92 96z" />
    <glyph glyph-name="Tcommaaccentsmall" unicode="&#xe038;" horiz-adv-x="460" 
d="M23 532h418v-80h-164v-452h-89v452h-165v80zM178 -104q0 24 14.5 40t40.5 16t41 -16t15 -45q0 -61 -75 -177l-53 30q34 63 46 104q-29 11 -29 48z" />
    <glyph glyph-name="U.alt" unicode="&#xe039;" horiz-adv-x="665" 
d="M581 0h-88v129q-43 -142 -204 -142q-103 0 -154 60.5t-51 164.5v478h93v-463q0 -80 25.5 -119t98.5 -39q94 0 140.5 67.5t46.5 211.5v342h93v-690z" />
    <glyph glyph-name="U.altsmall" unicode="&#xe03a;" horiz-adv-x="568" 
d="M488 0h-82v94q-36 -104 -162 -104q-84 0 -125 47t-41 129v366h89v-353q0 -57 19 -84t74 -27q139 0 139 196v268h89v-532z" />
    <glyph glyph-name="Ubrevesmall" unicode="&#xe03b;" horiz-adv-x="574" 
d="M78 532h89v-345q0 -64 21 -91.5t98 -27.5q75 0 97 27.5t22 92.5v344h89v-342q0 -90 -39 -137q-52 -62 -172 -62q-115 0 -165 57q-40 44 -40 139v345zM378 769h75q-5 -71 -50 -114.5t-115 -43.5t-116 43.5t-50 114.5h76q4 -42 28 -68t62 -26t61.5 25.5t28.5 68.5z" />
    <glyph glyph-name="Uhungarumlautsmall" unicode="&#xe03c;" horiz-adv-x="574" 
d="M78 532h89v-345q0 -64 21 -91.5t98 -27.5q75 0 97 27.5t22 92.5v344h89v-342q0 -90 -39 -137q-52 -62 -172 -62q-115 0 -165 57q-40 44 -40 139v345zM187 590l-49 43l143 173l56 -48zM377 590l-48 43l142 173l56 -48z" />
    <glyph glyph-name="Umacronsmall" unicode="&#xe03d;" horiz-adv-x="574" 
d="M78 532h89v-345q0 -64 21 -91.5t98 -27.5q75 0 97 27.5t22 92.5v344h89v-342q0 -90 -39 -137q-52 -62 -172 -62q-115 0 -165 57q-40 44 -40 139v345zM434 647h-294v76h294v-76z" />
    <glyph glyph-name="Uogoneksmall" unicode="&#xe03e;" horiz-adv-x="576" 
d="M79 532h89v-345q0 -64 21 -91.5t98 -27.5q75 0 96.5 27t21.5 93v344h89v-342q0 -91 -38 -137q-27 -32 -76 -48q-49 -23 -75 -49t-26 -48q0 -30 36 -30q33 0 56 31l43 -44q-40 -46 -103 -46q-48 0 -75.5 22.5t-27.5 57.5q0 51 54 93q-100 6 -144 56q-39 44 -39 139v345z
" />
    <glyph glyph-name="Uringsmall" unicode="&#xe03f;" horiz-adv-x="574" 
d="M78 532h89v-345q0 -64 21 -91.5t98 -27.5q75 0 97 27.5t22 92.5v344h89v-342q0 -90 -39 -137q-52 -62 -172 -62q-115 0 -165 57q-40 44 -40 139v345zM404 718q0 -48 -33 -78.5t-84 -30.5t-84 30.5t-33 78.5t32.5 78.5t84.5 30.5q51 0 84 -30.5t33 -78.5zM336 718
q0 24 -14 37.5t-35 13.5q-22 0 -35.5 -14t-13.5 -38t14 -37t35 -13t35 14t14 37z" />
    <glyph glyph-name="Utildesmall" unicode="&#xe040;" horiz-adv-x="574" 
d="M78 532h89v-345q0 -64 21 -91.5t98 -27.5q75 0 97 27.5t22 92.5v344h89v-342q0 -90 -39 -137q-52 -62 -172 -62q-115 0 -165 57q-40 44 -40 139v345zM411 755l42 -49q-50 -62 -107 -62q-26 0 -66.5 16.5t-56.5 16.5q-33 0 -60 -35l-42 48q49 63 107 63q26 0 66.5 -16.5
t56.5 -16.5q33 0 60 35z" />
    <glyph glyph-name="Wcircumflexsmall" unicode="&#xe041;" horiz-adv-x="755" 
d="M28 532h91l98 -429l112 413h97l112 -412l99 428h89l-134 -532h-104l-112 409l-113 -409h-104zM239 648l140 148l139 -147l-49 -48l-91 95l-92 -96z" />
    <glyph glyph-name="Y.alt" unicode="&#xe042;" horiz-adv-x="601" 
d="M587 690l-227 -695q-45 -138 -101.5 -187t-130.5 -49q-61 0 -91 22l33 80q25 -14 59 -14q52 0 86.5 35t60.5 118h-24l-238 690h102l193 -585l179 585h99z" />
    <glyph glyph-name="Y.altsmall" unicode="&#xe043;" horiz-adv-x="525" 
d="M495 532l-179 -526q-37 -107 -84.5 -148.5t-111.5 -41.5q-50 0 -78 18l30 74q21 -11 49 -11q41 0 67.5 25t45.5 82h-24l-188 528l97 -1l146 -430l136 431h94z" />
    <glyph glyph-name="Ycircumflexsmall" unicode="&#xe044;" horiz-adv-x="477" 
d="M14 532h102l116 -236l118 236h102l-177 -327v-205h-89v205zM100 648l140 148l139 -147l-49 -48l-91 95l-92 -96z" />
    <glyph glyph-name="Zacutesmall" unicode="&#xe045;" horiz-adv-x="468" 
d="M415 530v-76l-269 -377l276 1v-78h-381v75l268 377h-261v78h367zM202 590l-54 47l146 176l61 -52z" />
    <glyph glyph-name="Zdotaccentsmall" unicode="&#xe046;" horiz-adv-x="468" 
d="M415 530v-76l-269 -377l276 1v-78h-381v75l268 377h-261v78h367zM182 685q0 23 15.5 39t37.5 16q23 0 39 -16t16 -39q0 -22 -16 -37.5t-39 -15.5q-22 0 -37.5 15.5t-15.5 37.5z" />
    <glyph glyph-name="a.alt" unicode="&#xe047;" horiz-adv-x="564" 
d="M402 499h81v-499h-87v87q-24 -45 -69 -71.5t-97 -26.5q-68 0 -112 44q-59 60 -59 206q0 149 60 214q53 56 133 56q100 0 149 -80zM249 68q53 0 93 41q54 55 54 155q0 85 -38 128q-33 38 -93 38q-66 0 -88.5 -46t-22.5 -138q0 -89 20 -133.5t75 -44.5z" />
    <glyph glyph-name="approxequal.cap" unicode="&#xe048;" horiz-adv-x="593" 
d="M501 498l48 -52q-64 -77 -139 -77q-46 0 -115 36.5t-102 36.5q-47 0 -87 -50l-48 52q63 77 139 77q46 0 115 -36t102 -36q48 0 87 49zM501 298l48 -52q-63 -77 -139 -77q-37 0 -76.5 18t-75.5 36t-65 18q-46 0 -87 -49l-48 52q64 77 139 77q46 0 115 -36.5t102 -36.5
q47 0 87 50z" />
    <glyph glyph-name="asciitilde.cap" unicode="&#xe049;" horiz-adv-x="595" 
d="M489 400l51 -51q-64 -78 -138 -78q-44 0 -112.5 33.5t-99.5 33.5q-46 0 -84 -48l-50 51q62 78 137 78q44 0 112.5 -34t99.5 -34q45 0 84 49z" />
    <glyph glyph-name="atsmall" unicode="&#xe04a;" horiz-adv-x="719" 
d="M535 170q25 0 40.5 31.5t15.5 85.5q0 101 -55.5 158t-167.5 57q-113 0 -174.5 -59t-61.5 -176q0 -230 259 -230q148 0 227 70l44 -46q-44 -42 -115.5 -66.5t-160.5 -24.5q-160 0 -244.5 80t-84.5 216q0 140 85.5 223t228.5 83q138 0 217 -76.5t79 -194.5
q0 -83 -38.5 -137t-106.5 -54q-69 0 -83 58q-40 -60 -113 -60q-48 0 -78 26t-30 70q0 99 161 99h39v13q0 30 -12.5 41t-46.5 11q-57 0 -86 -25l-40 51q43 38 129 38q70 0 103 -29.5t33 -94.5v-65q0 -73 37 -73zM419 250h-40q-25 0 -39 -2t-25.5 -12t-11.5 -29q0 -36 36 -36
q29 0 53 22.5t27 56.5z" />
    <glyph glyph-name="cent.fitted" unicode="&#xe04b;" horiz-adv-x="542" 
d="M334 765l-1 -109q93 -8 150 -68l-55 -62q-49 49 -128 49q-86 0 -114 -50t-28 -168q0 -120 26.5 -172t99.5 -52q93 0 151 78l59 -57q-57 -80 -161 -97l1 -112h-95v111q-82 13 -128 77q-52 72 -52 218q0 152 57 226q44 58 123 74v114h95z" />
    <glyph glyph-name="cent.fitted.oldstyle" unicode="&#xe04c;" horiz-adv-x="511" 
d="M316 671l-1 -95q84 -8 134 -60l-52 -59q-49 42 -113 42q-75 0 -100 -43t-25 -143q0 -102 23 -146t87 -44q81 0 134 66l55 -55q-52 -69 -143 -84l1 -98h-91l1 97q-73 12 -113 66q-48 64 -48 193q0 135 52 199q40 50 109 64l-1 100h91z" />
    <glyph glyph-name="colon.cap" unicode="&#xe04d;" horiz-adv-x="236" 
d="M59 165q0 24 17 41t42 17t42 -16.5t17 -41.5t-17 -42t-42 -17t-42 17t-17 42zM59 525q0 25 17 42t42 17t42 -17t17 -42t-17 -41.5t-42 -16.5t-42 16.5t-17 41.5z" />
    <glyph glyph-name="colonsmall" unicode="&#xe04e;" horiz-adv-x="244" 
d="M59 131q0 23 15.5 38.5t38.5 15.5t39 -15.5t16 -38.5t-16 -38.5t-39 -15.5t-38.5 15.5t-15.5 38.5zM59 400q0 23 15.5 38.5t38.5 15.5t39 -15.5t16 -38.5t-16 -38.5t-39 -15.5t-38.5 15.5t-15.5 38.5z" />
    <glyph glyph-name="divide.cap" unicode="&#xe04f;" horiz-adv-x="595" 
d="M243 175q0 23 15.5 38.5t38.5 15.5t39 -15.5t16 -37.5q0 -23 -16 -39t-39 -16t-38.5 15.5t-15.5 38.5zM243 515q0 23 16 38.5t39 15.5t38.5 -15.5t15.5 -38.5t-15.5 -38.5t-38.5 -15.5t-39 15.5t-16 38.5zM523 303h-452v84h452v-84z" />
    <glyph glyph-name="dollar.fitted" unicode="&#xe050;" horiz-adv-x="497" 
d="M296 765l-1 -82q91 -11 139 -51l-46 -68q-55 40 -138 40q-111 0 -111 -90q0 -37 32 -62t78.5 -41.5t92.5 -37t78 -62t32 -103.5q0 -88 -65 -136q-39 -28 -92 -39l1 -88h-95l1 81q-110 7 -167 62l49 69q60 -50 157 -50q116 0 116 96q0 41 -32 67.5t-78 43.5t-92.5 37
t-78.5 60t-32 101q0 80 62 127q40 31 96 40l-1 86h95z" />
    <glyph glyph-name="dollar.fitted.oldstyle" unicode="&#xe051;" horiz-adv-x="483" 
d="M283 671l-1 -72q79 -9 125 -45l-44 -65q-48 35 -124 35q-96 0 -96 -75q0 -31 29 -52t70 -35t82 -31.5t70 -54.5t29 -92q0 -79 -60 -121q-34 -25 -81 -34l1 -77h-91l1 71q-99 7 -150 54l46 67q55 -45 141 -45q102 0 102 81q0 34 -29 56.5t-70 36.5t-82 31.5t-70 53.5
t-29 89q0 72 55 113q32 24 86 36l-1 75h91z" />
    <glyph glyph-name="eightsmall" unicode="&#xe052;" horiz-adv-x="487" 
d="M66 404q0 71 52.5 105t122.5 34q71 0 122.5 -32.5t51.5 -102.5q0 -90 -99 -134q107 -42 107 -140q0 -72 -53.5 -108.5t-129.5 -36.5q-75 0 -129 36t-54 108q0 94 109 138q-100 40 -100 133zM150 398q0 -42 22 -60t68 -32q31 10 47 17.5t30 27t14 48.5q0 75 -90 75
q-91 0 -91 -76zM141 140q0 -82 99 -82t99 82q0 44 -25.5 64.5t-74.5 35.5q-31 -10 -49.5 -19t-33.5 -29.5t-15 -51.5z" />
    <glyph glyph-name="equal.cap" unicode="&#xe053;" horiz-adv-x="595" 
d="M508 208h-421v76h421v-76zM508 406h-421v76h421v-76z" />
    <glyph glyph-name="equal.denominator" unicode="&#xe054;" horiz-adv-x="362" 
d="M309 97h-249v59h249v-59zM309 211h-249v58h249v-58z" />
    <glyph glyph-name="equal.numerator" unicode="&#xe055;" horiz-adv-x="362" 
d="M309 420h-249v59h249v-59zM309 534h-249v59h249v-59z" />
    <glyph glyph-name="equalinferior" unicode="&#xe056;" horiz-adv-x="350" 
d="M301 -86h-245v59h245v-59zM301 27h-245v59h245v-59z" />
    <glyph glyph-name="equalsuperior" unicode="&#xe057;" horiz-adv-x="350" 
d="M301 597h-245v59h245v-59zM301 711h-245v58h245v-58z" />
    <glyph glyph-name="f.alt" unicode="&#xe058;" horiz-adv-x="371" 
d="M363 723l-21 -75q-20 8 -48 8q-52 0 -66.5 -29.5t-14.5 -98.5v-44h113v-79h-113v-405h-90v405h-88v79h88v50q0 201 172 201q37 0 68 -12z" />
    <glyph glyph-name="ff.alt" unicode="&#xe059;" horiz-adv-x="666" 
d="M658 723l-20 -75q-21 8 -47 8q-53 0 -67.5 -29t-14.5 -99v-45h113v-77h-113v-406h-87v406h-211v-406h-88v406h-88v77h88v44q0 97 40 149t131 52q39 0 66 -12l-20 -75q-21 8 -47 8q-53 0 -67.5 -29t-14.5 -99v-38h211v51q0 97 39.5 149t130.5 52q36 0 66 -12z" />
    <glyph glyph-name="fivesmall" unicode="&#xe05a;" horiz-adv-x="487" 
d="M68 42l45 62q43 -40 116 -40q41 0 65 17q33 23 33 91q0 61 -28 81q-20 16 -60 16q-54 0 -92 -37l-67 19l3 281h303v-77h-226l-3 -143q35 31 98 31q67 0 113 -38q51 -42 51 -131q0 -100 -68 -147q-51 -36 -127 -36q-104 0 -156 51z" />
    <glyph glyph-name="four.alt" unicode="&#xe05c;" 
d="M424 690v-445h98v-74h-98v-171h-89v171h-293v92l254 427h128zM335 244v362l-208 -362h208z" />
    <glyph glyph-name="four.alt.fitted" unicode="&#xe05d;" horiz-adv-x="527" 
d="M407 690v-445h94v-74h-94v-171h-88v171h-283v92l244 427h127zM319 244v362l-199 -362h199z" />
    <glyph glyph-name="foursmall" unicode="&#xe05e;" horiz-adv-x="487" 
d="M435 106h-90v-106h-84v106h-215v78l140 348h86l-140 -347h131v199h82v-198h90v-80z" />
    <glyph glyph-name="g.alt" unicode="&#xe05f;" horiz-adv-x="537" 
d="M500 -64q0 -88 -76 -136q-64 -41 -157 -41q-85 0 -143 31q-78 40 -78 114q0 42 26.5 81t67.5 61q-42 10 -62 32.5t-20 50.5q0 51 58 91q-39 41 -39 116q0 86 50 130q50 45 144 45q62 0 106 -23l134 4v-80h-65q11 -31 11 -68q0 -92 -63 -137q-52 -36 -133 -36
q-47 0 -84 12q-35 -20 -35 -48q0 -41 123 -43q105 -1 165 -35q70 -39 70 -121zM411 -69q0 90 -119 90q-75 0 -115 -29.5t-40 -77.5q0 -82 132 -82q142 0 142 99zM367 341q0 49 -21 73.5t-79 24.5q-59 0 -79.5 -24.5t-20.5 -75.5q0 -52 20 -74.5t76 -22.5q61 0 82.5 24.5
t21.5 74.5z" />
    <glyph glyph-name="greater.cap" unicode="&#xe060;" horiz-adv-x="595" 
d="M127 560l401 -172v-86l-401 -172l-27 76l342 138l-342 140z" />
    <glyph glyph-name="infinity.cap" unicode="&#xe061;" horiz-adv-x="854" 
d="M796 348q0 -84 -51.5 -135t-126.5 -51q-51 0 -89.5 26.5t-102.5 94.5q-56 -63 -100 -92t-95 -29q-72 0 -122.5 50.5t-50.5 130.5q0 81 51.5 133t127.5 52q53 0 95.5 -28.5t99.5 -95.5q56 64 100 93.5t97 29.5q72 0 119.5 -49.5t47.5 -129.5zM239 238q26 0 48.5 12.5
t36.5 26t62 64.5q-48 62 -81 87t-72 25q-46 0 -70 -29t-24 -79q0 -51 25.5 -79t74.5 -28zM618 453q-17 0 -28.5 -2.5t-26.5 -13.5t-22 -18t-31.5 -32t-37.5 -39q57 -66 86.5 -88t64.5 -22q48 0 70.5 30t22.5 78q0 107 -98 107z" />
    <glyph glyph-name="jsuperior" unicode="&#xe062;" horiz-adv-x="184" 
d="M55 768h69v-285q0 -108 -109 -108q-19 0 -37 5l10 62q8 -3 27 -3q24 0 32 10t8 33v286zM47 858q0 18 12 30t30 12q19 0 31 -12t12 -30q0 -19 -12 -31t-31 -12q-18 0 -30 12t-12 31z" />
    <glyph glyph-name="k.alt" unicode="&#xe063;" horiz-adv-x="514" 
d="M188 261v3l181 235h112l-195 -231l215 -268h-117zM82 765h90v-765h-90v765z" />
    <glyph glyph-name="l.alt" unicode="&#xe064;" horiz-adv-x="297" 
d="M280 79l8 -76q-43 -10 -73 -10q-76 0 -104.5 41.5t-28.5 127.5v603h90v-601q0 -51 12 -72t46 -21q29 0 50 8z" />
    <glyph glyph-name="less.cap" unicode="&#xe065;" horiz-adv-x="595" 
d="M469 130l-401 172v86l401 172l27 -76l-342 -138l342 -140z" />
    <glyph glyph-name="logicalnot.cap" unicode="&#xe066;" horiz-adv-x="595" 
d="M510 447v-287h-88v208h-349v79h437z" />
    <glyph glyph-name="minus.cap" unicode="&#xe067;" horiz-adv-x="595" 
d="M525 305h-455v80h455v-80z" />
    <glyph glyph-name="minus.denominator" unicode="&#xe068;" horiz-adv-x="362" 
d="M318 153h-267v61h267v-61z" />
    <glyph glyph-name="minus.numerator" unicode="&#xe069;" horiz-adv-x="362" 
d="M318 476h-267v61h267v-61z" />
    <glyph glyph-name="minusinferior" unicode="&#xe06a;" horiz-adv-x="350" 
d="M309 -30h-262v60h262v-60z" />
    <glyph glyph-name="minussuperior" unicode="&#xe06b;" horiz-adv-x="350" 
d="M309 653h-262v61h262v-61z" />
    <glyph glyph-name="multiply.cap" unicode="&#xe06c;" horiz-adv-x="595" 
d="M447 142l-150 148l-149 -148l-56 56l149 147l-149 147l56 56l149 -147l149 147l56 -56l-149 -147l149 -147z" />
    <glyph glyph-name="ninesmall" unicode="&#xe06d;" horiz-adv-x="487" 
d="M63 39l45 61q41 -36 115 -36q30 0 50 7.5t32 20t18 39t8 54t3 76.5q-34 -57 -121 -57q-69 0 -112 38q-46 41 -46 125q0 89 50 132q47 41 131 41q100 0 144 -61q41 -55 41 -203q0 -86 -10 -138.5t-41 -89.5q-48 -57 -152 -57q-106 0 -155 48zM226 270q103 0 103 105
q0 94 -96 94q-51 0 -71.5 -24.5t-20.5 -75.5q0 -52 20 -75.5t65 -23.5z" />
    <glyph glyph-name="notequal.cap" unicode="&#xe06e;" horiz-adv-x="595" 
d="M517 205h-238l-66 -143l-65 33l50 110h-109v77h144l58 126h-202v77h238l65 143l65 -33l-50 -110h110v-77h-146l-57 -126h203v-77z" />
    <glyph glyph-name="numbersign.fitted" unicode="&#xe06f;" horiz-adv-x="617" 
d="M432 690h80l-27 -184h98v-73h-110l-26 -177h100v-73h-111l-28 -183h-80l28 183h-157l-28 -183h-80l28 183h-97v73h109l25 177h-99v73h111l27 184h80l-27 -184h157zM236 433l-26 -177h157l26 177h-157z" />
    <glyph glyph-name="numbersign.fitted.oldstyle" unicode="&#xe070;" horiz-adv-x="591" 
d="M401 606h76l-24 -160h85v-69h-97l-22 -149h87v-69h-98l-25 -159h-76l25 159h-138l-25 -159h-76l25 159h-85v69h96l23 149h-88v69h99l24 160h77l-25 -160h138zM228 377l-23 -149h138l22 149h-137z" />
    <glyph glyph-name="onesmall" unicode="&#xe071;" horiz-adv-x="487" 
d="M81 0v78h140v365l-123 -83l-48 64l163 108h96v-454h112v-78h-340z" />
    <glyph glyph-name="oslash.alt" unicode="&#xe072;" horiz-adv-x="556" 
d="M507 525l-58 -84q49 -61 49 -183q0 -135 -60 -203q-59 -67 -166 -67q-56 0 -100 19l-49 -82l-74 49l58 84q-49 61 -49 181q0 131 55 200q59 72 171 72q56 0 99 -19l50 82zM403 258q0 111 -40 150q-28 26 -80 26q-62 0 -92 -35q-37 -44 -37 -159q0 -104 33 -142
q28 -33 87 -33q67 0 98 43q31 46 31 150z" />
    <glyph glyph-name="plus.cap" unicode="&#xe073;" horiz-adv-x="595" 
d="M531 306h-189v-204h-89v204h-189v78h189v204h89v-204h189v-78z" />
    <glyph glyph-name="plus.denominator" unicode="&#xe074;" horiz-adv-x="362" 
d="M323 153h-104v-102h-69v102h-104v60h104v103h69v-103h104v-60z" />
    <glyph glyph-name="plus.numerator" unicode="&#xe075;" horiz-adv-x="362" 
d="M323 476h-104v-102h-69v102h-104v61h104v102h69v-102h104v-61z" />
    <glyph glyph-name="plusinferior" unicode="&#xe076;" horiz-adv-x="350" 
d="M314 -30h-102v-102h-68v102h-102v60h102v102h68v-102h102v-60z" />
    <glyph glyph-name="plussuperior" unicode="&#xe077;" horiz-adv-x="350" 
d="M314 653h-102v-102h-68v102h-102v60h102v103h68v-103h102v-60z" />
    <glyph glyph-name="r.alt" unicode="&#xe078;" horiz-adv-x="348" 
d="M82 499h86l-1 -99q15 49 48.5 78.5t77.5 29.5q13 0 29 -2l-8 -89q-18 2 -26 2q-43 0 -70 -37t-36.5 -87.5t-9.5 -115.5v-179h-90v499z" />
    <glyph glyph-name="sevensmall" unicode="&#xe079;" horiz-adv-x="487" 
d="M124 367h-72l-2 165h376v-79q-105 -212 -175 -453h-95q65 229 178 448h-209z" />
    <glyph glyph-name="sixsmall" unicode="&#xe07a;" horiz-adv-x="487" 
d="M415 492l-45 -60q-40 35 -115 35q-71 0 -90 -40t-20 -157q34 57 121 57q69 0 111 -37q47 -41 47 -126q0 -89 -50 -132q-47 -41 -131 -41q-100 0 -145 61q-41 58 -41 204q0 83 10.5 137.5t40.5 89.5q50 58 153 58q104 0 154 -49zM253 261q-103 0 -103 -104q0 -95 95 -95
q51 0 71.5 25t20.5 76q0 52 -19.5 75t-64.5 23z" />
    <glyph glyph-name="slashsmall" unicode="&#xe07b;" horiz-adv-x="405" 
d="M370 597l-275 -687l-79 30l276 687z" />
    <glyph glyph-name="sterling.fitted" unicode="&#xe07c;" horiz-adv-x="570" 
d="M389 385v-78h-166v-229h311v-78h-483v78h79v229h-79v78h79v64q0 49 10.5 90t34.5 78.5t70 58.5t110 21q105 0 161 -56l-53 -62q-39 39 -113 39q-79 0 -103 -41.5t-24 -132.5v-59h166z" />
    <glyph glyph-name="sterling.fitted.oldstyle" unicode="&#xe07d;" horiz-adv-x="547" 
d="M366 340v-74h-148v-191h277v-75h-436v75h70v191h-70v74h70v53q0 43 9.5 79.5t31.5 69t64 51.5t100 19q95 0 146 -50l-52 -59q-34 34 -99 34q-69 0 -90 -35.5t-21 -112.5v-49h148z" />
    <glyph glyph-name="three.alt.taboldstyle" unicode="&#xe07e;" horiz-adv-x="510" 
d="M143 196v59l176 198h-276v79h378v-82l-169 -188q99 -1 147 -48.5t48 -124.5q0 -70 -38.5 -116.5t-93.5 -64.5t-122 -18q-111 0 -160 42l37 65q40 -29 124 -29q75 0 118 30t43 90q0 54 -39.5 81t-132.5 27h-40z" />
    <glyph glyph-name="three.altoldstyle" unicode="&#xe07f;" horiz-adv-x="463" 
d="M125 196v59l163 198h-258v79h360v-82l-157 -188q92 -1 137 -48.5t45 -124.5q0 -101 -71 -150t-171 -49q-107 0 -153 42l36 65q39 -29 117 -29q70 0 110 30t40 90q0 54 -37 81t-123 27h-38z" />
    <glyph glyph-name="threequartersemdash.cap" unicode="&#xe080;" horiz-adv-x="750" 
d="M730 302h-710v85h710v-85z" />
    <glyph glyph-name="threesmall" unicode="&#xe081;" horiz-adv-x="487" 
d="M135 235v74h60q118 0 118 85q0 40 -23 56t-69 16q-78 0 -122 -40l-46 59q56 56 169 56q76 0 124 -30q58 -36 58 -108q0 -99 -95 -126q103 -22 103 -133q0 -82 -63 -121q-51 -32 -131 -32q-114 0 -165 54l46 61q42 -41 122 -41q49 0 75 19t26 67t-28.5 66t-95.5 18h-63z
" />
    <glyph glyph-name="twosmall" unicode="&#xe082;" horiz-adv-x="487" 
d="M417 77v-77h-355v57q0 73 33.5 115t129.5 101q37 22 55 35.5t33 36t15 50.5q0 70 -94 70q-73 0 -118 -44l-54 54q62 65 178 65q78 0 127.5 -33.5t49.5 -110.5q0 -58 -29 -93.5t-97 -78.5q-83 -53 -110 -80t-27 -68z" />
    <glyph glyph-name="u.alt" unicode="&#xe083;" horiz-adv-x="565" 
d="M82 499h89v-322q0 -29 3 -45t13.5 -32.5t34 -23.5t62.5 -7q69 0 89.5 24.5t20.5 84.5v321h90v-320q0 -88 -40 -132q-48 -55 -162 -55t-162 54q-38 42 -38 130v323z" />
    <glyph glyph-name="wsuperior" unicode="&#xe084;" horiz-adv-x="460" 
d="M21 768h71l46 -189l51 183h75l52 -183l46 189h70l-76 -268h-78l-52 184l-53 -184h-79z" />
    <glyph glyph-name="xsuperior" unicode="&#xe085;" horiz-adv-x="329" 
d="M29 768h80l52 -84l51 84h80l-83 -129l89 -139h-80l-58 91l-59 -91h-80l93 139z" />
    <glyph glyph-name="yen.alt" unicode="&#xe086;" 
d="M495 318v-79h-175v-239h-92v239h-164v79h142l-201 372h107l164 -323l168 323h104l-206 -372h153z" />
    <glyph glyph-name="yen.alt.fitted" unicode="&#xe087;" horiz-adv-x="547" 
d="M490 318v-79h-173v-239h-92v239h-163v79h141l-199 372h106l163 -323l166 323h104l-204 -372h151z" />
    <glyph glyph-name="yen.alt.fitted.oldstyle" unicode="&#xe088;" horiz-adv-x="534" 
d="M456 281v-75h-154v-206h-88v206h-144v75h124l-178 325h101l143 -278l146 278h99l-182 -325h133z" />
    <glyph glyph-name="yen.alt.taboldstyle" unicode="&#xe089;" horiz-adv-x="534" 
d="M459 281v-75h-154v-206h-89v206h-145v75h125l-179 325h101l144 -278l147 278h100l-184 -325h134z" />
    <glyph glyph-name="yen.fitted" unicode="&#xe08a;" horiz-adv-x="547" 
d="M506 239v-80h-189v-159h-92v159h-178v80h178v39l-15 28h-163v79h120l-163 305h106l163 -323l166 323h104l-167 -305h130v-79h-173l-16 -28v-39h189z" />
    <glyph glyph-name="yen.fitted.oldstyle" unicode="&#xe08b;" horiz-adv-x="534" 
d="M471 210v-76h-169v-134h-88v134h-158v76h158v34l-13 23h-145v75h104l-144 264h101l143 -278l146 278h99l-147 -264h113v-75h-156l-13 -23v-34h169z" />
    <glyph glyph-name="ysuperior" unicode="&#xe08c;" horiz-adv-x="326" 
d="M299 768l-82 -254q-23 -70 -55 -105t-81 -35q-33 0 -50 12l22 57q12 -6 28 -6q23 0 37.5 16t27.5 54h-35l-92 261h75l69 -218l63 218h73z" />
    <glyph glyph-name="zerosmall" unicode="&#xe08d;" horiz-adv-x="487" 
d="M427 272q0 -162 -58 -229q-47 -53 -133 -53q-88 0 -131 51q-53 63 -53 219q0 164 58 229q47 53 132 53q86 0 132 -52q53 -61 53 -218zM336 273q0 104 -20 148.5t-74 44.5q-56 0 -77.5 -48.5t-21.5 -159.5q0 -103 20 -147.5t74 -44.5q56 0 77.5 48.5t21.5 158.5z" />
    <glyph glyph-name="uniEFF3" unicode="&#xeff3;" horiz-adv-x="200" 
d="M213 654q0 -45 -32 -72t-81 -27t-81 27t-32 73q0 45 31.5 71.5t81.5 26.5q49 0 81 -27t32 -72zM150 655q0 22 -14 33.5t-36 11.5t-36 -12t-14 -34t14 -33.5t36 -11.5t36 12t14 34z" />
    <glyph glyph-name="uniEFF7" unicode="&#xeff7;" horiz-adv-x="200" 
d="M-49 623l150 102l149 -101l-37 -58l-113 69l-113 -70z" />
    <glyph glyph-name="uniF628" unicode="&#xf628;" horiz-adv-x="1170" 
d="M712 598l-550 -635l-53 43l550 637zM751 167q0 -99 -39 -141q-30 -32 -88 -32q-59 0 -88 31q-36 37 -36 134q0 96 34 135q31 36 93 36q56 0 86 -30q38 -37 38 -133zM683 166q0 59 -11 83t-45 24q-35 0 -47 -26.5t-12 -88.5q0 -59 11 -83.5t45 -24.5q35 0 47 27t12 89z
M312 446q0 -99 -40 -139q-32 -32 -89 -32q-55 0 -86 31q-37 37 -37 133q0 97 33 135q31 38 95 38q55 0 86 -31q38 -38 38 -135zM243 447q0 60 -10.5 83.5t-44.5 23.5q-35 0 -47 -26t-12 -87q0 -60 11 -84.5t45 -24.5q35 0 46.5 26.5t11.5 88.5zM1076 164q0 -99 -39 -138
q-32 -32 -88 -32q-59 0 -88 31q-37 38 -37 136q0 91 34 132q32 37 93 37q55 0 87 -30q38 -38 38 -136zM1007 166q0 59 -10.5 83t-44.5 24q-35 0 -47 -26.5t-12 -87.5q0 -60 11 -84.5t45 -24.5q35 0 46.5 26.5t11.5 89.5z" />
    <glyph glyph-name="uniF629" unicode="&#xf629;" horiz-adv-x="364" 
d="M227 406l-1 -57q54 -7 86 -35l-42 -49q-28 22 -71 22q-45 0 -60 -22t-15 -75q0 -55 13.5 -78t52.5 -23q48 0 83 35l45 -45q-34 -38 -92 -49l1 -59h-75l1 59q-45 8 -70 35q-36 38 -36 121q0 85 38 124q25 27 68 35l-1 61h75z" />
    <glyph glyph-name="uniF62A" unicode="&#xf62a;" horiz-adv-x="364" 
d="M216 406v-44q54 -5 87 -28l-35 -52q-35 20 -88 20q-62 0 -62 -35q0 -16 20 -26t49 -17.5t58 -17.5t49 -32.5t20 -56.5q0 -49 -43 -77q-22 -14 -55 -22v-47h-75l1 43q-69 5 -105 33l37 54q40 -26 100 -26q65 0 65 38q0 21 -30.5 34t-67 20.5t-67 31.5t-30.5 65q0 46 39 73
q21 14 59 23l-1 46h75z" />
    <glyph glyph-name="uniF62B" unicode="&#xf62b;" horiz-adv-x="215" 
d="M196 151h-173v65h173v-65z" />
    <glyph glyph-name="uniF62C" unicode="&#xf62c;" horiz-adv-x="236" 
d="M141 432l42 -52q-41 -29 -51.5 -66.5t-10.5 -130.5t10.5 -131t51.5 -66l-42 -51q-54 36 -72 92t-18 157q0 100 18 155.5t72 92.5z" />
    <glyph glyph-name="uniF62D" unicode="&#xf62d;" horiz-adv-x="236" 
d="M87 -65l-42 51q41 29 51.5 66.5t10.5 130.5t-10.5 131t-51.5 67l42 51q54 -37 72 -92.5t18 -156.5t-18 -156t-72 -92z" />
    <glyph glyph-name="uniF62E" unicode="&#xf62e;" horiz-adv-x="364" 
d="M227 730l-1 -58q53 -5 86 -35l-42 -49q-28 22 -71 22q-45 0 -60 -22t-15 -75q0 -54 13.5 -77t52.5 -23q50 0 83 35l45 -46q-34 -38 -92 -49l1 -59h-75l1 59q-46 9 -70 36q-36 37 -36 121t38 123q25 26 68 36l-1 61h75z" />
    <glyph glyph-name="uniF62F" unicode="&#xf62f;" horiz-adv-x="364" 
d="M216 730v-44q57 -7 87 -28l-35 -53q-35 20 -88 20q-62 0 -62 -35q0 -19 30.5 -31t67.5 -19.5t67.5 -32.5t30.5 -66q0 -49 -43 -78q-24 -15 -55 -21v-48h-75l1 43q-70 6 -105 34l37 53q40 -26 100 -26q65 0 65 39q0 20 -30.5 33t-67 20.5t-67 32t-30.5 65.5q0 45 39 72
q24 17 59 23l-1 47h75z" />
    <glyph glyph-name="uniF630" unicode="&#xf630;" horiz-adv-x="215" 
d="M196 474h-173v65h173v-65z" />
    <glyph glyph-name="uniF631" unicode="&#xf631;" horiz-adv-x="236" 
d="M141 755l42 -51q-41 -29 -51.5 -67t-10.5 -130q0 -93 10.5 -131.5t51.5 -66.5l-42 -51q-54 36 -72 92t-18 157t18 156t72 92z" />
    <glyph glyph-name="uniF632" unicode="&#xf632;" horiz-adv-x="236" 
d="M87 258l-42 51q41 29 51.5 66.5t10.5 131.5q0 93 -10.5 131t-51.5 66l42 51q54 -36 72 -92t18 -157t-18 -156t-72 -92z" />
    <glyph glyph-name="uniF633" unicode="&#xf633;" horiz-adv-x="866" 
d="M647 212q33 0 53.5 43.5t20.5 118.5q0 133 -69.5 209t-211.5 76q-140 0 -217.5 -79t-77.5 -233q0 -306 322 -306q185 0 283 91l50 -55q-54 -52 -141.5 -83.5t-195.5 -31.5q-198 0 -301.5 104t-103.5 281q0 180 105 287.5t281 107.5q171 0 268 -99t97 -253
q0 -108 -47.5 -178t-129.5 -70q-85 0 -102 80q-45 -83 -140 -83q-59 0 -96 33.5t-37 90.5q0 127 199 127h51v20q0 44 -16 60.5t-61 16.5q-72 0 -109 -34l-45 60q53 50 156 50q85 0 126 -38.5t41 -121.5v-90q0 -101 48 -101zM508 327h-51q-25 0 -40 -1.5t-31 -7t-23.5 -19
t-7.5 -34.5q0 -51 48 -51q40 0 70.5 31.5t34.5 81.5z" />
    <glyph glyph-name="uniF639" unicode="&#xf639;" horiz-adv-x="575" 
d="M517 354q0 -215 -71 -300q-57 -67 -164 -67q-105 0 -159 65q-65 79 -65 283q0 215 71 300q58 69 163 69t160 -66q65 -78 65 -284zM422 356q0 141 -28 204t-103 63q-77 0 -107.5 -68.5t-30.5 -221.5q0 -140 28 -203t103 -63q77 0 107.5 68.5t30.5 220.5z" />
    <glyph glyph-name="uniF63A" unicode="&#xf63a;" horiz-adv-x="520" 
d="M467 83v-83h-414v60q0 94 39.5 149t156.5 136q33 23 50.5 37.5t37 36t28 46t8.5 54.5q0 57 -30.5 79.5t-86.5 22.5q-87 0 -144 -58l-55 57q71 80 204 80q43 0 78 -9t65 -29t46.5 -56.5t16.5 -86.5q0 -51 -18.5 -90.5t-47 -67t-83.5 -67.5q-54 -40 -78.5 -59.5t-50 -46.5
t-33.5 -51t-8 -57z" />
    <glyph glyph-name="uniF63B" unicode="&#xf63b;" horiz-adv-x="512" 
d="M137 314v81h67q146 0 146 123q0 57 -28.5 80t-84.5 23q-93 0 -146 -56l-49 64q65 73 194 73q86 0 139 -36q70 -44 70 -140q0 -62 -28.5 -105.5t-82.5 -60.5q121 -27 121 -174q0 -110 -77 -160q-56 -37 -147 -37q-129 0 -189 70l49 66q51 -57 146 -57q60 0 91.5 28
t31.5 96q0 71 -35.5 96.5t-117.5 25.5h-70z" />
    <glyph glyph-name="uniF63C" unicode="&#xf63c;" horiz-adv-x="535" 
d="M502 144h-115v-144h-89v144h-262v83l181 463h93l-182 -462h172v267h87v-266h115v-85z" />
    <glyph glyph-name="uniF63D" unicode="&#xf63d;" horiz-adv-x="532" 
d="M66 55l49 66q53 -54 141 -54q52 0 81 24q44 34 44 132q0 87 -37 119q-26 22 -75 22q-68 0 -118 -54l-72 23l5 357h355v-84h-272l-5 -206q44 44 123 44q81 0 133 -49q60 -54 60 -168q0 -132 -82 -193q-62 -45 -148 -45q-50 0 -100 16t-82 50z" />
    <glyph glyph-name="uniF63E" unicode="&#xf63e;" 
d="M487 639l-48 -65q-52 48 -145 48q-33 0 -56 -6t-39 -22.5t-25 -35.5t-14.5 -55.5t-7 -71.5t-2.5 -93q43 83 157 83q82 0 135 -48q56 -53 56 -161q0 -112 -60 -169q-59 -54 -159 -54q-123 0 -176 85q-28 45 -36.5 107t-8.5 150q0 109 12.5 179.5t48.5 116.5q60 75 184 75
q122 0 184 -63zM294 348q-67 0 -102.5 -38t-35.5 -110q0 -133 128 -133q67 0 94 35t27 108q0 72 -26 105t-85 33z" />
    <glyph glyph-name="uniF63F" unicode="&#xf63f;" horiz-adv-x="486" 
d="M108 497h-75l-2 193h423v-83q-124 -289 -201 -607h-99q76 315 205 602h-249z" />
    <glyph glyph-name="uniF640" unicode="&#xf640;" horiz-adv-x="555" 
d="M69 528q0 61 33.5 103t79 58t98.5 16q85 0 147 -42.5t62 -130.5q0 -119 -125 -176q136 -57 136 -184q0 -92 -65 -139t-156 -47q-90 0 -155.5 46.5t-65.5 137.5q0 122 138 183q-127 52 -127 175zM160 521q0 -31 8.5 -53t28.5 -37t36 -22t46 -18q30 10 47 18t36 23t28 37
t9 53q0 107 -119 107q-120 0 -120 -108zM148 178q0 -116 131 -116q130 0 130 115q0 33 -10 57.5t-31 40t-39.5 24t-50.5 19.5q-31 -10 -50 -19.5t-39.5 -25t-30.5 -39.5t-10 -56z" />
    <glyph glyph-name="uniF641" unicode="&#xf641;" 
d="M66 51l48 65q52 -48 145 -48q33 0 56 6t39 22.5t25 35.5t14.5 55.5t7 71.5t2.5 93q-43 -83 -157 -83q-82 0 -135 48q-56 53 -56 161q0 112 60 169q59 54 159 54q123 0 176 -85q28 -45 36.5 -107t8.5 -150q0 -109 -12.5 -179.5t-48.5 -116.5q-60 -75 -184 -75
q-122 0 -184 63zM259 342q67 0 102.5 38t35.5 110q0 133 -128 133q-67 0 -94 -35t-27 -108q0 -72 26 -105t85 -33z" />
    <glyph glyph-name="uniF642" unicode="&#xf642;" horiz-adv-x="838" 
d="M712 598l-550 -635l-53 43l550 637zM751 167q0 -99 -39 -141q-30 -32 -88 -32q-59 0 -88 31q-36 37 -36 134q0 96 34 135q31 36 93 36q56 0 86 -30q38 -37 38 -133zM683 166q0 59 -11 83t-45 24q-35 0 -47 -26.5t-12 -88.5q0 -59 11 -83.5t45 -24.5q35 0 47 27t12 89z
M312 446q0 -99 -40 -139q-32 -32 -89 -32t-86 32q-37 37 -37 133q0 95 33 134q31 38 95 38q55 0 86 -31q38 -38 38 -135zM243 447q0 60 -10.5 83.5t-44.5 23.5q-35 0 -47 -26t-12 -87q0 -60 11 -84.5t45 -24.5q35 0 46.5 26.5t11.5 88.5z" />
    <glyph glyph-name="uniF643" unicode="&#xf643;" horiz-adv-x="510" 
d="M475 272q0 -161 -63 -225q-56 -58 -161 -58q-106 0 -159 58q-57 62 -57 212q0 156 59 221q55 62 165 62q102 0 156 -54q60 -61 60 -216zM381 270q0 124 -30 161q-29 36 -93 36q-73 0 -102 -45q-26 -41 -26 -159q0 -120 29 -162q25 -36 92 -36q77 0 104 46q26 44 26 159z
" />
    <glyph glyph-name="uniF644" unicode="&#xf644;" horiz-adv-x="510" 
d="M72 0v78h168v367l-151 -82l-47 66l188 103h99v-454h135v-78h-392z" />
    <glyph glyph-name="uniF645" unicode="&#xf645;" horiz-adv-x="510" 
d="M445 77v-77h-409v57q0 74 39.5 115t157.5 102q61 31 91 57t30 65q0 69 -115 69q-52 0 -84 -13.5t-61 -44.5l-54 53q69 80 200 80q91 0 148 -34t57 -109q0 -61 -37.5 -98t-115.5 -78q-110 -59 -133 -79q-32 -27 -32 -66z" />
    <glyph glyph-name="uniF646" unicode="&#xf646;" horiz-adv-x="510" 
d="M119 197v76h67q78 0 117.5 23t39.5 80q0 48 -29 68.5t-89 20.5q-88 0 -139 -54l-54 54q67 75 197 75q87 0 137 -27q72 -38 72 -123q0 -58 -32 -97t-89 -53q135 -19 135 -148q0 -95 -80 -152q-70 -49 -170 -49q-103 0 -155 40l36 65q43 -28 121 -28q153 0 153 124
q0 63 -38.5 84t-133.5 21h-66z" />
    <glyph glyph-name="uniF647" unicode="&#xf647;" horiz-adv-x="510" 
d="M488 15h-98v-126h-85v126h-272v84l189 441l85 -20l-186 -428h185v234h84v-232h98v-79z" />
    <glyph glyph-name="uniF648" unicode="&#xf648;" horiz-adv-x="510" 
d="M51 -69l36 65q40 -28 117 -28q73 0 107 28q41 35 41 113q0 63 -26 93q-26 28 -80 28q-63 0 -116 -45l-63 31l6 316h337v-84h-259l-4 -175q41 34 119 34q77 0 125 -41q56 -49 56 -149q0 -128 -88 -186q-61 -40 -159 -40q-100 0 -149 40z" />
    <glyph glyph-name="uniF649" unicode="&#xf649;" horiz-adv-x="510" 
d="M451 604l-36 -64q-43 29 -113 29q-89 0 -124 -54.5t-36 -198.5q37 74 137 74q76 0 126 -47q55 -52 55 -149q0 -104 -61 -159q-54 -48 -140 -48t-138 46q-41 37 -56.5 101.5t-15.5 167.5q0 190 69 269q64 74 190 74q93 0 143 -41zM266 319q-119 0 -119 -132
q0 -126 115 -126q60 0 83.5 33.5t23.5 98.5q0 64 -23 95t-80 31z" />
    <glyph glyph-name="uniF64A" unicode="&#xf64a;" horiz-adv-x="510" 
d="M128 348h-78l-2 184h416v-92l-229 -555l-88 32l224 527h-240z" />
    <glyph glyph-name="uniF64B" unicode="&#xf64b;" horiz-adv-x="510" 
d="M54 484q0 83 61 123t142 40t140 -39t59 -120q0 -110 -118 -161q129 -52 129 -169q0 -85 -62.5 -128t-149.5 -43t-149 42.5t-62 127.5q0 113 130 166q-120 48 -120 161zM143 477q0 -28 8 -48t26.5 -33t34 -20t43.5 -16q28 9 43.5 16t34 20.5t26.5 33t8 47.5q0 96 -111 96
q-113 0 -113 -96zM132 164q0 -104 122 -104q124 0 124 104q0 30 -9.5 51.5t-29.5 35.5t-37.5 21.5t-47.5 16.5q-60 -18 -91 -44t-31 -81z" />
    <glyph glyph-name="uniF64C" unicode="&#xf64c;" horiz-adv-x="510" 
d="M60 -69l35 65q40 -29 114 -29q89 0 123.5 53t35.5 196q-37 -73 -138 -73q-75 0 -126 48q-54 52 -54 147q0 104 62 160q54 48 139 48q86 0 138 -47q41 -37 56.5 -99.5t15.5 -164.5q0 -192 -68 -270q-64 -74 -192 -74q-94 0 -141 40zM244 213q120 0 120 132q0 127 -115 127
q-60 0 -84 -34t-24 -99q0 -64 23 -95t80 -31z" />
    <glyph glyph-name="uniF64E" unicode="&#xf64e;" horiz-adv-x="534" 
d="M384 257l-18 -70h-182q10 -62 39 -91t87 -29q80 0 151 53v-84q-62 -44 -151 -44q-133 0 -186 97q-21 38 -32 98h-75l18 70h51q-1 16 -1 42t1 38h-69l18 71h57q10 74 42 120q58 86 193 86q89 0 146 -34l-23 -74q-53 32 -128 32q-70 0 -100.5 -30.5t-39.5 -99.5h241
l-18 -71h-227v-80h206z" />
    <glyph glyph-name="uniF64F" unicode="&#xf64f;" horiz-adv-x="534" 
d="M115 370v78h85v24q0 93 38 144.5t139 51.5q44 0 74 -5l-3 -77q-25 5 -63 5q-62 0 -80 -25.5t-18 -94.5v-23h127v-78h-127v-408q0 -84 -35 -126.5t-117 -42.5q-36 0 -60 5l5 77q28 -5 51 -5q43 0 56 20.5t13 68.5v411h-85z" />
    <glyph glyph-name="uniF650" unicode="&#xf650;" horiz-adv-x="534" 
d="M363 606h76l-23 -160h77v-69h-89l-20 -149h79v-69h-90l-23 -159h-75l23 159h-125l-23 -159h-75l23 159h-77v69h88l20 149h-78v69h90l22 160h76l-23 -160h125zM205 377l-21 -149h125l20 149h-124z" />
    <glyph glyph-name="uniF651" unicode="&#xf651;" horiz-adv-x="534" 
d="M357 340v-74h-144v-191h270v-75h-427v75h68v191h-68v74h68v53q0 43 9.5 79.5t31 69t62.5 51.5t98 19q94 0 143 -50l-51 -59q-34 34 -97 34q-67 0 -87 -35t-20 -113v-49h144z" />
    <glyph glyph-name="uniF652" unicode="&#xf652;" horiz-adv-x="534" 
d="M474 210v-76h-169v-134h-89v134h-159v76h159v34l-13 23h-146v75h105l-145 264h101l144 -278l147 278h100l-149 -264h114v-75h-156l-13 -23v-34h169z" />
    <glyph glyph-name="uniF653" unicode="&#xf653;" horiz-adv-x="534" 
d="M308 671l-1 -72q85 -7 135 -45l-44 -65q-53 35 -134 35q-108 0 -108 -75q0 -31 31.5 -52t76 -35t89 -31.5t76 -54.5t31.5 -92q0 -77 -64 -121q-35 -24 -89 -35l1 -76h-91v71q-104 5 -161 54l47 67q58 -45 152 -45q113 0 113 81q0 29 -22.5 50t-56 32t-73 26t-73 31.5
t-56 49.5t-22.5 78q0 73 59 113q36 26 93 36v75h91z" />
    <glyph glyph-name="uniF654" unicode="&#xf654;" horiz-adv-x="534" 
d="M322 671l-1 -95q86 -8 136 -60l-52 -59q-46 42 -115 42q-77 0 -102.5 -43t-25.5 -143q0 -102 23.5 -146t89.5 -44q83 0 136 66l56 -55q-52 -68 -146 -84l1 -98h-91l1 97q-73 12 -115 66q-49 63 -49 193q0 132 53 199q40 50 111 64l-1 100h91z" />
    <glyph glyph-name="uniF655" unicode="&#xf655;" horiz-adv-x="364" 
d="M318 187q0 -111 -43 -157q-34 -37 -99 -37q-64 0 -97 36q-39 43 -39 150q0 113 42 157q35 38 99 38t98 -37q39 -43 39 -150zM244 189q0 66 -13.5 94.5t-50.5 28.5q-38 0 -52 -30.5t-14 -104.5q0 -67 13 -95t50 -28q38 0 52.5 31t14.5 104z" />
    <glyph glyph-name="uniF656" unicode="&#xf656;" horiz-adv-x="364" 
d="M61 0v63h101v231l-86 -55l-39 50l118 78h79v-304h80v-63h-253z" />
    <glyph glyph-name="uniF657" unicode="&#xf657;" horiz-adv-x="364" 
d="M309 62v-62h-262v47q0 50 24.5 78t94.5 67q27 15 39 23t22.5 22.5t10.5 32.5q0 42 -64 42q-53 0 -84 -30l-44 43q47 48 132 48q132 0 132 -103q0 -40 -21.5 -64.5t-69.5 -52.5q-59 -34 -78 -50.5t-19 -41.5z" />
    <glyph glyph-name="uniF658" unicode="&#xf658;" horiz-adv-x="364" 
d="M101 158v58h46q81 0 81 53q0 25 -16 34.5t-48 9.5q-57 0 -87 -26l-36 48q39 38 125 38q57 0 93 -22q42 -25 42 -74q0 -67 -68 -87q74 -17 74 -91q0 -54 -46 -82q-36 -23 -98 -23q-86 0 -123 37l36 48q32 -26 88 -26q34 0 51.5 11.5t17.5 41.5t-19.5 41t-64.5 11h-48z" />
    <glyph glyph-name="uniF659" unicode="&#xf659;" horiz-adv-x="364" 
d="M322 70h-63v-70h-67v70h-155v62l95 235h70l-96 -234h87v134h66v-133h63v-64z" />
    <glyph glyph-name="uniF65A" unicode="&#xf65a;" horiz-adv-x="364" 
d="M51 30l36 48q30 -26 83 -26q30 0 45 10q23 15 23 56q0 37 -20 51q-16 10 -41 10q-37 0 -63 -23l-54 13l2 198h226v-61h-164l-2 -88q23 19 68 19q50 0 83 -26q39 -29 39 -91q0 -69 -50 -101q-37 -25 -94 -25q-80 0 -117 36z" />
    <glyph glyph-name="uniF65B" unicode="&#xf65b;" horiz-adv-x="364" 
d="M310 339l-36 -48q-28 23 -83 23q-49 0 -62.5 -25t-14.5 -96q24 34 85 34q53 0 82 -25q35 -29 35 -88q0 -62 -38 -93q-35 -27 -96 -27q-74 0 -106 39t-32 145q0 116 38 156q37 39 113 39q78 0 115 -34zM188 176q-70 0 -70 -66q0 -60 65 -60q35 0 49 15.5t14 48.5
t-13.5 47.5t-44.5 14.5z" />
    <glyph glyph-name="uniF65C" unicode="&#xf65c;" horiz-adv-x="364" 
d="M99 243h-58l-1 124h276v-64q-78 -151 -125 -303h-77q45 147 127 299h-141z" />
    <glyph glyph-name="uniF65D" unicode="&#xf65d;" horiz-adv-x="364" 
d="M50 278q0 50 38.5 73.5t91.5 23.5t91 -23t38 -71q0 -63 -70 -92q76 -29 76 -96q0 -50 -39.5 -75.5t-96.5 -25.5q-56 0 -96 25t-40 75q0 65 79 95q-72 26 -72 91zM117 272q0 -26 15.5 -38t46.5 -20q21 6 32 11t21 17.5t10 30.5q0 47 -62 47q-63 0 -63 -48zM110 99
q0 -52 69 -52q68 0 68 51q0 20 -11 33.5t-23 19t-35 12.5q-22 -7 -34 -12.5t-23 -19t-11 -32.5z" />
    <glyph glyph-name="uniF65E" unicode="&#xf65e;" horiz-adv-x="364" 
d="M48 27l36 48q29 -23 83 -23q49 0 62 25t14 96q-25 -34 -84 -34q-51 0 -83 26q-34 28 -34 87q0 63 37 93q34 28 97 28q73 0 106 -40q32 -39 32 -144q0 -116 -38 -156q-37 -40 -113 -40q-80 0 -115 34zM169 191q71 0 71 65q0 60 -66 60q-35 0 -49 -15.5t-14 -48.5
q0 -32 13.5 -46.5t44.5 -14.5z" />
    <glyph glyph-name="uniF65F" unicode="&#xf65f;" horiz-adv-x="190" 
d="M45 39q0 18 11.5 30.5t31.5 12.5t32 -12.5t12 -32.5q0 -44 -53 -120l-44 23q23 40 30 64q-20 9 -20 35z" />
    <glyph glyph-name="uniF660" unicode="&#xf660;" horiz-adv-x="190" 
d="M45 39q0 19 12 31t31 12t31.5 -12t12.5 -31t-12.5 -31t-31.5 -12q-18 0 -30.5 12t-12.5 31z" />
    <glyph glyph-name="uniF661" unicode="&#xf661;" horiz-adv-x="364" 
d="M318 511q0 -111 -43 -158q-34 -37 -99 -37t-97 37q-39 44 -39 149q0 112 42 158q35 37 99 37t98 -36q39 -44 39 -150zM244 512q0 66 -13.5 94.5t-50.5 28.5q-38 0 -52 -30.5t-14 -103.5q0 -67 13 -95t50 -28q38 0 52.5 30.5t14.5 103.5z" />
    <glyph glyph-name="uniF662" unicode="&#xf662;" horiz-adv-x="364" 
d="M61 323v63h101v232l-86 -56l-39 51l118 77h79v-304h80v-63h-253z" />
    <glyph glyph-name="uniF663" unicode="&#xf663;" horiz-adv-x="364" 
d="M309 386v-63h-262v47q0 50 25 78.5t94 67.5q22 12 30 17.5t20.5 15.5t17 20.5t4.5 23.5q0 43 -64 43q-51 0 -84 -30l-44 43q46 47 132 47q132 0 132 -102q0 -41 -21.5 -65.5t-69.5 -51.5q-59 -34 -78 -50.5t-19 -41.5z" />
    <glyph glyph-name="uniF664" unicode="&#xf664;" horiz-adv-x="364" 
d="M101 481v59h46q81 0 81 52q0 25 -16 34.5t-48 9.5q-57 0 -87 -25l-36 47q40 39 125 39q57 0 93 -22q42 -25 42 -75q0 -66 -68 -87q74 -15 74 -90q0 -55 -46 -83q-38 -23 -98 -23q-86 0 -123 37l36 49q31 -27 88 -27q69 0 69 53q0 30 -19.5 41t-64.5 11h-48z" />
    <glyph glyph-name="uniF665" unicode="&#xf665;" horiz-adv-x="364" 
d="M322 393h-63v-70h-67v70h-155v63l95 234h70l-96 -233h87v133h66v-133h63v-64z" />
    <glyph glyph-name="uniF666" unicode="&#xf666;" horiz-adv-x="364" 
d="M51 353l36 49q29 -26 83 -26q30 0 45 10q23 15 23 56q0 36 -20 50q-14 10 -41 10q-37 0 -63 -23l-54 14l2 197h226v-61h-164l-2 -88q23 19 68 19q50 0 83 -25q39 -30 39 -91q0 -68 -50 -102q-39 -25 -94 -25q-80 0 -117 36z" />
    <glyph glyph-name="uniF667" unicode="&#xf667;" horiz-adv-x="364" 
d="M310 662l-36 -48q-28 23 -83 23q-50 0 -63 -24.5t-14 -96.5q25 35 85 35q51 0 82 -26q35 -29 35 -88q0 -61 -38 -93q-35 -27 -96 -27q-73 0 -106 40q-32 39 -32 144q0 116 38 156t113 40q77 0 115 -35zM188 499q-70 0 -70 -66q0 -60 65 -60q35 0 49 15.5t14 48.5
t-13.5 47.5t-44.5 14.5z" />
    <glyph glyph-name="uniF668" unicode="&#xf668;" horiz-adv-x="364" 
d="M99 566h-58l-1 124h276v-64q-78 -151 -125 -303h-77q46 150 127 300h-141z" />
    <glyph glyph-name="uniF669" unicode="&#xf669;" horiz-adv-x="364" 
d="M50 601q0 50 38.5 73.5t91.5 23.5t91 -23t38 -71q0 -61 -70 -92q76 -29 76 -95q0 -51 -39.5 -76.5t-96.5 -25.5q-56 0 -96 25.5t-40 75.5q0 65 79 94q-72 28 -72 91zM117 596q0 -26 15.5 -38t46.5 -21q21 6 32 11t21 17.5t10 30.5q0 48 -62 48q-63 0 -63 -48zM110 422
q0 -52 69 -52q68 0 68 52q0 28 -17.5 41.5t-51.5 22.5q-33 -9 -50.5 -22.5t-17.5 -41.5z" />
    <glyph glyph-name="uniF66A" unicode="&#xf66a;" horiz-adv-x="364" 
d="M48 351l36 48q28 -23 83 -23q49 0 62 24.5t14 96.5q-25 -35 -84 -35q-51 0 -83 26q-34 29 -34 88q0 62 37 93q35 27 97 27q73 0 106 -40q32 -39 32 -144q0 -114 -38 -156q-38 -40 -113 -40q-79 0 -115 35zM169 514q71 0 71 66q0 60 -66 60q-35 0 -49 -15.5t-14 -48.5
t13.5 -47.5t44.5 -14.5z" />
    <glyph glyph-name="uniF66B" unicode="&#xf66b;" horiz-adv-x="190" 
d="M45 362q0 19 11.5 31t31.5 12t32 -12.5t12 -32.5q0 -44 -53 -120l-44 23q23 40 30 64q-20 11 -20 35z" />
    <glyph glyph-name="uniF66C" unicode="&#xf66c;" horiz-adv-x="190" 
d="M45 362q0 19 12 31t31 12t31.5 -12t12.5 -31t-12.5 -31t-31.5 -12q-18 0 -30.5 12t-12.5 31z" />
    <glyph glyph-name="uniF6AE" unicode="&#xf6ae;" horiz-adv-x="330" 
d="M209 799l58 -62q-69 -57 -87.5 -134t-18.5 -256q0 -181 18.5 -260t87.5 -134l-58 -62q-85 66 -111.5 167.5t-26.5 286.5q0 186 26.5 286.5t111.5 167.5z" />
    <glyph glyph-name="uniF6AF" unicode="&#xf6af;" horiz-adv-x="330" 
d="M121 -109l-58 62q69 57 87.5 134t18.5 258q0 180 -18.5 258.5t-87.5 133.5l58 62q85 -66 111.5 -167.5t26.5 -286.5q0 -186 -26.5 -286.5t-111.5 -167.5z" />
    <glyph glyph-name="uniF6B0" unicode="&#xf6b0;" horiz-adv-x="336" 
d="M84 782h190v-73h-99v-728h99v-73h-190v874z" />
    <glyph glyph-name="uniF6B1" unicode="&#xf6b1;" horiz-adv-x="336" 
d="M252 -92h-189v73h99v728h-99v73h189v-874z" />
    <glyph glyph-name="uniF6B2" unicode="&#xf6b2;" horiz-adv-x="355" 
d="M292 -92h-60q-59 0 -93 33t-34 94v165q0 62 -21.5 83.5t-76.5 23.5v75q55 2 76.5 23.5t21.5 85.5v160q0 62 33.5 96.5t93.5 34.5h60v-78h-39q-39 0 -51 -15t-12 -53v-155q0 -116 -82 -136q82 -20 82 -136v-156q0 -37 12 -52.5t51 -15.5h39v-77z" />
    <glyph glyph-name="uniF6B3" unicode="&#xf6b3;" horiz-adv-x="355" 
d="M63 782h60q59 0 93 -33t34 -94v-165q0 -62 21.5 -83.5t76.5 -23.5v-75q-55 -2 -76.5 -23.5t-21.5 -85.5v-160q0 -62 -33.5 -96.5t-93.5 -34.5h-60v78h39q39 0 51 15t12 53v155q0 116 82 136q-82 20 -82 136v156q0 37 -12 52.5t-51 15.5h-39v77z" />
    <glyph glyph-name="uniF6B4" unicode="&#xf6b4;" horiz-adv-x="319" 
d="M94 0l7 492h83l7 -492h-97zM201 639q0 -25 -16.5 -41.5t-41.5 -16.5t-42 16.5t-17 41.5t17 41t42 16t41.5 -16t16.5 -41z" />
    <glyph glyph-name="uniF6B5" unicode="&#xf6b5;" horiz-adv-x="483" 
d="M363 114l49 -63q-73 -61 -179 -61q-68 0 -119 29q-68 39 -68 119q0 41 18.5 74t44.5 54t52 38.5t44.5 37.5t18.5 42q0 26 -23 59l68 39q42 -50 42 -101q0 -35 -18 -63.5t-43.5 -47.5t-51.5 -36.5t-44 -40t-18 -48.5q0 -78 94 -78q75 0 133 47zM278 638q0 -25 -17 -41.5
t-42 -16.5t-42 16.5t-17 41.5t17 41.5t42 16.5q26 0 42.5 -16.5t16.5 -41.5z" />
    <glyph glyph-name="uniF6B6" unicode="&#xf6b6;" horiz-adv-x="492" 
d="M181 145l-161 200l161 200l59 -45l-121 -155l121 -154zM401 145l-161 200l161 200l59 -45l-122 -155l122 -154z" />
    <glyph glyph-name="uniF6B7" unicode="&#xf6b7;" horiz-adv-x="492" 
d="M311 545l161 -200l-161 -200l-59 45l121 155l-121 154zM91 545l161 -200l-161 -200l-59 45l122 155l-122 154z" />
    <glyph glyph-name="uniF6B8" unicode="&#xf6b8;" horiz-adv-x="294" 
d="M200 139l-180 206l180 206l62 -48l-134 -158l134 -157z" />
    <glyph glyph-name="uniF6B9" unicode="&#xf6b9;" horiz-adv-x="294" 
d="M95 551l179 -206l-179 -206l-63 48l135 158l-135 157z" />
    <glyph glyph-name="uniF6BA" unicode="&#xf6ba;" horiz-adv-x="334" 
d="M315 302h-295v85h295v-85z" />
    <glyph glyph-name="uniF6BB" unicode="&#xf6bb;" horiz-adv-x="500" 
d="M480 302h-460v85h460v-85z" />
    <glyph glyph-name="uniF6BC" unicode="&#xf6bc;" horiz-adv-x="1000" 
d="M980 302h-960v85h960v-85z" />
    <glyph glyph-name="uniF6BD" unicode="&#xf6bd;" horiz-adv-x="235" 
d="M58 345q0 25 17 42t42 17q26 0 43 -17t17 -42t-17 -42t-43 -17q-25 0 -42 17t-17 42z" />
    <glyph glyph-name="commaaccent" unicode="&#xf6c3;" horiz-adv-x="200" 
d="M57 -104q0 24 14.5 40t40.5 16t41 -16t15 -45q0 -61 -75 -177l-53 30q34 63 46 104q-29 11 -29 48z" />
    <glyph glyph-name="Acute" unicode="&#xf6c9;" horiz-adv-x="200" 
d="M49 557l-38 57l183 135l46 -67z" />
    <glyph glyph-name="Caron" unicode="&#xf6ca;" horiz-adv-x="200" 
d="M250 656l-151 -103l-148 102l36 58l113 -70l114 71z" />
    <glyph glyph-name="Grave" unicode="&#xf6ce;" horiz-adv-x="200" 
d="M182 614l-38 -57l-191 125l46 67z" />
    <glyph glyph-name="Hungarumlaut" unicode="&#xf6cf;" horiz-adv-x="200" 
d="M-8 557l-41 46l167 147l48 -53zM187 557l-42 46l167 147l49 -53z" />
    <glyph glyph-name="uniF6DC" unicode="&#xf6dc;" horiz-adv-x="475" 
d="M64 0v82h155v515l-138 -110l-50 68l180 135h100v-608h125v-82h-372z" />
    <glyph glyph-name="threequartersemdash" unicode="&#xf6de;" horiz-adv-x="750" 
d="M730 224h-710v85h710v-85z" />
    <glyph glyph-name="centinferior" unicode="&#xf6df;" horiz-adv-x="351" 
d="M221 223l-1 -58q54 -5 85 -35l-43 -49q-26 22 -69 22q-45 0 -59 -22t-14 -75q0 -54 13.5 -77t50.5 -23q47 0 82 35l45 -45q-34 -38 -91 -49l1 -59h-75l1 59q-43 8 -68 35q-36 38 -36 121t37 123q24 26 67 36l-1 61h75z" />
    <glyph glyph-name="centsuperior" unicode="&#xf6e0;" horiz-adv-x="351" 
d="M221 906l-1 -57q54 -7 85 -35l-43 -49q-26 22 -69 22q-45 0 -59 -22t-14 -75q0 -54 13.5 -77.5t50.5 -23.5q47 0 82 35l45 -45q-34 -38 -91 -49l1 -59h-75l1 59q-43 8 -68 35q-36 38 -36 121q0 84 37 124q23 25 67 35l-1 61h75z" />
    <glyph glyph-name="commainferior" unicode="&#xf6e1;" horiz-adv-x="179" 
d="M41 -144q0 18 11.5 30.5t31.5 12.5t32 -12.5t12 -32.5q0 -44 -52 -121l-45 24q23 40 30 64q-20 9 -20 35z" />
    <glyph glyph-name="commasuperior" unicode="&#xf6e2;" horiz-adv-x="179" 
d="M41 539q0 18 11.5 30.5t31.5 12.5t32 -12.5t12 -32.5q0 -44 -52 -121l-45 24q23 40 30 64q-20 9 -20 35z" />
    <glyph glyph-name="dollarinferior" unicode="&#xf6e3;" horiz-adv-x="351" 
d="M210 223v-44q53 -5 86 -28l-35 -52q-35 20 -86 20q-61 0 -61 -36q0 -15 20 -25t48 -17.5t56 -17.5t48 -32.5t20 -56.5q0 -50 -42 -77q-20 -14 -54 -22v-47h-74v43q-69 6 -103 33l37 54q39 -26 98 -26q63 0 63 38q0 21 -30 34t-65.5 20.5t-65.5 31.5t-30 65q0 46 38 72
q25 17 58 23v47h74z" />
    <glyph glyph-name="dollarsuperior" unicode="&#xf6e4;" horiz-adv-x="351" 
d="M210 906v-44q53 -5 86 -28l-35 -52q-35 20 -86 20q-61 0 -61 -35q0 -16 20 -26t48 -17.5t56 -17.5t48 -32.5t20 -56.5q0 -50 -42 -77q-20 -14 -54 -22v-47h-74v43q-69 6 -103 33l37 54q39 -26 98 -26q63 0 63 38q0 21 -30 34t-65.5 20.5t-65.5 31.5t-30 65q0 47 38 73
q21 15 58 23v46h74z" />
    <glyph glyph-name="hypheninferior" unicode="&#xf6e5;" horiz-adv-x="205" 
d="M189 -32h-169v64h169v-64z" />
    <glyph glyph-name="hyphensuperior" unicode="&#xf6e6;" horiz-adv-x="205" 
d="M189 651h-169v65h169v-65z" />
    <glyph glyph-name="periodinferior" unicode="&#xf6e7;" horiz-adv-x="179" 
d="M41 -144q0 19 12 31t31 12t31.5 -12t12.5 -31t-12.5 -31.5t-31.5 -12.5t-31 12.5t-12 31.5z" />
    <glyph glyph-name="periodsuperior" unicode="&#xf6e8;" horiz-adv-x="179" 
d="M41 539q0 19 12 31t31 12t31.5 -12t12.5 -31t-12.5 -31.5t-31.5 -12.5t-31 12.5t-12 31.5z" />
    <glyph glyph-name="asuperior" unicode="&#xf6e9;" horiz-adv-x="320" 
d="M76 696l-35 40q37 38 110 38q59 0 87 -23.5t28 -78.5v-172h-61v38q-29 -45 -89 -45q-40 0 -64 21t-24 61q0 44 34 67q34 22 102 22h37v9q0 27 -12 37.5t-41 10.5q-44 0 -72 -25zM201 618h-42q-34 0 -49 -8t-15 -34q0 -30 32 -30q26 0 49.5 19.5t24.5 52.5z" />
    <glyph glyph-name="bsuperior" unicode="&#xf6ea;" horiz-adv-x="352" 
d="M52 906h70v-171q29 40 86 40q102 0 102 -135q0 -146 -113 -146q-56 0 -82 38l-2 -32h-61v406zM238 636q0 39 -10 58.5t-38 19.5t-46 -20q-24 -25 -24 -70q0 -36 19 -54q17 -17 45 -17q32 0 43 20.5t11 62.5z" />
    <glyph glyph-name="dsuperior" unicode="&#xf6eb;" horiz-adv-x="353" 
d="M229 906h70v-406h-67v41q-31 -48 -92 -48q-40 0 -66 26q-35 35 -35 112q0 82 38 116q30 28 81 28q47 0 71 -25v156zM157 553q24 0 46 22q28 30 28 76q0 35 -19 51q-15 14 -43 14q-33 0 -44.5 -19.5t-11.5 -64.5q0 -43 10 -61t34 -18z" />
    <glyph glyph-name="esuperior" unicode="&#xf6ec;" horiz-adv-x="334" 
d="M252 579l36 -41q-47 -44 -120 -44q-60 0 -91 27q-38 33 -38 107q0 78 37 114q36 34 96 34q119 0 119 -124q0 -21 -2 -33l-180 -1q1 -36 13 -52.5t48 -16.5q47 0 82 30zM111 666h112q-1 30 -11.5 43.5t-41.5 13.5q-32 0 -44.5 -14.5t-14.5 -42.5z" />
    <glyph glyph-name="isuperior" unicode="&#xf6ed;" horiz-adv-x="181" 
d="M52 768h70v-268h-70v268zM45 858q0 18 12 30t30 12t30.5 -12t12.5 -30q0 -19 -12.5 -31t-30.5 -12t-30 12t-12 31z" />
    <glyph glyph-name="lsuperior" unicode="&#xf6ee;" horiz-adv-x="181" 
d="M52 906h70v-406h-70v406z" />
    <glyph glyph-name="msuperior" unicode="&#xf6ef;" horiz-adv-x="511" 
d="M52 768h66v-47q25 54 88 54q64 0 79 -55q26 55 90 55q84 0 84 -93v-182h-70v170q0 21 -7 31t-25 10q-28 0 -47.5 -27t-19.5 -80v-104h-70v171q0 40 -31 40q-28 0 -47.5 -27t-19.5 -80v-104h-70v268z" />
    <glyph glyph-name="osuperior" unicode="&#xf6f0;" horiz-adv-x="343" 
d="M303 638q0 -79 -38 -114q-35 -32 -97 -32q-61 0 -93 30q-36 32 -36 108q0 80 38 115q35 32 97 32q60 0 93 -30q36 -32 36 -109zM230 636q0 53 -17 69q-11 13 -40 13q-28 0 -44 -14q-17 -18 -17 -72q0 -52 17 -69q12 -12 41 -12t43 14q17 17 17 71z" />
    <glyph glyph-name="rsuperior" unicode="&#xf6f1;" horiz-adv-x="257" 
d="M52 768h67l-1 -48q24 56 80 56q19 0 31 -6l-12 -67q-8 4 -23 4q-37 0 -54.5 -31.5t-17.5 -81.5v-94h-70v268z" />
    <glyph glyph-name="ssuperior" unicode="&#xf6f2;" horiz-adv-x="275" 
d="M236 744l-34 -43q-27 20 -64 20q-40 0 -40 -24q0 -13 22.5 -22.5t50 -16t50 -27t22.5 -53.5q0 -43 -34 -63.5t-83 -20.5q-69 0 -101 33l34 44q27 -24 72 -24t45 28q0 14 -22.5 24t-50 16t-50 26t-22.5 52q0 39 32 60t81 21q62 0 92 -30z" />
    <glyph glyph-name="tsuperior" unicode="&#xf6f3;" horiz-adv-x="270" 
d="M225 562l5 -59q-25 -6 -60 -6q-55 0 -75 23.5t-20 75.5v107h-48v61h48v75l70 7v-82h81v-61h-81v-102q0 -26 6.5 -34.5t31.5 -8.5t42 4z" />
    <glyph glyph-name="Lslashsmall" unicode="&#xf6f9;" horiz-adv-x="435" 
d="M87 532h88v-188l50 26l36 -69l-86 -46v-176h224v-79h-312v209l-36 -19l-37 69l73 38v235z" />
    <glyph glyph-name="OEsmall" unicode="&#xf6fa;" horiz-adv-x="806" 
d="M738 532v-77h-259q38 -40 40 -146h200v-77h-200q0 -114 -43 -156h266v-76h-351q-17 0 -49 -2t-50 -2q-128 0 -186 71q-49 60 -49 197q0 136 52 199q58 72 186 72q17 0 52.5 -1.5t50.5 -1.5h340zM427 265q0 47 -1.5 72t-8.5 52.5t-20.5 39.5t-38.5 20.5t-62 8.5
q-30 0 -52.5 -4.5t-38 -11.5t-25.5 -21t-15.5 -26.5t-8.5 -36.5t-3.5 -41.5t-0.5 -49.5q0 -47 1.5 -71.5t8.5 -52.5t21.5 -40.5t40 -21t65.5 -8.5t66.5 9t40.5 22t21 41.5t8.5 51.5t1.5 68z" />
    <glyph glyph-name="Scaronsmall" unicode="&#xf6fd;" horiz-adv-x="456" 
d="M389 496l-42 -64q-51 32 -122 32q-89 0 -89 -70q0 -28 27.5 -47t67 -32t79 -29.5t67 -51.5t27.5 -87q0 -79 -62 -121q-55 -35 -135 -35q-113 0 -169 52l45 66q53 -42 137 -42q94 0 94 76q0 32 -27.5 52.5t-67 33.5t-79 29t-67 49.5t-27.5 84.5q0 70 55 108q55 40 135 40
q98 0 153 -44zM371 736l-141 -148l-138 147l48 49l91 -96l92 96z" />
    <glyph glyph-name="Zcaronsmall" unicode="&#xf6ff;" horiz-adv-x="468" 
d="M415 530v-76l-269 -377l276 1v-78h-381v75l268 377h-261v78h367zM376 736l-141 -148l-138 147l48 49l91 -96l92 96z" />
    <glyph glyph-name="exclamsmall" unicode="&#xf721;" horiz-adv-x="293" 
d="M206 532l-7 -369h-81l-6 369h94zM105 47q0 23 15.5 38t38.5 15t38.5 -15t15.5 -38q0 -22 -15.5 -37t-38.5 -15t-38.5 15t-15.5 37z" />
    <glyph glyph-name="ampersandsmall" unicode="&#xf726;" horiz-adv-x="572" 
d="M408 275h78q-1 -86 -56 -169l110 -106h-103l-53 50q-62 -59 -152 -59q-81 0 -129 39q-45 37 -45 103q0 91 85 151q-50 58 -50 116q0 61 40 98q43 41 120 41t122 -42l-48 -56q-30 26 -78 26q-72 0 -72 -64q0 -26 14.5 -51.5t31 -43t58.5 -57.5l96 -94q29 53 31 118z
M333 99l-138 131q-56 -34 -56 -93q0 -78 93 -78q58 0 101 40z" />
    <glyph glyph-name="zerooldstyle" unicode="&#xf730;" horiz-adv-x="581" 
d="M524 272q0 -158 -67 -224q-59 -59 -171 -59q-111 0 -166 57q-62 63 -62 214q0 155 62 220q59 62 176 62q108 0 164 -54q64 -61 64 -216zM429 273q0 119 -34 158q-31 36 -101 36q-78 0 -111 -45q-30 -42 -30 -159q0 -123 33 -162q28 -36 100 -36q82 0 113 45q30 44 30 163
z" />
    <glyph glyph-name="oneoldstyle" unicode="&#xf731;" horiz-adv-x="438" 
d="M49 0v78h153v367l-135 -82l-47 66l171 103h99v-454h122v-78h-363z" />
    <glyph glyph-name="twooldstyle" unicode="&#xf732;" horiz-adv-x="485" 
d="M428 77v-77h-400v57q0 73 38.5 114.5t151.5 101.5q33 17 49 26.5t35.5 25.5t27.5 32.5t8 37.5q0 70 -112 70q-50 0 -81 -13.5t-59 -44.5l-54 53q68 80 196 80q89 0 144.5 -34t55.5 -110q0 -61 -34.5 -96t-109.5 -76q-99 -54 -131.5 -80.5t-32.5 -67.5z" />
    <glyph glyph-name="threeoldstyle" unicode="&#xf733;" horiz-adv-x="461" 
d="M102 197v76h65q73 0 108.5 23t35.5 81q0 48 -27 68t-83 20q-81 0 -130 -54l-53 54q64 75 189 75q79 0 128 -27q70 -39 70 -123q0 -58 -30 -97t-82 -53q125 -19 125 -148q0 -98 -79 -155q-63 -46 -161 -46q-95 0 -146 40l36 65q41 -28 115 -28q140 0 140 124q0 63 -35 84
t-122 21h-64z" />
    <glyph glyph-name="fouroldstyle" unicode="&#xf734;" horiz-adv-x="499" 
d="M480 15h-97v-126h-85v126h-268v84l186 441l85 -20l-183 -428h182v234h83v-232h97v-79z" />
    <glyph glyph-name="fiveoldstyle" unicode="&#xf735;" horiz-adv-x="497" 
d="M47 -69l36 65q40 -28 114 -28t107 28q39 33 39 114q0 64 -25 92t-78 28q-61 0 -114 -45l-63 31l6 316h333v-84h-255l-4 -175q40 34 117 34q75 0 123 -41q56 -49 56 -149q0 -128 -88 -186q-60 -40 -157 -40q-98 0 -147 40z" />
    <glyph glyph-name="sixoldstyle" unicode="&#xf736;" horiz-adv-x="537" 
d="M469 604l-36 -64q-44 29 -113 29q-95 0 -131.5 -53t-37.5 -200q39 74 141 74q78 0 130 -47q56 -51 56 -149q0 -105 -62 -159q-54 -48 -143 -48q-87 0 -141 46q-41 37 -57.5 100.5t-16.5 161.5q0 89 14 158t57 117q65 75 194 75q96 0 146 -41zM280 319q-124 0 -124 -132
q0 -126 119 -126q62 0 87 33.5t25 98.5q0 64 -24 95t-83 31z" />
    <glyph glyph-name="sevenoldstyle" unicode="&#xf737;" horiz-adv-x="464" 
d="M114 348h-78l-2 184h397v-92l-216 -555l-87 32l210 527h-221z" />
    <glyph glyph-name="eightoldstyle" unicode="&#xf738;" horiz-adv-x="550" 
d="M67 484q0 57 33.5 95t78.5 53t97 15q84 0 145.5 -39t61.5 -120q0 -110 -124 -161q134 -52 134 -169q0 -85 -64 -128t-155 -43q-89 0 -153 42.5t-64 127.5q0 112 136 166q-126 48 -126 161zM156 477q0 -28 8.5 -48t28.5 -33t36 -19.5t46 -16.5q29 9 46 16t36 20.5
t27.5 33.5t8.5 48q0 95 -117 95q-120 0 -120 -96zM145 164q0 -104 130 -104q129 0 129 104q0 30 -10 51.5t-31 35.5t-39.5 21.5t-49.5 16.5q-30 -9 -49.5 -17t-39.5 -22t-30 -35.5t-10 -50.5z" />
    <glyph glyph-name="nineoldstyle" unicode="&#xf739;" horiz-adv-x="537" 
d="M69 -69l36 65q40 -29 112 -29q96 0 132 52.5t37 196.5q-17 -34 -53.5 -53.5t-87.5 -19.5q-80 0 -130 47q-56 53 -56 148q0 103 62 159q55 49 143 49q89 0 141 -47q41 -36 57.5 -99.5t16.5 -162.5q0 -87 -13.5 -155.5t-56.5 -116.5q-67 -74 -195 -74q-96 0 -145 40z
M257 213q125 0 125 132q0 127 -120 127q-62 0 -87 -34t-25 -99q0 -64 24 -95t83 -31z" />
    <glyph glyph-name="questionsmall" unicode="&#xf73f;" horiz-adv-x="413" 
d="M114 432l-45 59q58 48 147 48q59 0 101 -24q55 -31 55 -93q0 -40 -22.5 -70t-49 -45t-49 -33.5t-22.5 -37.5t17 -41l-64 -32q-34 39 -34 78q0 33 22 59t48.5 40t48.5 34t22 42q0 52 -70 52q-58 0 -105 -36zM176 47q0 23 15 38t38 15t39 -15t16 -38q0 -22 -16 -37t-39 -15
t-38 15t-15 37z" />
    <glyph glyph-name="Asmall" unicode="&#xf761;" horiz-adv-x="522" 
d="M497 0h-96l-42 122h-208l-42 -122h-93l186 532h110zM339 196l-83 245l-84 -245h167z" />
    <glyph glyph-name="Bsmall" unicode="&#xf762;" horiz-adv-x="519" 
d="M78 532h206q76 0 116 -31q42 -31 42 -95q0 -104 -98 -126q109 -16 109 -127q0 -77 -52 -117q-47 -36 -133 -36h-190v532zM166 236v-163h96q52 0 74 19q24 21 24 67q0 44 -23.5 60.5t-72.5 16.5h-98zM166 458v-153h75q107 0 107 85q0 39 -19 55q-17 13 -57 13h-106z" />
    <glyph glyph-name="Csmall" unicode="&#xf763;" horiz-adv-x="490" 
d="M399 128l53 -55q-70 -82 -187 -82q-93 0 -143 50q-65 64 -65 220q0 158 65 224q54 56 159 56q106 0 163 -60l-50 -60q-45 42 -117 42q-68 0 -96 -37q-31 -41 -31 -165q0 -123 36 -162q26 -31 81 -31q77 0 132 60z" />
    <glyph glyph-name="Dsmall" unicode="&#xf764;" horiz-adv-x="560" 
d="M78 532h197q109 0 164 -49q35 -32 48.5 -83.5t13.5 -131.5q0 -158 -66 -218q-55 -50 -157 -50h-200v532zM168 454v-376h104q68 0 100 32q36 36 36 154q0 124 -38 161q-31 29 -98 29h-104z" />
    <glyph glyph-name="Esmall" unicode="&#xf765;" horiz-adv-x="457" 
d="M78 532h311v-77h-223v-146h204v-77h-204v-156h227v-76h-315v532z" />
    <glyph glyph-name="Fsmall" unicode="&#xf766;" horiz-adv-x="440" 
d="M78 532h311v-79h-222v-151h203v-79h-203v-223h-89v532z" />
    <glyph glyph-name="Gsmall" unicode="&#xf767;" horiz-adv-x="551" 
d="M282 289h198v-266q-81 -30 -181 -30q-121 0 -178 54q-37 36 -50.5 87t-13.5 126q0 160 65 222q59 57 175 57q115 0 176 -55l-51 -63q-50 41 -132 41q-73 0 -104 -33q-35 -36 -35 -164q0 -136 37 -170q32 -30 106 -30q59 0 102 12v138h-114v74z" />
    <glyph glyph-name="Hsmall" unicode="&#xf768;" horiz-adv-x="572" 
d="M78 532h89v-221h233v221h89v-532h-89v232h-233v-232h-89v532z" />
    <glyph glyph-name="Ismall" unicode="&#xf769;" horiz-adv-x="259" 
d="M78 532h89v-532h-89v532z" />
    <glyph glyph-name="Jsmall" unicode="&#xf76a;" horiz-adv-x="273" 
d="M91 532h88v-501q0 -194 -171 -194q-40 0 -62 10l15 78q18 -7 48 -7q48 0 65 25.5t17 84.5v504z" />
    <glyph glyph-name="Ksmall" unicode="&#xf76b;" horiz-adv-x="545" 
d="M78 532h89v-218h54l171 218h104l-200 -258l214 -274h-108l-183 230h-52v-230h-89v532z" />
    <glyph glyph-name="Lsmall" unicode="&#xf76c;" horiz-adv-x="425" 
d="M78 532h89v-453h224v-79h-313v532z" />
    <glyph glyph-name="Msmall" unicode="&#xf76d;" horiz-adv-x="724" 
d="M95 532h123l141 -383l144 383h121l31 -532h-89l-19 431l-147 -404h-83l-146 404l-20 -431h-87z" />
    <glyph glyph-name="Nsmall" unicode="&#xf76e;" horiz-adv-x="600" 
d="M78 532h117l238 -413l-3 413h87v-532h-117l-238 412l3 -412h-87v532z" />
    <glyph glyph-name="Osmall" unicode="&#xf76f;" horiz-adv-x="581" 
d="M523 271q0 -155 -66 -222q-60 -60 -172 -60q-113 0 -169 59q-59 63 -59 212q0 157 66 223q59 59 172 59q111 0 167 -58q61 -62 61 -213zM427 268q0 129 -37 167q-32 32 -98 32t-101 -35q-39 -42 -39 -171t38 -166q30 -30 97 -30q69 0 102 35q38 39 38 168z" />
    <glyph glyph-name="Psmall" unicode="&#xf770;" horiz-adv-x="508" 
d="M78 532h194q79 0 123 -32q56 -40 56 -139q0 -100 -56 -142q-45 -32 -124 -32h-104v-187h-89v532zM167 454v-190h104q48 0 66 18q22 19 22 77q0 59 -23 79q-18 16 -69 16h-100z" />
    <glyph glyph-name="Qsmall" unicode="&#xf771;" horiz-adv-x="581" 
d="M523 271q0 -153 -65 -221l75 -75l-68 -63l-88 90q-42 -13 -92 -13q-113 0 -168 58q-60 63 -60 213q0 156 65 222q60 60 171 60q114 0 169 -58q61 -62 61 -213zM427 268q0 129 -37 167q-32 32 -98 32t-101 -35q-39 -42 -39 -169q0 -130 37 -167q31 -31 97 -31q70 0 102 34
q39 40 39 169z" />
    <glyph glyph-name="Rsmall" unicode="&#xf772;" horiz-adv-x="528" 
d="M78 532h199q79 0 122 -28q56 -35 56 -117q0 -120 -114 -145q51 -11 75 -64t45 -178h-94q-25 125 -45.5 165t-68.5 40h-86v-205h-89v532zM167 455v-174h69q64 0 95 20.5t31 76.5q0 44 -21 62q-18 15 -67 15h-107z" />
    <glyph glyph-name="Ssmall" unicode="&#xf773;" horiz-adv-x="456" 
d="M389 496l-42 -64q-51 32 -122 32q-89 0 -89 -70q0 -28 27.5 -47t67 -32t79 -29.5t67 -51.5t27.5 -87q0 -79 -62 -121q-55 -35 -135 -35q-113 0 -169 52l45 66q53 -42 137 -42q94 0 94 76q0 32 -27.5 52.5t-67 33.5t-79 29t-67 49.5t-27.5 84.5q0 70 55 108q55 40 135 40
q98 0 153 -44z" />
    <glyph glyph-name="Tsmall" unicode="&#xf774;" horiz-adv-x="460" 
d="M23 532h418v-80h-164v-452h-89v452h-165v80z" />
    <glyph glyph-name="Usmall" unicode="&#xf775;" horiz-adv-x="574" 
d="M78 532h89v-345q0 -64 21 -91.5t98 -27.5q75 0 97 27.5t22 92.5v344h89v-342q0 -90 -39 -137q-52 -62 -172 -62q-115 0 -165 57q-40 44 -40 139v345z" />
    <glyph glyph-name="Vsmall" unicode="&#xf776;" horiz-adv-x="524" 
d="M22 532h97l141 -434l142 434h94l-187 -532h-102z" />
    <glyph glyph-name="Wsmall" unicode="&#xf777;" horiz-adv-x="755" 
d="M28 532h91l98 -429l112 413h97l112 -412l99 428h89l-134 -532h-104l-112 409l-113 -409h-104z" />
    <glyph glyph-name="Xsmall" unicode="&#xf778;" horiz-adv-x="530" 
d="M38 532h105l116 -196l115 196h104l-162 -257l175 -275h-105l-129 212l-129 -212h-103l176 275z" />
    <glyph glyph-name="Ysmall" unicode="&#xf779;" horiz-adv-x="477" 
d="M14 532h102l116 -236l118 236h102l-177 -327v-205h-89v205z" />
    <glyph glyph-name="Zsmall" unicode="&#xf77a;" horiz-adv-x="468" 
d="M415 530v-76l-269 -377l276 1v-78h-381v75l268 377h-261v78h367z" />
    <glyph glyph-name="exclamdownsmall" unicode="&#xf7a1;" horiz-adv-x="293" 
d="M82 0l7 368h80l7 -368h-94zM183 485q0 -23 -15.5 -38t-38.5 -15t-38.5 15t-15.5 38q0 22 15.5 37t38.5 15t38.5 -15t15.5 -37z" />
    <glyph glyph-name="questiondownsmall" unicode="&#xf7bf;" horiz-adv-x="413" 
d="M302 99l45 -59q-58 -47 -146 -47q-60 0 -100 22q-57 31 -57 95q0 39 22.5 69.5t49 45t49 33.5t22.5 38q0 18 -16 40l63 33q34 -40 34 -79q0 -33 -22 -59t-48 -40t-48 -34t-22 -42q0 -51 68 -51q60 0 106 35zM240 484q0 -23 -15.5 -38t-38.5 -15t-38.5 15.5t-15.5 37.5
q0 23 16 38t39 15t38 -15t15 -38z" />
    <glyph glyph-name="Agravesmall" unicode="&#xf7e0;" horiz-adv-x="522" 
d="M497 0h-96l-42 122h-208l-42 -122h-93l186 532h110zM339 196l-83 245l-84 -245h167zM345 637l-54 -47l-154 171l62 52z" />
    <glyph glyph-name="Aacutesmall" unicode="&#xf7e1;" horiz-adv-x="522" 
d="M497 0h-96l-42 122h-208l-42 -122h-93l186 532h110zM339 196l-83 245l-84 -245h167zM227 590l-54 47l146 176l61 -52z" />
    <glyph glyph-name="Acircumflexsmall" unicode="&#xf7e2;" horiz-adv-x="522" 
d="M497 0h-96l-42 122h-208l-42 -122h-93l186 532h110zM339 196l-83 245l-84 -245h167zM122 648l140 148l139 -147l-49 -48l-91 95l-92 -96z" />
    <glyph glyph-name="Atildesmall" unicode="&#xf7e3;" horiz-adv-x="522" 
d="M497 0h-96l-42 122h-208l-42 -122h-93l186 532h110zM339 196l-83 245l-84 -245h167zM385 755l42 -49q-50 -62 -107 -62q-26 0 -66.5 16.5t-56.5 16.5q-33 0 -60 -35l-42 48q49 63 107 63q26 0 66.5 -16.5t56.5 -16.5q33 0 60 35z" />
    <glyph glyph-name="Adieresissmall" unicode="&#xf7e4;" horiz-adv-x="522" 
d="M497 0h-96l-42 122h-208l-42 -122h-93l186 532h110zM339 196l-83 245l-84 -245h167zM355 740q23 0 38 -15.5t15 -38.5q0 -22 -15.5 -37t-37.5 -15t-37 15t-15 37q0 23 15 38.5t37 15.5zM166 740q22 0 37.5 -15.5t15.5 -38.5q0 -22 -15.5 -37t-37.5 -15t-37 15t-15 37
q0 23 15 38.5t37 15.5z" />
    <glyph glyph-name="Aringsmall" unicode="&#xf7e5;" horiz-adv-x="522" 
d="M497 0h-96l-42 122h-208l-42 -122h-93l186 532h110zM339 196l-83 245l-84 -245h167zM378 718q0 -48 -33 -78.5t-84 -30.5t-84 30.5t-33 78.5t32.5 78.5t84.5 30.5q51 0 84 -30.5t33 -78.5zM310 718q0 24 -14 37.5t-35 13.5q-22 0 -35.5 -14t-13.5 -38t14 -37t35 -13
t35 14t14 37z" />
    <glyph glyph-name="AEsmall" unicode="&#xf7e6;" horiz-adv-x="739" 
d="M354 134h-189l-66 -134h-98l265 532h398v-77h-221v-146h201v-77h-201v-156h224v-76h-313v134zM319 455l-122 -249h157v249h-35z" />
    <glyph glyph-name="Ccedillasmall" unicode="&#xf7e7;" horiz-adv-x="490" 
d="M399 128l53 -55q-66 -78 -173 -82l-4 -39q69 -27 69 -83q0 -43 -29 -73t-80 -30q-67 0 -108 57l42 43q25 -38 61 -38q19 0 31 10.5t12 29.5q0 38 -67 54l7 74q-56 10 -91 45q-65 64 -65 220q0 158 65 224q54 56 159 56q106 0 163 -60l-50 -60q-45 42 -117 42
q-68 0 -96 -37q-31 -41 -31 -165q0 -123 36 -162q26 -31 81 -31q77 0 132 60z" />
    <glyph glyph-name="Egravesmall" unicode="&#xf7e8;" horiz-adv-x="457" 
d="M78 532h311v-77h-223v-146h204v-77h-204v-156h227v-76h-315v532zM324 637l-54 -47l-154 171l62 52z" />
    <glyph glyph-name="Eacutesmall" unicode="&#xf7e9;" horiz-adv-x="457" 
d="M78 532h311v-77h-223v-146h204v-77h-204v-156h227v-76h-315v532zM206 590l-54 47l146 176l61 -52z" />
    <glyph glyph-name="Ecircumflexsmall" unicode="&#xf7ea;" horiz-adv-x="457" 
d="M78 532h311v-77h-223v-146h204v-77h-204v-156h227v-76h-315v532zM101 648l140 148l139 -147l-49 -48l-91 95l-92 -96z" />
    <glyph glyph-name="Edieresissmall" unicode="&#xf7eb;" horiz-adv-x="457" 
d="M78 532h311v-77h-223v-146h204v-77h-204v-156h227v-76h-315v532zM334 740q23 0 38 -15.5t15 -38.5q0 -22 -15.5 -37t-37.5 -15t-37 15t-15 37q0 23 15 38.5t37 15.5zM145 740q22 0 37.5 -15.5t15.5 -38.5q0 -22 -15.5 -37t-37.5 -15t-37 15t-15 37q0 23 15 38.5t37 15.5z
" />
    <glyph glyph-name="Igravesmall" unicode="&#xf7ec;" horiz-adv-x="259" 
d="M78 532h89v-532h-89v532zM213 637l-54 -47l-154 171l62 52z" />
    <glyph glyph-name="Iacutesmall" unicode="&#xf7ed;" horiz-adv-x="259" 
d="M78 532h89v-532h-89v532zM95 590l-54 47l146 176l61 -52z" />
    <glyph glyph-name="Icircumflexsmall" unicode="&#xf7ee;" horiz-adv-x="259" 
d="M78 532h89v-532h-89v532zM-10 648l140 148l139 -147l-49 -48l-91 95l-92 -96z" />
    <glyph glyph-name="Idieresissmall" unicode="&#xf7ef;" horiz-adv-x="259" 
d="M78 532h89v-532h-89v532zM223 740q23 0 38 -15.5t15 -38.5q0 -22 -15.5 -37t-37.5 -15t-37 15t-15 37q0 23 15 38.5t37 15.5zM34 740q22 0 37.5 -15.5t15.5 -38.5q0 -22 -15.5 -37t-37.5 -15t-37 15t-15 37q0 23 15 38.5t37 15.5z" />
    <glyph glyph-name="Ethsmall" unicode="&#xf7f0;" horiz-adv-x="569" 
d="M88 532h198q111 0 165 -54q59 -58 59 -208q0 -147 -58 -211q-56 -59 -165 -59h-199v233h-55v78h55v221zM176 454v-143h103v-78h-103v-156h106q79 0 107 40q27 36 27 149q0 121 -30 156q-29 32 -103 32h-107z" />
    <glyph glyph-name="Ntildesmall" unicode="&#xf7f1;" horiz-adv-x="600" 
d="M78 532h117l238 -413l-3 413h87v-532h-117l-238 412l3 -412h-87v532zM441 755l42 -49q-50 -62 -107 -62q-26 0 -66.5 16.5t-56.5 16.5q-33 0 -60 -35l-42 48q49 63 107 63q26 0 66.5 -16.5t56.5 -16.5q33 0 60 35z" />
    <glyph glyph-name="Ogravesmall" unicode="&#xf7f2;" horiz-adv-x="581" 
d="M523 271q0 -155 -66 -222q-60 -60 -172 -60q-113 0 -169 59q-59 63 -59 212q0 157 66 223q59 59 172 59q111 0 167 -58q61 -62 61 -213zM427 268q0 129 -37 167q-32 32 -98 32t-101 -35q-39 -42 -39 -171t38 -166q30 -30 97 -30q69 0 102 35q38 39 38 168zM374 637
l-54 -47l-154 171l62 52z" />
    <glyph glyph-name="Oacutesmall" unicode="&#xf7f3;" horiz-adv-x="581" 
d="M523 271q0 -155 -66 -222q-60 -60 -172 -60q-113 0 -169 59q-59 63 -59 212q0 157 66 223q59 59 172 59q111 0 167 -58q61 -62 61 -213zM427 268q0 129 -37 167q-32 32 -98 32t-101 -35q-39 -42 -39 -171t38 -166q30 -30 97 -30q69 0 102 35q38 39 38 168zM256 590
l-54 47l146 176l61 -52z" />
    <glyph glyph-name="Ocircumflexsmall" unicode="&#xf7f4;" horiz-adv-x="581" 
d="M523 271q0 -155 -66 -222q-60 -60 -172 -60q-113 0 -169 59q-59 63 -59 212q0 157 66 223q59 59 172 59q111 0 167 -58q61 -62 61 -213zM427 268q0 129 -37 167q-32 32 -98 32t-101 -35q-39 -42 -39 -171t38 -166q30 -30 97 -30q69 0 102 35q38 39 38 168zM151 648
l140 148l139 -147l-49 -48l-91 95l-92 -96z" />
    <glyph glyph-name="Otildesmall" unicode="&#xf7f5;" horiz-adv-x="581" 
d="M523 271q0 -155 -66 -222q-60 -60 -172 -60q-113 0 -169 59q-59 63 -59 212q0 157 66 223q59 59 172 59q111 0 167 -58q61 -62 61 -213zM427 268q0 129 -37 167q-32 32 -98 32t-101 -35q-39 -42 -39 -171t38 -166q30 -30 97 -30q69 0 102 35q38 39 38 168zM414 755
l42 -49q-50 -62 -107 -62q-26 0 -66.5 16.5t-56.5 16.5q-33 0 -60 -35l-42 48q49 63 107 63q26 0 66.5 -16.5t56.5 -16.5q33 0 60 35z" />
    <glyph glyph-name="Odieresissmall" unicode="&#xf7f6;" horiz-adv-x="581" 
d="M523 271q0 -155 -66 -222q-60 -60 -172 -60q-113 0 -169 59q-59 63 -59 212q0 157 66 223q59 59 172 59q111 0 167 -58q61 -62 61 -213zM427 268q0 129 -37 167q-32 32 -98 32t-101 -35q-39 -42 -39 -171t38 -166q30 -30 97 -30q69 0 102 35q38 39 38 168zM384 740
q23 0 38 -15.5t15 -38.5q0 -22 -15.5 -37t-37.5 -15t-37 15t-15 37q0 23 15 38.5t37 15.5zM195 740q22 0 37.5 -15.5t15.5 -38.5q0 -22 -15.5 -37t-37.5 -15t-37 15t-15 37q0 23 15 38.5t37 15.5z" />
    <glyph glyph-name="Oslashsmall" unicode="&#xf7f8;" horiz-adv-x="583" 
d="M521 272q0 -158 -67 -224q-59 -59 -170 -59q-73 0 -125 26l-53 -73l-64 43l58 82q-44 61 -44 192q0 154 62 220q58 63 175 63q76 0 125 -26l53 74l64 -44l-58 -81q44 -62 44 -193zM431 269q0 74 -11 116l-217 -307q31 -18 82 -18q81 0 115 47q31 42 31 162zM146 262
q0 -76 10 -115l218 306q-30 18 -82 18q-81 0 -114 -45q-32 -44 -32 -164z" />
    <glyph glyph-name="Ugravesmall" unicode="&#xf7f9;" horiz-adv-x="574" 
d="M78 532h89v-345q0 -64 21 -91.5t98 -27.5q75 0 97 27.5t22 92.5v344h89v-342q0 -90 -39 -137q-52 -62 -172 -62q-115 0 -165 57q-40 44 -40 139v345zM371 637l-54 -47l-154 171l62 52z" />
    <glyph glyph-name="Uacutesmall" unicode="&#xf7fa;" horiz-adv-x="574" 
d="M78 532h89v-345q0 -64 21 -91.5t98 -27.5q75 0 97 27.5t22 92.5v344h89v-342q0 -90 -39 -137q-52 -62 -172 -62q-115 0 -165 57q-40 44 -40 139v345zM253 590l-54 47l146 176l61 -52z" />
    <glyph glyph-name="Ucircumflexsmall" unicode="&#xf7fb;" horiz-adv-x="574" 
d="M78 532h89v-345q0 -64 21 -91.5t98 -27.5q75 0 97 27.5t22 92.5v344h89v-342q0 -90 -39 -137q-52 -62 -172 -62q-115 0 -165 57q-40 44 -40 139v345zM148 648l140 148l139 -147l-49 -48l-91 95l-92 -96z" />
    <glyph glyph-name="Udieresissmall" unicode="&#xf7fc;" horiz-adv-x="574" 
d="M78 532h89v-345q0 -64 21 -91.5t98 -27.5q75 0 97 27.5t22 92.5v344h89v-342q0 -90 -39 -137q-52 -62 -172 -62q-115 0 -165 57q-40 44 -40 139v345zM381 740q23 0 38 -15.5t15 -38.5q0 -22 -15.5 -37t-37.5 -15t-37 15t-15 37q0 23 15 38.5t37 15.5zM192 740
q22 0 37.5 -15.5t15.5 -38.5q0 -22 -15.5 -37t-37.5 -15t-37 15t-15 37q0 23 15 38.5t37 15.5z" />
    <glyph glyph-name="Yacutesmall" unicode="&#xf7fd;" horiz-adv-x="477" 
d="M14 532h102l116 -236l118 236h102l-177 -327v-205h-89v205zM205 590l-54 47l146 176l61 -52z" />
    <glyph glyph-name="Thornsmall" unicode="&#xf7fe;" horiz-adv-x="516" 
d="M167 433h103q73 0 116 -28q63 -40 63 -142q0 -107 -66 -148q-42 -27 -115 -27h-101v-88h-89v532h89v-99zM167 356v-190h102q49 0 67 18q21 20 21 77q0 61 -25 80q-20 15 -67 15h-98z" />
    <glyph glyph-name="Ydieresissmall" unicode="&#xf7ff;" horiz-adv-x="477" 
d="M14 532h102l116 -236l118 236h102l-177 -327v-205h-89v205zM333 740q23 0 38 -15.5t15 -38.5q0 -22 -15.5 -37t-37.5 -15t-37 15t-15 37q0 23 15 38.5t37 15.5zM144 740q22 0 37.5 -15.5t15.5 -38.5q0 -22 -15.5 -37t-37.5 -15t-37 15t-15 37q0 23 15 38.5t37 15.5z" />
    <glyph glyph-name="fl" unicode="&#xfb02;" horiz-adv-x="624" 
d="M452 765h90v-765h-90v765zM363 723l-21 -75q-20 8 -46 8q-54 0 -68.5 -29t-14.5 -99v-44h113v-79h-113v-405h-90v405h-88v79h88v50q0 201 174 201q35 0 66 -12z" />
    </font>
</defs>
</svg>
