<?xml version="1.0" standalone="no"?>
<!DOCTYPE svg PUBLIC "-//W3C//DTD SVG 1.1//EN" "http://www.w3.org/Graphics/SVG/1.1/DTD/svg11.dtd">
<svg xmlns="http://www.w3.org/2000/svg">
<metadata>Copyright (C) 2018 by original authors @ fontello.com</metadata>
<defs>
<font id="simple-line-icons" horiz-adv-x="1000" >
<font-face font-family="simple-line-icons" font-weight="400" font-stretch="normal" units-per-em="1000" ascent="850" descent="-150" />
<missing-glyph horiz-adv-x="1000" />
<glyph glyph-name="user-female" unicode="&#xe000;" d="M938 66l-272 129c36 18 178 24 189 56 0 0-56 86-69 198-6 43-15 100-24 180-14 130-124 221-262 221h0 0c-138 0-247-91-262-221-9-80-18-137-24-180-13-112-69-198-69-198 12-32 153-38 190-56l-272-129s-63-22-63-74v-82c0-35 28-60 63-60h875c34 0 62 25 62 60v82c0 52-62 74-62 74z m-875-154v80c0 4 11 12 21 15 2 1 3 2 5 3l272 129c22 10 36 32 36 56 0 23-13 45-34 56-22 11-50 16-94 24-10 1-24 4-38 7 18 40 38 96 46 159 1 16 4 34 7 54 4 33 10 76 16 127 11 97 93 166 200 166h0 0c107 0 189-69 200-166 6-51 12-94 16-127 3-20 6-38 8-54 7-63 27-119 45-159-14-3-28-6-38-7-44-8-72-13-93-24-22-11-35-33-35-57 0-23 14-45 36-55l272-129c2-1 3-2 5-3 10-3 20-11 22-15l0-80h-875z" horiz-adv-x="1000" />

<glyph glyph-name="people" unicode="&#xe001;" d="M729 34l-197 109c73 58 93 171 93 234v132c0 88-116 185-233 185-116 0-236-97-236-185v-132c0-57 25-174 99-233l-202-110s-53-23-53-53v-79c0-29 24-53 53-53h676c29 0 52 24 52 53v79c0 32-52 53-52 53z m-10-122h-656v56c4 3 10 7 15 9 2 1 3 2 5 2l201 110c19 10 31 28 33 49s-7 42-23 55c-53 42-75 135-75 184v132c0 45 84 122 173 122 90 0 170-76 170-122v-132c0-49-15-142-69-185-16-13-25-33-23-54 1-21 13-39 32-50l197-109c1-1 4-2 5-2 5-2 11-6 15-9v-56z m228 278l-199 109c73 57 96 171 96 234v132c0 87-119 186-236 186-76 0-153-42-198-94 25-2 54-2 78-10 33 26 75 41 120 41 90 0 173-77 173-123v-132c0-49-18-143-72-185-17-13-25-33-24-54 2-21 14-40 33-50l199-109c2-1 4-2 6-3 5-2 10-5 15-8v-55h-127c19-15 25-35 33-63h103c29 0 53 24 53 53v78c0 31-53 53-53 53z" horiz-adv-x="1000" />

<glyph glyph-name="user-follow" unicode="&#xe002;" d="M63-24c0 25 18 33 26 36l274 130c20 9 33 28 36 49 3 22-6 43-23 56-65 53-95 167-95 228v156c0 66 114 156 219 156 106 0 219-89 219-156v-156c0-60-25-175-93-228-17-13-25-35-23-56 3-22 16-41 36-50l94-44 15 62-83 39c87 68 116 202 116 277v156c0 104-143 219-281 219-138 0-282-115-282-219v-156c0-68 32-206 119-276l-274-130s-63-28-63-62v-94c0-35 28-63 63-63h687v63l-687 0v63z m906 62h-94v93c0 18-14 32-31 32s-32-14-32-32v-93h-93c-18 0-32-14-32-32 0-17 14-31 32-31h93v-94c0-17 14-31 32-31s31 14 31 31v94h94c17 0 31 14 31 31 0 18-14 32-31 32z" horiz-adv-x="1000" />

<glyph glyph-name="user-following" unicode="&#xe003;" d="M62-87l0 63c0 25 19 33 26 36l275 130c19 9 33 27 36 49 2 21-7 43-23 56-65 52-96 167-96 228v156c0 65 114 156 219 156 106 0 219-89 219-156v-156c0-60-25-175-92-228-17-13-26-35-23-56 2-22 16-41 36-50l158-75 37 53-169 79c86 68 115 202 115 277v156c0 104-143 219-281 219s-281-115-281-219v-156c0-68 31-206 118-276l-274-130s-63-28-63-62v-94c0-35 29-63 63-63h625l-51 63z m927 231c-14 10-34 8-44-6l-134-204-83 83c-12 13-32 13-44 0s-12-32 0-44l110-110c12-13 32-13 44 0 3 3 6 6 7 10l149 227c11 13 8 33-5 44z" horiz-adv-x="1000" />

<glyph glyph-name="user-unfollow" unicode="&#xe004;" d="M780 475l0 156c0 104-143 219-281 219-138 0-281-115-281-219v-156c0-68 31-206 118-276l-274-130s-63-28-63-62v-94c0-35 29-63 63-63h594v63l-594 0v63c0 25 19 33 26 36l275 130c19 9 33 28 35 49 3 22-6 43-22 56-65 53-96 167-96 228v156c0 66 114 157 219 157 106 0 219-90 219-157v-156c0-60-25-175-92-228-17-13-26-34-23-56 2-22 16-40 36-50l17-8 28 51-19 14c86 68 115 202 115 277z m123-483l88 88c13 12 13 32 0 44-12 13-32 13-44 0l-88-88-89 88c-12 13-32 13-44 0-12-12-12-32 0-44l89-88-89-89c-12-12-12-32 0-44 12-12 32-12 44 0l89 89 88-89c12-12 32-12 44 0 13 12 13 32 0 44z" horiz-adv-x="1000" />

<glyph glyph-name="user" unicode="&#xe005;" d="M500 788c106 0 218-90 218-157v-156c0-60-25-175-92-228-17-13-26-34-23-56 3-22 16-40 36-50l272-128c2-1 26-5 26-39l0-61-874 0v63c0 25 18 33 26 37l274 129c20 9 33 28 36 49 3 22-6 43-23 57-65 52-95 166-95 227v156c0 66 114 157 219 157z m0 62c-138 0-282-115-282-219v-156c0-68 32-206 119-276l-274-130s-63-28-63-62v-94c0-35 28-63 63-63h874c35 0 63 28 63 63v94c0 37-63 62-63 62l-272 129c87 68 116 202 116 277v156c0 104-143 219-281 219v0z" horiz-adv-x="1000" />

<glyph glyph-name="trophy" unicode="&#xe006;" d="M719-56h-440c-17 0-31-14-31-31s14-32 31-32h440c17 0 31 14 31 32s-14 31-31 31z m275 787c-3 15-16 25-31 25h-153v31c0 18-14 32-31 32h-562c-18 0-32-14-32-32v-31h-148c-15 0-27-10-30-25-1-4-22-114 39-188 35-43 88-66 158-68 40-118 141-206 262-219v-217h-93c-18 0-32-14-32-32s14-31 32-31h252c18 0 31 14 31 31s-13 32-31 32h-96v217c121 13 222 101 262 219 73 1 128 24 164 68 60 74 39 184 39 188z m-900-149c-27 34-30 83-29 112h120v-106c0-17 2-33 4-49-42 4-74 18-95 43z m653 6c0-149-112-271-249-271-138 0-250 122-250 271v168h499v-168h0z m159-6c-21-26-55-41-100-44 2 17 4 33 4 50v106h125c1-29-1-78-29-112z" horiz-adv-x="1000" />

<glyph glyph-name="speedometer" unicode="&#xe007;" d="M500 815c-275 0-499-224-499-500 0-173 87-331 234-423 15-9 34-5 43 10s5 34-10 43c-53 33-97 76-130 126l33 19c15 8 20 28 11 43-9 15-28 20-43 11l-32-19c-24 49-39 103-43 160h35c17 0 31 14 31 31s-14 31-31 31h-35c5 57 20 112 44 161l31-18c5-3 11-4 16-4 11 0 21 5 27 15 9 15 4 34-11 43l-31 18c31 46 71 85 117 116l17-30c6-10 17-16 27-16 6 0 11 1 16 4 15 9 20 28 11 43l-17 30c48 23 101 38 157 42v-39c0-17 14-31 31-31s32 14 32 31v39c57-4 111-19 160-43l-17-29c-8-15-3-34 12-43 5-3 10-4 15-4 11 0 22 6 27 16l17 29c46-31 85-71 116-116l-29-17c-15-9-20-28-11-43 5-10 16-15 27-15 5 0 10 1 15 4l30 17c24-49 39-104 43-161h-35c-17 0-31-14-31-31s14-31 31-31h35c-4-56-18-109-42-158l-31 18c-15 9-34 3-42-11-9-15-4-35 11-43l31-18c-34-51-80-95-134-129-15-9-19-28-10-43 6-9 16-15 26-15 6 0 12 2 17 5 149 92 237 251 237 425 0 276-224 500-499 500z m231-402c15 8 20 28 11 43-9 14-28 20-43 11l-169-98c-9 5-20 8-31 8-34 0-62-28-62-62 0-35 28-62 62-62 35 0 62 27 62 62 0 0 0 0 0 0z" horiz-adv-x="1000" />

<glyph glyph-name="social-youtube" unicode="&#xe008;" d="M919 665c-27 19-103 45-419 45-339 0-390-30-406-39-86-52-94-280-95-327 2-61 11-264 95-315 16-10 66-39 406-39 316 0 392 26 419 45 73 53 81 234 82 310-1 61-7 266-82 320z m-37-579c-11-8-73-34-382-34-299 0-362 24-374 31-30 18-61 114-64 261 2 148 35 255 65 273 11 7 74 31 373 31 309 0 371-26 382-34 27-19 56-121 56-269 0-151-29-240-56-259z m-178 289l-282 172c-9 6-21 6-31 1-10-6-16-16-16-28v-345c0-11 6-21 16-27 5-3 10-4 15-4 6 0 11 2 16 4l282 173c9 6 15 16 15 27s-6 21-15 27z m-266-144v234l189-117z" horiz-adv-x="1000" />

<glyph glyph-name="social-twitter" unicode="&#xe009;" d="M668 695c52 0 99-21 132-55 40 8 79 22 114 42-14-40-42-74-79-96 36 4 71 14 103 27-24-34-55-65-90-90 0-7 1-15 1-22 0-230-181-496-511-496-102 0-196 29-276 78 14-1 29-2 43-2 84 0 162 28 223 75-78 1-145 51-168 120 11-2 23-3 34-3 17 0 32 2 48 6-83 16-145 87-145 171v3c25-14 52-21 82-22-48 31-80 84-80 145 0 32 9 62 24 87 89-105 221-175 370-182-3 13-4 26-4 40 0 96 80 174 179 174z m270-82h0 0z m-270 145c-122 0-224-90-240-206-100 20-191 73-257 151-12 15-29 23-48 23-1 0-3 0-5-1-20-1-38-12-48-30-22-36-34-77-34-119 0-29 5-56 15-82-10-11-16-26-16-42v-2c0-61 24-118 64-160-2-11-1-22 2-33 14-42 39-79 72-106-22-5-45-8-68-8-12 0-24 1-35 2-3 1-5 1-8 1-26 0-50-17-59-42-9-28 1-58 26-74 93-57 199-88 309-88 355 0 569 279 573 551 29 24 55 52 77 83 8 10 12 23 12 37 0 22-10 40-27 52 8 24 0 50-20 66-11 9-25 14-39 14-11 0-22-3-32-9-20-12-42-21-66-28-42 32-94 50-148 50z" horiz-adv-x="1000" />

<glyph glyph-name="social-tumblr" unicode="&#xe00a;" d="M516 788l0-219h219v-94h-218l-1-272c0-50 3-83 8-97 9-23 39-52 95-52 44 0 103 13 147 46v-145c-37-18-71-25-101-32-30-7-62-11-97-11-38 0-150 1-196 118-8 21-12 51-12 91v354h-126l1 96c41 0 166 25 166 217z m0 62l-115 0c-34 0-62-28-62-62 0-143-80-154-104-154-35 0-63-28-63-63l0-95c0-17 6-33 18-45 12-12 28-18 44-18h64v-292c0-48 5-85 16-114 28-72 95-157 254-157 40 0 77 4 111 12l7 2c29 6 67 15 107 34 22 10 35 32 35 56v146c0 24-13 46-34 56-9 5-19 7-28 7-13 0-27-4-38-13-37-27-84-33-109-33-25 0-34 9-36 11-1 5-4 23-4 75l0 210h156c34 0 62 28 62 62v94c0 35-28 63-62 63h-157v156c0 34-28 62-62 62v0z" horiz-adv-x="1000" />

<glyph glyph-name="social-facebook" unicode="&#xe00b;" d="M568 771c4 0 6 0 6 0h82l-1-93h-81c-44 0-43-39-43-39v-148h157l-22-94h-136v-468h-94l0 468h-124l0 94h124v146c0 127 106 134 132 134z m88 0h0 0z m-88 63c-22 0-66-4-108-29-39-24-86-72-86-168v-84h-62c-17 0-33-6-45-18-11-12-18-28-18-44l0-94c1-34 29-62 63-62h62l0-406c0-35 28-63 62-63h94c35 0 63 28 63 63v406h73c28 0 53 18 60 45l22 93c6 19 2 40-10 55-11 16-30 25-50 25h-95v62l62 0c35 0 63 28 63 62l0 91c0 1 0 2 0 3 0 35-28 63-62 63h-80c-2 0-5 0-8 0z" horiz-adv-x="1000" />

<glyph glyph-name="social-dropbox" unicode="&#xe00c;" d="M999 631c0 10-6 19-14 24l-279 174c-11 7-25 6-36-3l-170-137-170 137c-10 9-25 10-36 3l-279-174c-8-5-14-14-14-24-1-10 3-20 11-27l161-135-138-109c-8-6-13-15-12-25s5-20 14-25l128-86c-7-5-11-13-11-23v-125c0-11 6-21 15-27l315-178c5-3 10-4 16-4s11 1 16 4l311 178c9 6 15 16 15 27v147c0 2 0 4-1 6l122 81c8 5 13 14 13 24 1 10-4 20-11 26l-138 109 161 135c8 7 12 17 11 27z m-280-162l-219-138-219 138 219 142z m-634 156l223 139 139-113-222-144z m140-195l220-138-125-96-213 142z m-8-240l87-58c11-8 26-7 36 1l127 96v-276l-250 141v96z m563-96l-251-143v281l130-99c5-5 12-7 19-7 6 0 12 2 17 6l85 56v-94h0z m112 244l-213-142-124 96 220 138z m-117 169l-222 144 139 113 223-139z" horiz-adv-x="1000" />

<glyph glyph-name="social-dribbble" unicode="&#xe00d;" d="M500 850c-68 0-133-14-193-39-2-1-4-1-6-2-177-77-301-254-301-459 0-276 225-500 500-500 276 0 500 225 500 500 0 276-224 500-500 500z m437-500c0-3 0-7 0-10-48 12-169 36-319 3-13 30-28 61-44 93-2 3-3 5-4 8 160 61 228 145 256 197 69-78 111-179 111-291z m-158 337c-15-35-68-124-239-188-77 141-137 225-171 268 42 13 86 20 131 20 106 0 203-38 279-100z m-470 56c26-32 88-114 171-264-196-59-354-52-409-47 26 137 116 252 238 311h0z m-246-393c0 7 0 13 0 20 19-2 48-4 87-4 84 0 212 11 360 57 3-5 5-11 8-16 14-27 27-54 39-80-27-9-54-19-82-31-179-81-262-196-292-247-74 79-120 185-120 301z m168-344c15 30 88 151 270 233 27 12 54 22 80 30 59-151 80-275 86-323-51-21-108-33-167-33-102 0-195 35-269 93z m495-30c-9 60-31 173-84 308 145 29 260 1 289-8-22-127-98-235-205-300z" horiz-adv-x="1000" />

<glyph glyph-name="shield" unicode="&#xe00e;" d="M887 709c-12 11-27 17-43 17-1 0-3 0-4 0-1 0-11-1-27-1-26 0-77 2-125 14-62 15-134 86-155 100-10 7-22 10-34 10-12 0-25-3-35-10-3-2-78-82-151-100-48-12-100-14-126-14-16 0-26 1-27 1-1 0-3 0-4 0-16 0-31-6-43-17-12-12-20-28-20-46v-156c0-578 379-652 395-655 3-1 7-1 11-1 3 0 7 0 11 1 16 3 397 77 397 655v156c0 18-8 34-20 46z m-43-202c0-532-345-594-345-594s-343 62-343 594v156s12-1 31-1c33 0 88 3 141 16 86 21 171 109 171 109s88-88 174-109c53-13 107-16 140-16 19 0 31 1 31 1s0-20 0-156h0z m-212 5c-12 12-32 12-44 0l-88-88-88 88c-13 12-32 12-45 0s-12-32 0-44l89-89-89-88c-12-12-12-32 0-44s32-12 45 0l88 88 88-88c12-12 32-12 44 0s13 32 0 44l-88 88 88 89c13 12 13 32 0 44z" horiz-adv-x="1000" />

<glyph glyph-name="screen-tablet" unicode="&#xe00f;" d="M813 850h-626c-51 0-93-42-93-94v-812c0-52 42-94 93-94h626c51 0 93 42 93 94v812c0 52-42 94-93 94z m31-906c0-18-14-32-31-32h-626c-17 0-31 14-31 32v812c0 18 14 32 31 32h626c17 0 31-14 31-32v-812z m-344 125c-34 0-62-28-62-63s28-62 62-62c35 0 62 28 62 62 0 35-27 63-62 63z m63 687h-125c-18 0-32-14-32-31s14-31 32-31h125c17 0 31 14 31 31s-14 31-31 31z" horiz-adv-x="1000" />

<glyph glyph-name="screen-smartphone" unicode="&#xe010;" d="M688 850h-376c-51 0-93-42-93-94v-812c0-52 42-94 93-94h376c51 0 93 42 93 94v812c0 52-42 94-93 94z m31-906c0-18-14-32-31-32h-376c-17 0-31 14-31 32v812c0 18 14 32 31 32h376c17 0 31-14 31-32v-812z m-219 125c-34 0-62-28-62-63s28-62 62-62c35 0 62 28 62 62 0 35-27 63-62 63z m63 687h-125c-18 0-32-14-32-31s14-31 32-31h125c17 0 31 14 31 31s-14 31-31 31z" horiz-adv-x="1000" />

<glyph glyph-name="screen-desktop" unicode="&#xe011;" d="M938 756h-875c-35 0-63-28-63-62v-531c0-35 28-63 63-63h406v-94h-156c-18 0-32-14-32-31s14-31 32-31h375c17 0 31 14 31 31 0 17-14 31-31 31h-157v94h407c34 0 62 28 62 63v531c0 34-28 62-62 62z m0-593h-875v531h875v-531z" horiz-adv-x="1000" />

<glyph glyph-name="plane" unicode="&#xe012;" d="M912 786c11 0 18-2 22-4 4-12 10-54-34-99l-226-225 2-28c3-59 10-164 15-254 5-80 10-155 10-162 0-4 0-5-4-10-9-12-26-31-41-46-22 60-70 188-96 260l-33 92-70-69-127-123-18-18-1-25c0-20 0-56 0-87 0-22 0-42 0-54 0 0 4-1 4-1-3 4-6 9-9 14-25 41-61 97-72 115l-8 13-13 8c-47 29-100 62-132 82 1 1 2-2 3-2h2c10 0 27 0 45-1 25 0 53 0 74 0 8 0 15 0 21 0l25 0 18 18 122 127 70 69-92 34c-69 25-201 74-263 98 16 14 35 32 46 41 3 2 6 4 7 4l3 0c7-1 92-6 175-12 88-5 187-12 243-16l28-1 226 225c32 32 63 37 78 37z m0 62c-36 0-82-14-122-54l-206-206c-116 7-412 27-420 27-1 0-3 0-5 0-10 0-27-2-47-18-23-19-71-64-71-64-12-12-17-27-16-40 1-8 5-23 25-31 13-5 207-78 297-111l-122-127c-6 0-13 0-20 0-38 0-96 1-119 1-3 0-6 0-7 0-7 0-22 4-61-29l-2-2c-12-12-15-23-15-31 0-8 2-19 13-28 7-6 95-62 167-106 17-28 96-154 101-161 6-10 15-16 27-16h1c12 0 24 6 35 17 33 38 28 54 28 61 1 20 0 109 1 144l127 123c33-90 104-283 109-295 8-20 23-25 31-25 1 0 3-1 4-1 13 0 25 6 36 17 0 0 45 48 64 71 19 23 19 43 18 53 0 6-18 301-25 417l206 205c73 73 61 161 34 188-12 12-36 21-66 21z" horiz-adv-x="1000" />

<glyph glyph-name="notebook" unicode="&#xe013;" d="M829 850h-623c-45 0-64-33-64-64v-125h-34c-17 0-31-13-31-30 0-17 14-31 31-31h34v-126h-31c-17 0-31-13-31-30 0-17 14-31 31-31h31v-126h-32c-17 0-31-14-31-31s14-31 31-31h32v-125h-32c-17 0-31-14-31-31s14-30 31-30h32v-127c0-51 40-62 63-62h624c52 0 94 42 94 94v812c0 52-42 94-94 94z m-625-938l0 127h33c17 0 30 14 30 30 0 17-13 31-30 31h-33v125h33c17 0 30 14 30 31s-13 31-30 31h-33v126h34c16 0 30 14 30 31 0 17-14 30-30 30h-34v126h31c16 0 30 14 30 31 0 17-14 30-30 30h-31v125c0 0 0 1 0 1 1 1 2 1 2 1h498v-876h-500z m657 32c0-18-14-32-32-32h-62v876h62c18 0 32-14 32-32v-812z" horiz-adv-x="1000" />

<glyph glyph-name="mustache" unicode="&#xe014;" d="M774 131c-99 0-155 46-192 77-13 11-25 21-36 31-17 14-37 32-44 35-1 0-4 0-4 0-1 0-4-1-4-1-5-2-23-17-37-29-13-11-28-24-44-36l-3-3c-43-33-95-74-189-74-69 0-137 31-178 82-27 34-56 93-38 181 2 11 10 19 20 23 10 4 22 2 30-5 1-1 22-17 58-17 18 0 36 4 55 12 33 15 56 55 80 83 33 37 71 79 133 80 43 0 82-16 117-48 34 31 73 47 115 47 63 0 102-42 136-80 25-27 48-67 81-82 19-8 37-12 56-12 37 0 60 16 61 17 8 7 20 8 30 4 9-4 17-12 19-23 16-87-13-146-40-179-42-52-112-83-182-83z m-275 206c1 0 3-1 4-1 0 0 5 0 5 0 0 0 3 0 3 0 23-4 44-22 76-50 10-9 22-19 34-30 34-28 76-63 153-63 52 0 104 23 134 60 20 25 30 54 31 87-15-5-33-8-53-8-27 0-54 6-81 18-44 20-75 67-101 97-34 37-57 59-90 60-45 0-75-29-93-50-6-7-14-11-23-11v0c-9 0-18 4-24 11-18 21-47 50-91 50-35 0-56-23-89-59-27-30-57-78-101-98-27-12-54-18-80-18-20 0-38 4-52 8 0-34 10-63 30-88 29-36 79-59 130-59 72 0 112 32 151 62l3 2c16 12 30 24 42 35 28 24 46 39 66 43v0c0 0 9 2 16 2z" horiz-adv-x="1000" />

<glyph glyph-name="mouse" unicode="&#xe015;" d="M502 850c-155 0-283-125-283-280v-440c0-155 128-280 283-280s279 125 279 280v440c0 155-125 280-279 280v0z m217-720c0-120-98-218-217-218s-221 98-221 218v440c0 120 101 218 221 218s217-98 217-218v-440z m-219 533c-17 0-31-14-31-32v-156c0-17 14-31 31-31 18 0 32 14 32 31v156c0 18-14 32-32 32z" horiz-adv-x="1000" />

<glyph glyph-name="magnet" unicode="&#xe016;" d="M938 791v29c0 17-14 31-31 31h-220c-17 0-31-14-31-31v-128c0 0 0 0 0 0v-388c0-94-53-171-147-171s-165 77-165 171v487h0v29c0 17-14 31-31 31h-220c-17 0-31-14-31-31v-128c0-1 1-1 1-2v-401c0-243 194-440 437-440 243 0 438 197 438 440v502z m-63-3v-125h-156v125h156z m-593 0v-125h-157v125h157z m218-876c-208 0-375 169-375 377v312h157v-297c0-129 98-233 227-233s209 104 209 233v297h157v-312c0-208-167-377-375-377z" horiz-adv-x="1000" />

<glyph glyph-name="magic-wand" unicode="&#xe017;" d="M997 431l-101 150 50 174c3 11 0 23-8 31-8 8-20 11-31 8l-174-51-151 102c-9 6-21 7-31 2-10-6-17-16-17-27l-6-182-143-112c-9-7-13-18-11-29s9-21 20-25l134-48c-1-1-2-1-3-2l-518-519c-12-12-12-32 0-44 6-6 14-9 22-9 8 0 16 3 22 9l519 519c2 2 3 4 5 6l52-144c4-11 13-18 25-20 1 0 3 0 4 0 10 0 19 4 25 12l111 143 180 7c11 0 22 7 27 17 5 10 4 22-2 32z m-222 6c-9 0-17-4-23-12l-86-110-47 131c-4 9-10 16-19 19l-132 47 110 86c8 6 12 14 12 24l4 139 116-78c8-5 18-7 27-4l134 39-39-134c-2-9-1-19 4-26l79-116z" horiz-adv-x="1000" />

<glyph glyph-name="hourglass" unicode="&#xe018;" d="M814 787h-63v-210c0-102-56-179-174-240 123-62 175-139 175-253 0-74-1-137-1-171h63c17 0 31-14 31-31s-14-31-31-31h-627c-18 0-32 14-32 31s14 31 32 31h64c0 34-1 97-1 171 0 114 51 191 174 253-118 61-173 138-173 240v210h-64c-18 0-32 14-32 31 0 17 14 31 32 31h627c17 0 31-14 31-31 0-17-14-31-31-31z m-501-703c0-74 0-137 0-171h376c0 34 0 97 0 171 0 87-32 154-189 219-156-65-187-132-187-219z m375 703h-374v-210c0-60 20-138 186-206 167 68 188 146 188 206v210z" horiz-adv-x="1000" />

<glyph glyph-name="graduation" unicode="&#xe019;" d="M968 170v252l15 8c11 6 17 16 17 28 0 11-6 22-16 28l-470 251c-10 5-21 5-30 0l-468-252c-10-5-16-16-16-27s6-22 16-28l206-109c-3-5-4-10-4-15v-265c0-9 3-17 10-23 7-6 72-59 270-59 198 0 265 50 272 56 7 6 11 14 11 24v271c0 4-1 9-2 12l126 67v-219c-18-11-31-31-31-54 0-34 28-62 63-62s62 28 62 62c0 23-13 43-31 54z m-249-113c-25-12-90-35-221-35-131 0-195 24-218 36v232l203-108c5-3 10-4 15-4 5 0 10 1 14 4l207 109v-234z m-221 188l-402 213 403 216 404-215z" horiz-adv-x="1000" />

<glyph glyph-name="ghost" unicode="&#xe01a;" d="M500 850c-224 0-406-195-406-435v-534c0-13 8-24 20-29 4-2 8-2 11-2 9 0 17 3 24 10l117 130 92-127c6-8 16-13 26-13h0c10 0 19 4 25 12l92 125 91-124c6-8 16-13 26-13 10 0 19 5 25 13l93 127 115-130c9-9 23-13 35-8 12 4 20 16 20 29v534c0 240-182 435-406 435z m344-887l-87 97c-6 7-15 11-25 11-9-1-18-5-23-13l-91-124-91 124c-6 8-15 13-25 13h0c-10 0-20-5-25-13l-93-124-90 124c-5 8-14 12-23 13-1 0-1 0-2 0-9 0-17-4-23-10l-89-99v453c0 206 154 373 343 373 189 0 343-167 343-373v-452h1z m-188 543c-34 0-62-28-62-62 0-35 28-63 62-63s63 28 63 63c0 34-28 62-63 62z m-312 0c-35 0-63-28-63-62 0-35 28-63 63-63s62 28 62 63c0 34-28 62-62 62z" horiz-adv-x="1000" />

<glyph glyph-name="game-controller" unicode="&#xe01b;" d="M726 776c-25 12-49 23-70 34-55 27-105 41-153 41-96 0-163-55-204-97l-202-202c-108-109-126-219-56-358 11-21 22-45 33-70 64-135 129-275 236-275 3 0 6 0 9 0 110 9 142 151 169 276 5 20 9 39 13 56 7 30 22 48 62 88l6 6 3 3 9 9c40 40 58 55 88 62 17 5 36 9 55 13 126 28 268 59 276 170 9 112-135 179-274 244z m210-239c-6-78-180-101-284-127-46-11-74-36-116-78-3-3-6-6-9-9-3-3-6-6-9-9-42-42-66-70-78-116-26-103-49-278-127-284-1 0-3 0-4 0-83 0-152 187-213 310-63 124-36 205 44 285 15 15 34 35 58 58 24 24 52 52 86 86 23 23 42 42 57 58 50 49 100 78 160 78 37 0 78-10 125-34 125-62 317-133 310-218z m-468-30h62v63h-62v-63z m0 94h62v62h-62v-62z m93 0h63v62h-63v-62z m0-94h63v63h-63v-63z m-239-188l24 24c12 12 12 31 0 43-12 11-31 11-42 0l-24-24-24 24c-12 11-31 11-42 0s-12-31 0-43l23-24-23-23c-12-12-12-31 0-43s30-12 42 0l24 24 24-25c12-11 31-11 43 0s11 31 0 43z" horiz-adv-x="1000" />

<glyph glyph-name="fire" unicode="&#xe01c;" d="M497-149c-236 0-403 163-403 388 0 120 72 248 75 254 6 11 18 17 31 16 12-2 23-11 26-23 0-1 19-73 45-114 17-27 34-46 54-59-13 57-23 144-7 232 45 243 236 301 245 303 10 3 21 0 29-7 8-7 12-18 10-29 0-2-32-171 35-316 6-13 15-29 24-44 2 21 6 43 13 65 24 86 88 115 90 116 11 5 23 4 32-4 10-7 14-18 12-30-1-2-9-60 40-143 45-75 58-124 58-217 0-225-172-388-409-388z m-306 542c-17-43-35-100-35-154 0-189 141-326 341-326 201 0 347 137 347 326 0 82-10 120-49 185-26 43-39 82-45 113-6-10-12-22-16-37-19-67-15-145-15-145 1-14-7-27-20-32s-28 0-36 11c-3 4-58 82-83 135-51 110-50 229-45 298-51-30-130-97-155-234-25-132 23-265 23-266 5-11 2-23-5-32-8-9-20-12-31-10-4 1-92 24-149 114-10 16-19 35-27 54z" horiz-adv-x="1000" />

<glyph glyph-name="eyeglass" unicode="&#xe01d;" d="M1001 214c-1 13-51 311-59 359-1 5-2 10-2 15-7 48-18 137-162 137-17 0-31-14-31-31s14-31 31-31c89 0 94-37 100-83 0-6 1-12 2-17 4-22 20-110 35-196-37 28-83 44-132 44-80 0-151-43-190-106-19 7-51 15-93 15-42 0-73-8-92-16-38 64-108 107-188 107-52 0-100-18-138-48 14 88 31 177 35 200 1 5 2 11 2 17 6 46 11 83 100 83 17 0 31 14 31 31s-14 31-31 31c-144 0-156-89-162-137 0-5-1-10-2-15-8-48-55-344-56-358-1-3 0-5 0-8 0-5 0-9 0-14 0-120 101-218 221-218 121 0 218 98 218 218 0 18-2 36-6 53 12 5 35 12 68 12 31 0 55-6 68-11-4-17-7-35-7-54 0-120 101-218 222-218s218 98 218 218c0 3-1 7-1 10 1 3 2 7 1 11z m-781-176c-86 0-159 71-159 155s73 156 159 156c86 0 156-70 156-156s-70-155-156-155z m563 0c-87 0-159 71-159 155s72 156 159 156c74 0 136-52 151-122 1-6 2-12 2-18 0-3 1-5 2-7 0-3 0-6 0-9 0-86-70-155-155-155z" horiz-adv-x="1000" />

<glyph glyph-name="envelope-open" unicode="&#xe01e;" d="M999 388c-1 11-5 21-11 30h0l-1 0c-3 5-7 8-11 12l-408 394c-35 35-97 35-132 0l-408-391c-9-8-28-31-28-52v-469c0-34 28-62 62-62h875c35 0 63 28 63 62v467c0 3 0 6-1 9z m-735-247l-202-185v362z m64-26c2 1 4 3 6 5 0 1 1 1 1 2l138 127c7 5 15 8 24 8 9 0 18-3 24-8l375-337h-788z m412 22l197 175v-353z m-639 281l379 361c6 6 14 10 22 10 8 0 16-4 22-10l353-336h-1l54-54-237-210-132 119c-37 28-90 30-129-2l-122-113-236 209 26 26h1z" horiz-adv-x="1000" />

<glyph glyph-name="envolope-letter" unicode="&#xe01f;" d="M999 388c-1 11-5 21-11 30h0l-1 0c-3 5-7 8-11 12l-164 164v101c0 17-13 31-31 31h-99l-114 98c-35 35-97 35-132 0l-114-98h-103c-18 0-32-14-32-31v-103l-159-159c-17-11-28-31-28-52v-469c0-34 28-62 62-62h875c35 0 63 28 63 62v467c0 3 0 6-1 9z m-736-246l-201-186v362z m60-30c4 2 8 5 11 8 2 2 3 4 4 6l135 125c7 6 15 9 24 9 9 0 18-3 24-8l375-340h-789z m418 25l196 175v-353z m136 306h-1l54-54-118-104v223z m-397 336c6 6 14 10 22 10 8 0 16-4 22-10l63-53h-170z m270-115v-435l-56-49-133 120c-37 29-90 30-129-1l-123-115-59 52v428z m-649-246l86 86v-213l-113 101 26 26h1z" horiz-adv-x="1000" />

<glyph glyph-name="energy" unicode="&#xe020;" d="M581 787h1-1z m0 0l-70-371 255 0-347-503 70 408-255 1z m0 62c-1 0-3 0-5 0-11-1-18-4-27-10-4-3-9-7-13-12-1-1-2-3-3-4l-350-464c-14-19-16-44-5-64 10-21 32-35 55-35l181-1-57-334c-5-29 10-58 37-69 8-4 16-5 25-5 19 0 35 9 48 25l350 503c14 19 16 44 5 65-10 21-32 34-55 34l-181 0 57 294c1 5 1 10 1 15 0 34-27 61-60 62-1 0-2 0-3 0v0z" horiz-adv-x="1000" />

<glyph glyph-name="emotsmile" unicode="&#xe021;" d="M763 257c-16 7-34 0-41-16-1-1-65-141-224-142-1 0-2 0-3 0-150 0-215 137-218 143-7 15-25 22-41 15-16-7-23-26-16-41 4-8 84-180 275-180 1 0 2 0 3 0 199 2 278 173 281 180 7 16 0 34-16 41z m-263 593c-276 0-500-224-500-500s224-500 500-500 500 224 500 500-224 500-500 500z m0-938c-241 0-437 197-437 438s196 438 437 438 438-197 438-438-197-438-438-438z m-157 469c35 0 63 28 63 63s-28 62-63 62c-34 0-62-28-62-62s28-63 62-63z m313 0c34 0 62 28 62 63s-28 62-62 62c-35 0-63-28-63-62s28-63 63-63z" horiz-adv-x="1000" />

<glyph glyph-name="disc" unicode="&#xe022;" d="M500 850c-276 0-500-224-500-500s224-500 500-500 500 224 500 500-224 500-500 500z m438-500c0-65-15-126-40-182l-277 148c3 11 5 22 5 34 0 70-56 126-126 126-14 0-28-2-41-7l-165 267c61 33 131 52 206 52 241 0 438-197 438-438z m-438 64c35 0 64-29 64-64s-29-63-64-63-63 28-63 63 28 64 63 64z m-259 288l166-267c-1-1-1-2-2-3l-277 148c30 48 68 89 113 122z m-178-352c0 62 13 121 36 175l278-149c-2-8-3-17-3-26 0-70 56-126 126-126 12 0 24 2 35 5l166-267c-60-32-128-50-201-50-241 0-437 197-437 438z m691-356l-165 267c0 0 1 1 1 1l278-148c-30-47-69-87-114-120z" horiz-adv-x="1000" />

<glyph glyph-name="cursor-move" unicode="&#xe023;" d="M993 365l-9 8c0 0 0 0 0 0l-127 116c-9 9-24 9-33 0l-5-8c-9-9-6-23 3-31l74-68h-362v364l67-74c9-9 23-12 32-3l8 5c9 9 9 24 0 33l-111 121c-2 6-6 10-12 13l-1 2c-4 4-10 6-16 6-6 0-11-2-16-6l-8-9c0 0 0 0 0 0l-113-125c-9-9-9-24 0-33l8-5c9-9 23-6 32 3l67 75v-367h-367l74 68c10 8 12 22 3 31l-5 8c-9 9-24 9-33 0l-121-111c-6-2-10-6-13-12l-2-1c-4-4-6-10-6-16 0-6 2-11 6-16l9-8c0 0 0 0 0 0l125-113c9-8 24-8 33 0l5 8c10 9 7 23-3 32l-75 67h370v-368l-67 75c-9 10-23 13-32 3l-8-5c-8-9-8-24 0-33l113-125c0 0 0 0 0 0l8-9c5-4 10-6 16-6 6 0 12 2 16 6l8 9c0 0 0 0 0 0l116 127c9 9 9 24 0 33l-8 5c-9 9-23 7-32-3l-67-74v365h365l-75-67c-9-9-12-23-3-32l5-8c9-8 24-8 33 0l125 113c0 0 0 0 0 0l9 8c4 5 6 10 6 16 0 6-2 12-6 16z" horiz-adv-x="1000" />

<glyph glyph-name="crop" unicode="&#xe024;" d="M969 69l-125 0v580l116 116c13 12 13 32 0 44-12 13-32 13-44 0l-116-115h-581v125c0 17-14 31-31 31s-32-14-32-31v-125h-125c-17 0-31-14-31-31 0-18 14-32 31-32h125v-593c0-3 1-6 2-9 0-1 0-2 1-3 3-8 9-14 17-17 1-1 3-1 4-1 3-1 5-2 8-2h593v-125c0-17 14-31 32-31s31 14 31 31v125h125c17 0 31 14 31 32 0 17-14 31-31 31z m-231 562l-519-518v518h519z m-475-562l518 517v-517z" horiz-adv-x="1000" />

<glyph glyph-name="credit-card" unicode="&#xe025;" d="M906 678h-812c-52 0-94-42-94-94v-468c0-52 42-94 94-94h812c52 0 94 42 94 94v468c0 52-42 94-94 94z m-812-62h812c18 0 32-14 32-32v-62h-876v62c0 18 14 32 32 32z m812-532h-812c-18 0-32 14-32 32v281h876v-281c0-18-14-32-32-32z" horiz-adv-x="1000" />

<glyph glyph-name="chemistry" unicode="&#xe026;" d="M791-98l-166 197v345h21c17 0 31 14 31 31s-14 32-31 32h-52c-17 0-31-14-31-32v-388c0-8 2-15 8-21l127-154h-396l127 154c6 6 9 13 9 21v388c0 18-14 32-32 32h-52c-17 0-31-14-31-32s14-31 31-31h21v-345l-166-197c-9-9-11-22-6-34 5-11 16-18 29-18h536c13 0 24 7 29 18 5 12 3 25-6 34z m-322 636c34 0 62 28 62 62 0 35-28 63-62 63-35 0-63-28-63-63 0-34 28-62 63-62z m203 93c61 0 111 49 111 109s-50 110-111 110c-60 0-110-49-110-110s50-109 110-109z m0 157c26 0 47-21 47-47 0-26-21-47-47-47s-47 21-47 47c0 26 21 47 47 47z" horiz-adv-x="1000" />

<glyph glyph-name="bell" unicode="&#xe027;" d="M884 155c-36 44-86 107-86 171v204c0 176-131 319-299 319-169 0-299-143-299-319v-204c0-63-54-122-89-169-30-41-55-74-38-107 14-29 50-32 80-32h179c0-92 75-167 167-167 92 0 167 75 167 167h183c19 0 64 0 79 32 16 33-9 63-44 105z m-385-239c-56 0-101 46-101 102h202c0-56-45-102-101-102z m350 168h-696c-4 0-8 0-12 1 7 10 16 22 24 33 38 51 102 123 102 208v204c0 139 100 252 232 252s233-113 233-252v-204c0-88 58-161 101-213 7-9 16-20 23-29-2 0-5 0-7 0z" horiz-adv-x="1000" />

<glyph glyph-name="badge" unicode="&#xe028;" d="M997 30l-183 338c19 42 29 89 29 138 0 190-153 344-343 344-190 0-344-154-344-344 0-50 11-98 31-141l-184-335c-6-11-5-24 2-34 8-10 20-14 32-12l157 36 54-149c4-12 15-20 27-21 1 0 2 0 2 0 12 0 22 6 28 17l160 298c11-2 23-2 35-2 11 0 21 0 32 1l163-298c6-10 16-16 28-16 1 0 1 0 2 0 12 1 23 9 27 21l54 149 157-36c12-3 24 2 32 12 7 10 8 23 2 34z m-714-72l-39 110c-6 15-21 23-37 20l-116-27 133 241c43-59 105-103 177-125z m-64 548c0 155 126 281 281 281 155 0 281-126 281-281s-126-280-281-280c-155 0-281 126-281 280z m574-418c-16 3-31-5-37-20l-39-111-120 220c73 21 137 67 181 127l131-243z" horiz-adv-x="1000" />

<glyph glyph-name="anchor" unicode="&#xe029;" d="M997 136l-80 148c0 0 0 0 0 0l-6 10c-3 6-8 9-14 10-6 2-12 1-17-3l-10-6c0 0 0 0 0 0l-142-96c-11-7-14-21-8-32l6-7c7-11 21-12 32-5l85 58c-20-162-151-287-312-301v627h125c18 0 32 14 32 31s-14 31-32 31h-126c0 1-1 2-1 2 56 13 98 63 98 123 0 70-57 126-126 126-70 0-126-56-126-126 0-59 41-109 96-122 0-1-1-2-1-3h-126c-17 0-31-14-31-31s14-31 31-31h125v-627c-161 14-291 139-312 301l85-58c11-7 25-6 32 5l6 7c6 11 3 25-8 32l-142 96c0 0 0 0 0 0l-10 6c-5 4-11 5-17 3-6-1-11-4-14-10l-6-10c0 0 0 0 0 0l-80-148c-6-11-3-25 8-32l9-4c10-7 23 0 30 11l46 87c29-201 201-350 404-350 203 0 375 149 404 349l46-86c7-11 20-18 30-11l9 4c11 7 14 21 8 32z m-560 590c0 35 29 64 64 64 35 0 63-29 63-64s-28-63-63-63c-35 0-64 28-64 63z" horiz-adv-x="1000" />

<glyph glyph-name="wallet" unicode="&#xe02a;" d="M1000 566c0 23-6 77-76 96l-706 141c-51 0-94-42-94-93v-126l-31 0c-51 0-93-42-93-94v-500c0-51 42-93 94-93h813c51 0 93 42 93 93z m-813 144c0 16 13 29 28 31l690-140c0 0-5-17-30-17h-688z m751-720c0-17-14-31-31-31h-813c-18 0-32 14-32 31v500c0 18 14 32 32 32h781c31 0 63 10 63 31v-563h0z m-751 313c-34 0-62-28-62-63s28-62 62-62 63 28 63 62-28 63-63 63z" horiz-adv-x="1000" />

<glyph glyph-name="vector" unicode="&#xe02b;" d="M969 194h-32v1c0 159-84 297-210 374h157c11-19 30-31 54-31 34 0 62 28 62 62s-28 63-62 63c-24 0-43-13-54-32h-290v32c0 17-14 31-31 31h-125c-18 0-32-14-32-31v-32h-290c-10 19-30 32-53 32-35 0-63-28-63-63s28-62 63-62c23 0 43 12 53 31h157c-126-77-210-215-210-374v-1h-32c-17 0-31-14-31-31v-125c0-18 14-32 31-32h125c18 0 32 14 32 32v125c0 17-14 31-32 31h-31v1c0 175 120 321 281 363v-20c0-18 14-32 32-32h125c17 0 31 14 31 32v20c161-42 281-188 281-363v-1h-31c-17 0-31-14-31-31v-125c0-18 14-32 31-32h125c17 0 31 14 31 32v125c0 17-14 31-31 31z m-844-125h-62v62h62v-62z m406 500h-62v62h62v-62z m407-500h-63v62h63v-62z" horiz-adv-x="1000" />

<glyph glyph-name="speech" unicode="&#xe02c;" d="M938 788h-875c-35 0-63-28-63-63v-564c0-34 28-62 63-62h124v-156c0-12 8-24 19-29 4-1 8-2 12-2 8 0 16 3 22 9l181 178h517c34 0 62 28 62 62v564c0 35-28 63-62 63z m0-627h-543l-145-143v143h-187v564h875v-564z m-719 251h562c18 0 32 14 32 31s-14 31-32 31h-562c-17 0-31-14-31-31s14-31 31-31z m0 125h562c18 0 32 14 32 31s-14 31-32 31h-562c-17 0-31-14-31-31s14-31 31-31z m0-250h375c17 0 31 14 31 31s-14 31-31 31h-375c-17 0-31-14-31-31s14-31 31-31z" horiz-adv-x="1000" />

<glyph glyph-name="puzzle" unicode="&#xe02d;" d="M500-150c-20 0-38 7-52 21l-427 427c-29 29-29 76 0 105l156 156c10 10 25 12 37 6 12-7 19-20 16-34-1-8-2-16-2-22 0-68 56-125 124-125 68 0 118 57 118 125 0 68-50 124-118 124-6 0-14-1-23-2-13-3-26 4-33 16-6 12-4 27 6 37l146 145c28 28 76 28 105 0l106-106c22 69 87 119 164 119 95 0 172-77 172-172 0-76-51-141-120-164l104-103c29-29 29-76 0-105l-426-426c-14-15-33-22-53-22z m-329 614l-106-105c-4-5-4-12 1-17l426-426c6-6 10-6 16 0l427 426c4 5 4 12 0 17l-151 150c-9 9-12 24-6 36s19 19 32 17l5-1c2 0 5 0 8 0 60 0 109 49 109 109 0 60-49 109-109 109-61 0-110-49-110-109 0-3 1-5 1-7l1-6c1-13-6-26-18-32-12-5-26-3-35 7l-154 153c-6 6-10 6-16 0l-95-95c81-20 136-94 136-181 0-103-78-188-181-188-87 0-161 62-181 143z" horiz-adv-x="1000" />

<glyph glyph-name="printer" unicode="&#xe02e;" d="M930 601h-117v249h-625v-249h-118c-39 0-70-31-70-70v-423c0-39 31-70 70-70h118v-188h625v188h117c39 0 70 31 70 70v423c0 39-31 70-70 70z m-680 187h500v-187h-500v187z m500-875h-500v344h500v-344z m188 195c0-4-4-7-8-7h-117v219h-625v-219h-118c-4 0-7 3-7 7v423c0 4 3 8 7 8h860c4 0 8-4 8-8z m-125 368h-32c-17 0-31-14-31-32s14-31 31-31h32c17 0 31 14 31 31s-14 32-31 32z" horiz-adv-x="1000" />

<glyph glyph-name="present" unicode="&#xe02f;" d="M1000 537c0 35-28 63-62 63h-107c27 27 45 63 45 106 0 55-31 113-118 113-115 0-211-122-256-190-45 68-144 190-259 190-87 0-118-58-118-113 0-43 18-79 46-106h-108c-35 0-63-28-63-63v-187h63v-407c0-34 28-62 63-62h749c35 0 63 28 63 62v407h62v187z m-242 220c38 0 56-16 56-51 0-69-78-106-151-106h-106c45 66 123 157 201 157z m-515 0c78 0 159-91 203-157h-105c-73 0-154 38-154 107 0 35 17 50 56 50z m695-345h-407v125h407v-125z m-875 125h406v-125h-406z m63-187h343v-407h-343z m749-407h-344v407h344v-407z" horiz-adv-x="1000" />

<glyph glyph-name="playlist" unicode="&#xe030;" d="M33 788h438c17 0 31 14 31 31s-14 31-31 31h-438c-17 0-31-14-31-31s14-31 31-31z m0-188h438c17 0 31 14 31 32s-14 31-31 31h-438c-17 0-31-14-31-31s14-32 31-32z m469-156c0 17-14 31-31 31h-438c-17 0-31-14-31-31s14-31 31-31h438c17 0 31 14 31 31z m487 89l-305 306c-10 9-24 11-36 6-12-5-21-16-21-30v-692c-33 25-77 40-125 40-103 0-187-70-187-157 0-86 84-156 187-156 104 0 188 70 188 156 0 4 0 8-1 12v727l256-256c12-12 32-12 44 0 12 12 12 32 0 44z m-362-530c-2-43-53-90-125-90-74 0-126 49-126 93 0 45 52 94 126 94 72 0 123-47 125-91v-6 0z" horiz-adv-x="1000" />

<glyph glyph-name="pin" unicode="&#xe031;" d="M991 479l-359 362c-8 7-19 11-30 8-11-3-19-11-22-21-22-70-25-133-8-190-2-1-3-2-4-4l-167-167c-54 25-112 39-170 39-37 0-73-6-107-16-11-4-19-12-21-23-3-10 0-22 8-29l214-216-299-303-26-69 63 24 306 304 216-218c6-6 14-9 23-9 2 0 5 0 7 1 11 2 19 10 22 21 29 91 20 189-19 277l170 170c1 1 1 1 2 2 26-7 52-11 80-11 34 0 71 5 108 16 11 4 19 12 21 23 3 10 0 22-8 29z m-402-434l-393 396c101 12 210-29 288-108 79-78 117-186 105-288z m-3 262c-16 25-35 49-57 71-22 22-46 41-72 58l141 140c14-25 33-49 56-71 23-24 48-42 74-57z m112 242c-60 60-83 127-71 208l280-282c-81-11-148 13-209 74z" horiz-adv-x="1000" />

<glyph glyph-name="picture" unicode="&#xe032;" d="M938 772h-875c-35 0-63-28-63-62v-720c0-34 28-62 63-62h875c34 0 62 28 62 62v720c0 34-28 62-62 62z m0-782l-875 0v185l250 243 259-258c11-13 30-12 43-2l114 104 206-212c1 0 2-1 3-2v-58z m0 147l-184 188c-11 11-29 12-41 3l-118-103-258 256c-6 7-14 11-23 12-8 0-17-3-23-9l-228-222v448h875v-573z m-219 322c34 0 62 28 62 63 0 34-28 62-62 62s-63-28-63-62c0-35 28-63 63-63z" horiz-adv-x="1000" />

<glyph glyph-name="map" unicode="&#xe033;" d="M970 718l-313 130-312-123-315 123c-3 1-5 1-8 1-12 0-22-9-22-24v-810c0-18 14-35 30-40l315-124 311 126 314-123c3-1 5-1 8-1 13 0 22 10 22 24v802c0 17-13 35-30 39z m-595-45l250 98v-744l-250-98v744z m-312 92l250-92v-744l-250 102v734z m875-831l-250 94v742l250-108v-728 0z" horiz-adv-x="1000" />

<glyph glyph-name="layers" unicode="&#xe034;" d="M21 555l464-252c5-3 10-4 15-4 5 0 10 1 15 4l469 252c10 6 17 16 16 28 0 12-6 22-17 28l-464 235c-9 5-19 5-28 0l-469-235c-10-6-17-16-17-28s6-22 16-28z m484 228l397-201-402-216-396 216z m473-402l-93 47-67-36 78-40-401-216-397 216 84 42-67 36-98-49c-10-5-17-16-17-27s6-23 16-28l464-253c5-2 10-4 15-4 5 0 10 1 15 4l469 253c10 5 16 16 16 28 0 11-7 22-17 27z m0-219l-88 43-67-36 73-35-401-217-397 216 78 35-67 37-92-43c-10-5-17-15-17-27s6-23 16-28l464-253c5-2 10-4 15-4 5 0 10 2 15 4l469 253c10 5 16 16 16 28 0 11-7 22-17 27z" horiz-adv-x="1000" />

<glyph glyph-name="handbag" unicode="&#xe035;" d="M999-71l-82 492c-7 64-65 116-129 116h-69v83c0 128-91 231-218 231-127 0-220-103-220-231v-83h-75c-64 0-122-52-129-114l-75-493c-3-26 2-46 15-60 12-14 29-21 52-21h853c32 0 51 13 61 24 9 10 19 27 16 56z m-655 691c0 93 64 168 157 168 93 0 155-75 155-168v-83h-312z m581-708l-852 0c-5 0-11 2-10 10l76 492c4 33 35 61 67 61h75v-72c-18-10-31-30-31-53 0-35 28-63 63-63s62 28 62 63c0 23-13 43-31 53v72h312v-72c-18-10-31-30-31-53 0-35 28-63 63-63s62 28 62 63c0 23-13 43-31 53v72h69c33 0 64-28 68-62l81-492c0-4-3-9-12-9z" horiz-adv-x="1000" />

<glyph glyph-name="globe-alt" unicode="&#xe036;" d="M908 445c0 165-87 315-233 400-15 9-34 4-42-11-9-15-4-34 11-43 126-74 201-203 201-346 0-236-172-408-408-408-53 0-105 10-153 29-16 7-34-1-41-17-6-16 2-34 18-41 56-22 115-34 176-34 0 0 0 0 0 0v-61h-90c-18 0-33-14-33-31s15-32 33-32h246c19 0 33 14 33 32 0 17-14 31-33 31h-94v65c240 28 409 216 409 467z m-127-2c0 190-154 345-344 345-191 0-345-155-345-345s154-344 345-344c190 0 344 153 344 344z m-626 0c0 155 126 282 282 282 155 0 281-127 281-282s-126-281-281-281c-156 0-282 125-282 281z" horiz-adv-x="1000" />

<glyph glyph-name="globe" unicode="&#xe037;" d="M1001 350c0 266-209 484-471 499-5 1-11 1-16 1-2 0-4 0-5 0-3 0-6 0-9 0-276 0-501-224-501-500s225-500 501-500c3 0 6 0 9 0 1 0 3 0 5 0 5 0 11 0 16 1 262 15 471 233 471 499z m-93-161c-17 5-61 16-137 25 6 43 10 89 10 136 0 37-2 74-6 108 96 12 139 27 142 28l-12 32c22-51 34-108 34-168 0-57-11-111-31-161z m-629 161c0 35 2 69 6 102 51-4 112-7 183-8v-216c-69-1-129-4-179-8-6 41-10 85-10 130z m251 433c77-22 143-128 172-269-47-4-104-7-172-7v276z m-62 0v-276c-67 0-124 3-172 7 30 139 96 245 172 269z m0-618l0-248c-71 23-133 116-166 242 47 3 102 6 166 6z m62-248l0 248c65 0 119-3 166-6-32-128-94-222-166-242z m0 311l0 216c72 1 132 4 182 8 4-33 6-67 6-102 0-45-3-89-10-130-49 4-108 7-178 8z m363 315c-9-2-48-14-128-23-17 94-49 174-90 232 95-42 173-116 218-209z m-543 219c-51-59-92-143-115-243-71 8-113 17-130 21 49 102 138 182 245 222z m-268-280c12-4 57-15 142-24-5-35-8-71-8-108 0-47 5-92 12-135-72-8-117-18-137-22-19 48-30 102-30 157 0 46 8 90 21 132z m36-347c23 5 64 12 124 18 24-87 62-161 108-215-98 36-180 107-232 197v0z m557-187c37 53 66 123 85 204 62-7 101-15 120-20-47-81-119-146-205-184z" horiz-adv-x="1000" />

<glyph glyph-name="frame" unicode="&#xe038;" d="M219 741h-188c-17 0-31-14-31-32v-187c0-17 14-31 31-31s32 14 32 31v156h156c17 0 31 14 31 31s-14 32-31 32z m750-532c-17 0-31-14-31-31v-156h-157c-17 0-31-14-31-31s14-32 31-32h188c17 0 31 14 31 32v187c0 17-14 31-31 31z m-750-187h-156v156c0 17-14 31-32 31s-31-14-31-31v-187c0-18 14-32 31-32h188c17 0 31 14 31 32 0 17-14 31-31 31z m750 719h-188c-17 0-31-14-31-32s14-31 31-31h157v-156c0-17 14-31 31-31s31 14 31 31v187c0 18-14 32-31 32z" horiz-adv-x="1000" />

<glyph glyph-name="folder-alt" unicode="&#xe039;" d="M938 647h-469l-94 94h-312c-35 0-63-28-63-63v-156h0v-63h0v-437c0-35 28-63 63-63h875c34 0 62 28 62 63v562c0 35-28 63-62 63z m-875 31h284l76-75 20-19h495v-62h-875v156h0 0z m0-656v437h875v-437h-875z" horiz-adv-x="1000" />

<glyph glyph-name="film" unicode="&#xe03a;" d="M781 584h63c17 0 31 14 31 31v32c0 17-14 31-31 31h-63c-17 0-31-14-31-31v-32c0-17 14-31 31-31z m0-187h63c17 0 31 14 31 31v31c0 17-14 31-31 31h-63c-17 0-31-14-31-31v-31c0-17 14-31 31-31z m0-188h63c17 0 31 14 31 31v32c0 17-14 31-31 31h-63c-17 0-31-14-31-31v-32c0-17 14-31 31-31z m0-187h63c17 0 31 14 31 31v31c0 17-14 31-31 31h-63c-17 0-31-14-31-31v-31c0-17 14-31 31-31z m-625 562h63c17 0 31 14 31 31v32c0 17-14 31-31 31h-63c-17 0-31-14-31-31v-32c0-17 14-31 31-31z m0-187h63c17 0 31 14 31 31v31c0 17-14 31-31 31h-63c-17 0-31-14-31-31v-31c0-17 14-31 31-31z m0-188h63c17 0 31 14 31 31v32c0 17-14 31-31 31h-63c-17 0-31-14-31-31v-32c0-17 14-31 31-31z m0-187h63c17 0 31 14 31 31v31c0 17-14 31-31 31h-63c-17 0-31-14-31-31v-31c0-17 14-31 31-31z m782 813h-875c-35 0-63-29-63-63v-844c0-34 28-63 63-63h875c34 0 62 29 62 63v844c0 34-28 63-62 63z m0-907h-875v844h875v-844z" horiz-adv-x="1000" />

<glyph glyph-name="feed" unicode="&#xe03b;" d="M100 528c-18 0-32-15-32-32 0-18 14-32 32-32 295 0 513-220 513-516 0-17 14-32 32-32s32 15 32 32c0 333-245 580-577 580z m0 319c-18 0-32-14-32-32s14-32 32-32c459 0 833-373 833-832 0-18 14-32 32-32s32 14 32 32c-1 494-403 896-897 896z m80-641c-97 0-176-79-176-177 0-97 79-177 176-177 97 0 176 80 176 177 0 98-79 177-176 177z m0-292c-63 0-115 52-115 115s52 115 115 115c63 0 114-51 114-115s-51-115-114-115z" horiz-adv-x="1000" />

<glyph glyph-name="earphones-alt" unicode="&#xe03c;" d="M1000 291c0 20-3 98-6 120-28 255-235 440-491 440-267 0-483-206-498-479 0-6-2-48-3-73l0-14c-1-6-2-12-2-18v-210c0-45 37-83 83-83h84c46 0 84 38 84 83v210c0 46-38 83-84 83h-84c-6 0-11-1-17-2 1 11 1 19 1 21 13 239 203 419 436 419 224 0 404-161 429-384 1-9 3-33 4-56-6 1-13 2-19 2h-83c-46 0-83-37-83-83v-209c0-31 18-59 44-73l-201-78v5c0 17-14 31-31 31h-94c-17 0-31-14-31-31v-31c0-18 14-32 31-32h94c0 0 0 0 1 0l56 1 321 126c5 2 8 4 11 7 28 14 48 42 48 75v209c0 5-1 10-2 15 1 3 2 6 2 9z m-917-3h84c12 0 21-10 21-21v-210c0-11-9-20-21-20h-84c-11 0-20 9-20 20v210c0 11 9 21 20 21z m730-21c0 11 9 21 21 21h83c11 0 20-10 20-21v-209c0-11-9-20-20-20h-83c-12 0-21 9-21 20v209z" horiz-adv-x="1000" />

<glyph glyph-name="earphones" unicode="&#xe03d;" d="M1000 260c0 20-3 98-6 120-28 255-235 439-491 439-267 0-483-205-498-478 0-6-2-48-3-73l0-14c-1-6-2-12-2-18v-272c0-46 37-83 83-83h84c46 0 84 37 84 83v272c0 46-38 83-84 83h-84c-6 0-11-1-17-2 1 10 1 18 1 21 13 239 203 419 436 419 224 0 404-162 429-384 1-9 3-33 4-57-6 2-13 3-19 3h-83c-46 0-83-37-83-83v-271c0-46 37-83 83-83h83c46 0 83 37 83 83v271c0 5-1 10-2 15 1 3 2 6 2 9z m-917-4h84c12 0 21-9 21-20v-272c0-12-9-21-21-21h-84c-11 0-20 9-20 21v272c0 11 9 20 20 20z m854-291c0-12-9-21-20-21h-83c-12 0-21 9-21 21v271c0 11 9 20 21 20h83c11 0 20-9 20-20v-271z" horiz-adv-x="1000" />

<glyph glyph-name="drop" unicode="&#xe03e;" d="M498-149c-188 0-342 152-342 338 0 217 304 630 317 647 6 8 15 13 25 13 11 0 19-5 25-12 13-18 321-423 321-648 0-186-155-338-346-338z m1 913c-73-103-280-412-280-575 0-152 125-275 279-275 157 0 283 123 283 275 0 169-209 474-282 575z" horiz-adv-x="1000" />

<glyph glyph-name="drawar" unicode="&#xe03f;" d="M999 352l-115 398c-3 13-16 22-30 22h-718c-14 0-26-9-30-23l-105-377c-2-7-1-15 2-21-2-6-3-12-3-18v-343c0-35 28-62 63-62h875c34 0 62 27 62 62v343c0 2 0 3 0 5 0 5 0 9-1 14z m-839 358l670 0 91-314h-291c-1-75-55-127-130-127s-128 52-129 127h-299z m778-720h-875v343h257c27-78 93-126 180-126s154 48 182 126h256v-343z" horiz-adv-x="1000" />

<glyph glyph-name="docs" unicode="&#xe040;" d="M750 850h-344c-34 0-62-28-62-62h344v-250h250v-500h-219v-63h219c34 0 62 28 62 63v562z m0-250v162l162-162h-162z m-687 125c-35 0-63-28-63-62v-751c0-34 28-62 63-62h531c34 0 62 28 62 62v563l-250 250h-343z m531-813h-531v751h281v-250h250v-501z m-188 563v162l162-162h-162z" horiz-adv-x="1000" />

<glyph glyph-name="directions" unicode="&#xe041;" d="M993 668l-97 109c-6 7-15 11-23 11h-343v33c0 16-14 29-31 29s-31-13-31-29v-33h-250c-17 0-31-14-31-32v-218c0-17 14-31 31-31h250v-63h-340c-9 0-18-4-24-10l-97-111c-11-12-11-30 0-42l97-109c6-7 15-10 24-10h340v-283c0-16 14-29 31-29 17 0 31 13 31 29v283h251c17 0 31 14 31 31v220c0 17-14 31-31 31h-251v63h343c8 0 17 3 23 10l97 110c11 12 11 30 0 41v0z m-243-443h-608l-70 77 70 80h608v-157z m108 344h-609v156h609l70-77z" horiz-adv-x="1000" />

<glyph glyph-name="direction" unicode="&#xe042;" d="M944 559l-175 187c-6 7-14 10-22 10h-261l-1 65c0 16-14 29-32 29s-29-13-29-29l-1-65h-344c-18 0-32-14-32-31v-375c0-17 14-31 32-31h344v-440c0-16 14-29 31-29s31 13 31 29v440h262c8 0 16 3 22 10l175 187c11 12 11 31 0 43z m-211-178h-623v313h623l146-156z" horiz-adv-x="1000" />

<glyph glyph-name="diamond" unicode="&#xe043;" d="M995 562l-137 261c-8 15-28 27-45 27h-315c0 0-1 0-1 0 0 0 0 0-1 0h-308c-18 0-38-12-46-27l-137-256c-8-16-6-39 4-53l469-654c5-7 11-10 18-10 7 0 13 3 18 10l477 649c10 14 12 37 4 53z m-75 7h-167l67 192z m-358 219h201l-62-179z m91-219h-291l137 198z m-346 30l-63 189h194z m358-92l-168-481-160 481h328z m-238-469l-336 469h180z m304 469h181l-345-470z m-547 263l67-201h-173z" horiz-adv-x="1000" />

<glyph glyph-name="cup" unicode="&#xe044;" d="M813 444c-8 0-34 0-63 0l0 63c0 34-28 62-62 62l-626 0c-34 0-62-27-62-62v-470c0-103 84-187 187-187h376c104 0 187 84 187 187l0 32c28 0 57 0 63 0 103 0 187 83 187 187 0 103-84 188-187 188z m-126-407c0-69-55-125-124-125h-376c-69 0-125 56-125 125l0 470 626 0z m126 94c-6 0-35 0-63 0l0 251c29 0 55-1 63-1 71 0 126-53 126-124s-54-126-126-126z m-251 501c18 0 32 14 32 31v156c0 17-14 31-32 31s-31-14-31-31v-156c0-17 14-31 31-31z m-375 0c18 0 32 14 32 31v156c0 17-14 31-32 31s-31-14-31-31v-156c0-17 14-31 31-31z m188 0c17 0 31 14 31 31v156c0 17-14 31-31 31s-31-14-31-31v-156c0-17 14-31 31-31z" horiz-adv-x="1000" />

<glyph glyph-name="compass" unicode="&#xe045;" d="M716 576l-306-131c-5-3-10-7-13-13l-140-282c-5-12-3-25 5-34 6-6 14-9 22-9 4 0 8 1 12 3l299 124c5 2 10 7 13 12l147 290c6 11 5 25-4 35-9 9-23 11-35 5z m-366-375l84 173 86-107z m221 103l-87 108 173 68z m-71 546c-276 0-500-224-500-500 0-276 224-500 500-500 276 0 500 224 500 500 0 276-224 500-500 500z m0-939c-241 0-437 198-437 439 0 241 196 438 437 438s438-197 438-438-197-439-438-439z" horiz-adv-x="1000" />

<glyph glyph-name="call-out" unicode="&#xe046;" d="M977 97c-15 10-183 122-203 134-9 6-20 8-32 8-15 0-32-4-49-13-16-8-65-36-88-50-22 15-71 53-149 131-77 77-115 127-130 148 13 24 41 73 50 89 16 30 17 60 4 81-12 19-123 187-134 203-11 15-30 23-51 23-17 0-34-5-49-16-2-1-149-108-147-168 5-171 171-371 309-509 138-138 338-303 509-309h1c60 0 166 145 167 147 27 39 17 83-8 101z m-43-65c-40-55-96-112-118-120-117 5-282 108-464 291-182 182-285 346-290 463 8 22 65 78 119 118 4 3 9 4 14 4 1 0 2 0 2 0 18-26 112-168 130-195 0-3-1-10-7-20-5-11-23-43-48-87l-20-34 23-33c17-24 57-77 137-156 80-81 133-121 157-138l32-23 35 20c33 19 73 42 86 49 11 5 18 6 20 6 0 0 1 0 1 0 24-15 170-112 195-130 1-2 1-8-4-15z m-266 445l269 267-1-152c0-12 10-23 22-23l16 0c13 0 23 8 24 21l0 225c0 0-1 1-1 1l2 11c0 7-2 12-6 16-4 4-10 7-16 7l-11-1c0 0-1 0-1 0l-224 1c-13 0-23-10-23-23l0-16c2-15 13-24 26-23l148-1-268-266c-12-12-12-32 0-44 12-12 32-12 44 0z" horiz-adv-x="1000" />

<glyph glyph-name="call-in" unicode="&#xe047;" d="M977 97c-15 10-183 122-203 134-9 6-20 8-32 8-15 0-32-4-49-13-16-8-65-36-88-50-22 15-71 53-149 131-77 77-115 127-130 148 13 24 41 73 50 89 16 30 17 60 4 81-12 19-123 187-134 203-11 15-30 23-51 23-17 0-34-5-49-16-2-1-149-108-147-168 5-171 171-371 309-509 138-138 338-303 509-309h1c60 0 166 145 167 147 27 39 17 83-8 101z m-43-65c-40-55-96-112-118-120-117 5-282 108-464 291-182 182-285 346-290 463 8 22 65 78 119 118 4 3 9 4 14 4 1 0 2 0 2 0 18-26 112-168 130-195 0-3-1-10-7-20-5-11-23-43-48-87l-20-34 23-33c17-24 57-77 137-156 80-81 133-121 157-138l32-23 35 20c33 19 73 42 86 49 11 5 18 6 20 6 0 0 1 0 1 0 24-15 170-112 195-130 1-2 1-8-4-15z m-305 450c4-4 10-6 16-6l11 0c0 0 1 0 1 0l224-1c13 1 23 11 23 24l0 16c-2 15-13 23-26 23l-148 0 256 256c12 12 12 32 0 44-12 12-32 12-44 0l-257-256 1 151c0 13-10 24-22 23l-16 0c-13 0-23-7-24-20l0-226c0 0 1 0 1 0l-2-12c0-6 2-12 6-16z" horiz-adv-x="1000" />

<glyph glyph-name="call-end" unicode="&#xe048;" d="M939 655c0-1 0-2 0-2-26-18-168-112-195-129-3-1-10 0-20 6-11 6-43 23-87 49l-34 19-33-23c-24-17-77-57-156-137-81-80-121-132-138-157l-23-32 20-34c19-34 42-74 49-87 5-11 6-18 6-20 0 0 0-1 0-1-15-24-112-170-130-196-2 0-8 0-15 5-55 40-112 96-120 118 5 117 108 282 291 464 182 182 346 285 463 290 22-7 78-65 118-119 3-4 4-9 4-14z m61 0c0 17-5 34-16 49-1 2-106 149-166 147-171-5-371-171-509-309-138-138-303-338-309-509v-1c0-60 146-166 147-167 39-27 83-17 101 8 10 15 122 183 134 203 6 9 8 20 8 32 0 15-4 32-13 49-8 16-36 65-50 89 15 21 53 70 131 148 77 77 127 115 148 130 24-13 73-41 89-50 30-16 60-17 81-4 19 12 185 123 201 134 15 11 23 30 23 51z" horiz-adv-x="1000" />

<glyph glyph-name="calculator" unicode="&#xe049;" d="M938 850h-875c-35 0-63-28-63-62v-876c0-34 28-62 63-62h875c34 0 62 28 62 62v876c0 34-28 62-62 62z m0-938h-875v876h875v-876z m-719 594h62v-62c0-18 14-32 32-32s31 14 31 32v62h62c18 0 32 14 32 31s-14 32-32 32h-62v62c0 17-14 31-31 31s-32-14-32-31v-62h-62c-17 0-31-14-31-32s14-31 31-31z m204-233c-12 12-32 12-44 0l-66-67-67 67c-12 12-32 12-44 0-12-12-12-32 0-44l66-67-66-66c-12-12-12-32 0-44s32-12 44 0l67 66 66-66c12-12 32-12 44 0s12 32 0 44l-66 66 66 67c12 12 12 32 0 44z m171 233h187c18 0 32 14 32 31s-14 32-32 32h-187c-17 0-31-14-31-32s14-31 31-31z m0-312h187c18 0 32 14 32 31s-14 31-32 31h-187c-17 0-31-14-31-31s14-31 31-31z m0-125h187c18 0 32 14 32 31s-14 31-32 31h-187c-17 0-31-14-31-31s14-31 31-31z" horiz-adv-x="1000" />

<glyph glyph-name="bubbles" unicode="&#xe04a;" d="M415 187c225 0 400 128 398 320 0 169-179 304-405 304-225 0-408-135-408-304 0-106 51-218 159-273 0-1 0-1 0-2 0-46-38-109-53-135h0c-1-2-2-5-2-9 0-12 10-23 23-23 2 0 5 1 6 1 1 0 1 0 1 0 79 13 197 102 215 124 18-3 30-3 45-3 6 0 13 0 21 0z m-92 67l-40-33c-9-11-50-45-84-67 21 61 20 80 20 80l3 38-34 17c-87 45-126 137-126 218 0 134 155 241 346 241 191 0 342-107 342-241-1-149-142-259-333-259 0 0-29-1-59 3z m677 0c0 85-33 149-115 198-2-23-9-47-16-68 54-37 69-75 69-130 0-67-32-116-105-153l-31-16s4-80 8-100c-61 44-82 82-82 82l-32-5c-13-2-49-2-49-2-84 0-147 20-201 62 15 1-87 1-89-1 62-76 163-124 290-124 7 0 13 0 19 0 13 0 23 0 39 3 15-19 99-99 168-111 0 0 0 0 1 0 1 0 3 0 5 0 11 0 20 9 20 20 0 3-1 6-2 8h0c-13 22-33 88-33 127 0 1 0 1 0 2 93 48 136 117 136 208z" horiz-adv-x="1000" />

<glyph glyph-name="briefcase" unicode="&#xe04b;" d="M938 663h-250v61c0 51-42 93-94 93h-188c-51 0-93-42-93-93v-61h-250c-35 0-63-28-63-62v-219h0v-63h0v-374c0-34 28-62 63-62h875c34 0 62 28 62 62v656c0 34-28 62-62 62h0z m-563 61c0 17 14 31 31 31h188c17 0 31-14 31-31v-61h-250z m-312-123h875v-219h-345v32c0 34-28 62-62 62h-62c-35 0-63-28-63-62v-32h-343v219h0z m468-345h-62v158h62z m-468-311v374h343v-63c0-34 28-62 63-62h62c34 0 62 28 62 62v63h345v-374h-875 0z" horiz-adv-x="1000" />

<glyph glyph-name="book-open" unicode="&#xe04c;" d="M930 849l-413-112c-11-3-34-3-44 0l-403 111c-35 10-70-16-70-53v-760c0-31 23-61 54-69l402-112c11-3 25-5 39-5 10 0 25 1 38 5l413 112c30 8 54 38 54 69v760c0 37-34 63-70 54z m-461-934l-400 111c-3 1-7 6-7 9v750l394-108c4-2 8-2 13-3v-759z m469 120c0-3-5-8-8-9l-399-108v758c1 0 1 0 2 0l405 110v-751h0z m-311 457c3 0 6 1 8 1l219 62c17 5 26 22 22 39s-22 26-39 21l-218-61c-17-5-27-22-22-39 4-14 16-23 30-23z m0-187c3 0 6 0 8 1l219 62c17 4 26 21 22 38-5 17-22 26-39 22l-218-62c-17-5-27-22-22-38 4-14 16-23 30-23z m0-188c3 0 6 1 8 1l219 62c17 5 26 22 22 39s-22 26-39 21l-218-61c-17-5-27-22-22-39 4-14 16-23 30-23z m-242 437l-218 61c-17 5-34-5-39-21s5-34 22-39l219-62c2 0 5-1 8-1 14 0 26 9 30 23 5 17-5 34-22 39z m0-188l-218 62c-17 4-34-5-39-22s5-34 22-38l219-62c2-1 5-1 8-1 14 0 26 9 30 23 5 16-5 33-22 38z m0-187l-218 61c-17 5-34-5-39-21s5-34 22-39l219-62c2 0 5-1 8-1 14 0 26 9 30 23 5 17-5 34-22 39z" horiz-adv-x="1000" />

<glyph glyph-name="basket-loaded" unicode="&#xe04d;" d="M992 573c-6 8-15 13-25 13h-98l-200 171c-25 24-64 24-89 0l-197-171h-80l-50 173c-20 68-66 76-86 76h-133c-18 0-31-14-31-31s13-32 31-32h133c5 0 18 0 26-30l173-635c4-13 16-22 30-22h422c13 0 25 8 29 20l149 439c3 10 2 20-4 29z m-367 139l148-126h-297z m171-565h-376l-99 377h601z m-62-125c-43 0-78-35-78-78s35-79 78-79 79 35 79 79c0 43-35 78-79 78z m-281 0c-43 0-78-35-78-78s35-79 78-79 78 35 78 79c0 43-35 78-78 78z" horiz-adv-x="1000" />

<glyph glyph-name="basket" unicode="&#xe04e;" d="M992 573c-6 8-15 13-25 13h-664l-50 173c-20 68-66 76-86 76h-133c-18 0-31-14-31-31s13-32 31-32h133c5 0 18 0 26-30l173-635c4-13 16-22 30-22h422c13 0 25 8 29 20l149 439c3 10 2 20-4 29z m-196-426h-376l-99 377h601z m-62-125c-43 0-78-35-78-78s35-79 78-79 79 35 79 79c0 43-35 78-79 78z m-281 0c-43 0-78-35-78-78s35-79 78-79 78 35 78 79c0 43-35 78-78 78z" horiz-adv-x="1000" />

<glyph glyph-name="bag" unicode="&#xe04f;" d="M844 695h-187v60c0 52-42 94-94 94h-124c-52 0-94-42-94-94v-60h-189c-34 0-62-28-62-62v-719c0-35 28-63 62-63h688c34 0 62 28 62 63v719c0 34-28 62-62 62h0z m-437 60c0 17 14 31 32 31h124c18 0 32-14 32-31v-60h-188v60z m437-841h-688v719h189v-65s-1-31 31-31c35 0 31 31 31 31v65h188v-65s-2-31 31-31c31 0 31 31 31 31v65h187v-719z" horiz-adv-x="1000" />

<glyph glyph-name="action-undo" unicode="&#xe050;" d="M967-70c0 0-1 0-1 0-16 0-26 13-27 28-1 12-33 292-471 292v-179c0-12-7-23-18-28-11-6-24-4-33 4l-406 335c-7 6-11 15-11 25 0 9 4 18 12 24l405 332c9 8 22 9 33 4 11-5 18-16 18-28v-175c181-6 323-65 414-171 149-174 115-426 114-437-2-15-14-26-29-26z m-530 383l0 0c312 0 432-106 500-199-10 75-39 165-103 238-84 98-220 150-397 150-18 0-32 14-32 31v140l-324-267 324-269v145c0 8 4 16 9 22 6 6 14 9 23 9z" horiz-adv-x="1000" />

<glyph glyph-name="action-redo" unicode="&#xe051;" d="M33-70c1 0 1 0 1 0 16 0 26 13 27 28 1 12 33 292 470 292l1-179c0-12 7-23 18-28 11-6 24-4 33 4l406 335c7 6 11 15 11 25 0 9-4 18-11 24l-406 332c-9 8-22 9-33 4-11-5-18-16-18-28l-1-175c-181-6-322-65-413-171-149-174-115-426-114-437 3-15 14-26 29-26z m531 383h0c-313 0-433-106-501-199 10 75 39 165 103 238 84 98 220 150 398 150 17 0 31 14 31 31v140l324-267-324-269v145c0 8-3 16-9 22-6 6-14 9-22 9z" horiz-adv-x="1000" />

<glyph glyph-name="wrench" unicode="&#xe052;" d="M983 639c-11 5-23 3-32-5l-157-141-143 146 141 162c8 9 10 22 5 32s-15 18-27 18h-9c-87 0-237-8-304-76l-13-13c-72-73-85-193-47-284l-361-368c-48-50-48-130 0-179l44-45c25-24 57-37 88-37 32 0 64 13 89 37l365 369c35-18 82-30 122-30 64 0 125 25 171 72l13 14c73 73 72 231 72 301 0 12-7 22-17 27z m-99-286l-11-14c-35-35-81-52-129-52-23 0-55 5-77 14-20 8-38 19-54 34l-401-404c-11-12-27-18-44-18s-32 6-44 18l-44 45c-24 24-24 64 0 89l392 399c-13 19-22 40-28 62h0c-15 61-6 145 41 193l14 14c41 41 146 53 204 57l-114-133c-11-11-10-29 1-40l181-186c11-12 29-12 41-2l127 115c-4-62-16-152-55-191z" horiz-adv-x="1000" />

<glyph glyph-name="umbrella" unicode="&#xe053;" d="M1000 352c0-17-14-31-31-31h-438v-316c0-86-69-155-155-155s-154 69-154 155c0 17 14 31 31 31 17 0 31-14 31-31 0-51 42-92 92-92 51 0 92 41 92 92v316h-437c-17 0-31 14-31 31 0 242 176 395 468 405v62c0 17 14 31 32 31 17 0 31-14 31-31v-62c292-10 469-163 469-405z m-63 32c-16 195-175 311-437 311s-421-116-437-311h874v0z" horiz-adv-x="1000" />

<glyph glyph-name="trash" unicode="&#xe054;" d="M876 695l-220 0v85c0 40-32 71-72 71h-168c-40 0-72-31-72-71v-85h-220c-17 0-31-14-31-31s14-32 31-32h43l73-722c3-34 32-61 65-61h390c33 0 62 27 65 60l73 723h43c17 0 31 14 31 32s-14 31-31 31z m-469 85c0 5 4 9 9 9h168c5 0 9-4 9-9v-85h-186z m291-865c0-2-2-3-3-3h-390c-1 0-3 1-3 3l-72 717h540z" horiz-adv-x="1000" />

<glyph glyph-name="tag" unicode="&#xe055;" d="M1000 444l0 330c0 42-34 76-76 76h-337c-21 0-54 0-74-21l-495-494c-11-12-18-28-18-44 0-17 7-33 18-45l378-378c12-12 28-18 45-18s32 6 44 18l494 495c21 21 21 51 21 81z m-65-37l-495-494-377 378 493 493c5 4 23 4 30 4l15 0 323 0c7 0 14-7 14-14v-331c0-12 0-31-3-36z m-185 318c-69 0-125-56-125-125s56-125 125-125c69 0 125 56 125 125s-56 125-125 125z m0-187c-34 0-62 28-62 62s28 63 62 63 63-28 63-63-28-62-63-62z" horiz-adv-x="1000" />

<glyph glyph-name="support" unicode="&#xe056;" d="M500 850c-276 0-500-224-500-500s224-500 500-500 500 224 500 500-224 500-500 500z m125-81c141-42 252-153 294-294h-203c-22 38-53 69-91 91z m62-419c0-104-84-187-187-187s-187 83-187 187 84 187 187 187c103 0 187-84 187-187z m-249 433c20 3 41 4 62 4 21 0 42-1 63-4v-191c-20 5-41 8-63 8s-42-3-62-8v191z m-63-14v-203c-38-22-69-53-91-91h-203c42 141 153 252 294 294z m-312-419c0 21 2 42 5 63h190c-5-20-8-41-8-63 0-22 3-43 8-62h-190c-3 20-5 41-5 62z m312-419c-141 42-252 153-294 294h203c22-38 53-69 91-91v-203z m188-14c-21-3-42-5-63-5-21 0-42 2-62 5v191c20-5 40-8 62-8s43 3 63 8v-191z m62 14v203c38 22 69 53 91 91h203c-42-141-153-252-294-294z m117 357c5 19 8 40 8 62 0 22-3 43-8 63h190c3-21 5-42 5-63 0-21-2-42-4-62h-191z" horiz-adv-x="1000" />

<glyph glyph-name="size-fullscreen" unicode="&#xe057;" d="M670 476l269 267-1-151c0-13 10-24 22-24l16 0c13 1 23 8 24 21l0 225c0 1-1 1-1 1l2 11c0 7-2 12-6 16-4 4-10 7-16 7l-11 0c0 0-1-1-1-1l-224 1c-13 0-23-10-23-23l0-16c2-15 13-24 26-23l148-1-268-266c-13-12-13-32 0-44 12-12 32-12 44 0z m-339-252l-269-266 1 151c1 12-9 23-22 23l-17 0c-13 0-23-8-23-21l-1-225c0-1 1-1 1-1l-2-11c0-7 2-12 6-16 4-4 10-7 16-7l11 1c1 0 1 0 1 0l225-1c13 0 23 10 23 23l0 16c-1 15-13 24-26 23l-147 1 267 266c13 12 13 32 0 44s-32 12-44 0z m669-338l0 225c-1 13-11 21-24 21l-16 0c-12 0-22-11-22-23l1-152-269 267c-12 12-32 12-44 0s-13-32 0-44l268-266-148-1c-13 1-24-8-26-23l0-16c0-13 10-23 23-23l224 1c0 0 1 0 1 0l11-1c6 0 12 3 16 7 4 4 6 9 6 16l-2 11c0 0 1 1 1 1z m-892 900l147 1c13-1 25 8 26 23l0 16c0 13-10 23-23 23l-225-1c0 0 0 1-1 1l-11 0c-6 0-12-3-16-7-4-4-6-9-6-16l2-11c0 0-1 0-1-1l1-225c0-13 10-20 23-21l17 0c13 0 23 11 22 24l-1 150 269-266c12-12 32-12 44 0s13 32 0 44z" horiz-adv-x="1000" />

<glyph glyph-name="size-actual" unicode="&#xe058;" d="M374 511l0 226c-1 13-11 20-24 20l-16 0c-12 1-22-10-22-23l1-152-260 258c-13 12-32 12-44 0s-13-32 0-44l258-257-147 0c-13 0-24-8-26-23l0-16c0-13 10-23 23-24l224 1c0 0 1 0 1 0l11 0c6 0 12 2 16 6 4 4 6 10 6 16l-2 12c0 0 1 0 1 0z m257-28c4-4 10-6 16-6l11 0c1 0 1 0 1 0l224-1c13 1 23 11 23 24l0 16c-1 15-13 23-26 23l-147 0 259 257c12 12 12 32 0 44s-32 12-45 0l-260-257 1 151c1 13-9 24-22 23l-16 0c-13 0-23-7-24-20l0-226c0 0 1 0 1 0l-2-12c0-6 2-12 6-16z m-262-265c-4 4-10 6-16 6l-11 0c0 0-1 0-1 0l-224 1c-13-1-23-11-23-24l0-16c2-14 13-23 26-23l148 0-259-258c-13-12-13-32 0-44 12-12 31-12 44 0l260 258-1-152c0-13 10-24 22-23l16 0c13 0 23 7 24 20l0 226c0 0-1 0-1 0l2 13c0 6-2 12-6 16z m364-56l147 0c13 0 25 9 26 23l0 16c0 13-10 23-23 24h-224c0 0 0 0-1 0l-13 0c-6 0-12-4-16-8-4-4-6-10-5-16l1-12c0 0-1 0-1 0l1-226c0-13 10-20 23-20l17 0c13-1 23 10 22 23l-1 151 261-257c13-12 32-12 45 0 12 12 12 32 0 44z" horiz-adv-x="1000" />

<glyph glyph-name="shuffle" unicode="&#xe059;" d="M393 356l38 54-131 179h-297v-63h265z m504 170l-75-67c-10-9-12-23-3-32l5-8c9-9 24-9 33 0l125 113c0 0 0 0 0 0l9 8c4 5 6 10 6 16 0 6-2 12-6 16l-9 8c0 0 0 0 0 0l-127 116c-9 9-24 9-33 0l-5-8c-9-9-6-23 3-32l74-67h-226l-400-563h-265v-62h297l400 562z m85-509c0 0 0 0 0 1l-127 115c-9 9-24 9-33 0l-5-8c-9-8-6-22 3-31l74-68-194 0-112 173-38-54 118-181 229 0-75-68c-10-9-12-23-3-32l5-8c9-8 24-8 33 0l125 113c0 0 0 0 0 1l9 8c4 4 6 10 6 15 0 6-2 12-6 16z" horiz-adv-x="1000" />

<glyph glyph-name="share-alt" unicode="&#xe05a;" d="M881-77h-813v625h252l63 61-2 1h-313c-34 0-62-28-62-62v-625c0-35 28-63 62-63h813c34 0 62 28 62 63v489l-62-60v-429z m-617 250l63 0c44 248 260 437 521 437 11 0 22 0 32 0l-114-114c-13-12-13-32 0-44 6-7 14-10 22-10s16 3 22 10l184 189-184 190c-12 12-32 12-44 0-13-13-13-32 0-45l113-113c-10 0-19 0-29 0-296 0-541-217-586-500z" horiz-adv-x="1000" />

<glyph glyph-name="share" unicode="&#xe05b;" d="M844 163c-52 0-97-25-126-64l-411 210c3 13 6 27 6 41 0 18-4 35-9 51l414 201c28-39 74-64 126-64 86 0 156 70 156 156 0 86-70 156-156 156s-156-70-156-156c0-12 1-24 4-35l-420-204c-29 31-70 51-116 51-86 0-156-70-156-156 0-86 70-156 156-156 50 0 94 23 123 59l413-210c-3-12-4-24-4-37 0-86 70-156 156-156s156 70 156 156-70 157-156 157z m0 625c52 0 94-42 94-94s-42-94-94-94-94 42-94 94 42 94 94 94z m-688-532c-51 0-93 42-93 94s42 94 93 94c52 0 94-42 94-94s-42-94-94-94z m688-344c-52 0-94 42-94 94 0 52 42 94 94 94s94-42 94-94-42-94-94-94z" horiz-adv-x="1000" />

<glyph glyph-name="rocket" unicode="&#xe05c;" d="M205-13c-20-40-32-68-141-72 3 106 23 117 63 137 17 9 38 19 61 37l-38 48c-18-14-35-21-51-29-67-33-99-66-99-223l1-32 31 1c165 0 196 37 227 101 7 15 11 24 22 43l-46 42c-14-19-22-37-30-53z m483 679c-69 0-125-56-125-126 0-69 56-125 125-125s126 56 126 125c0 70-56 126-126 126z m0-188c-34 0-62 28-62 62 0 35 28 63 62 63s63-28 63-63c0-34-28-62-63-62z m312 343c-1 16-13 29-29 30 0 0-175 12-343-50-62-23-112-60-159-115-40-46-79-129-114-198-13-26-26-52-36-71h-174c-9 0-18-4-24-11l-114-124c-8-8-10-20-7-30 4-11 12-19 23-21l187-43c12-15 34-39 67-76l71-79 38-161c3-10 10-19 21-22 3-1 6-2 10-2 7 0 14 3 20 8l116 115c7 6 11 15 11 24v161c15 10 43 25 69 39 70 40 176 89 220 128 62 55 84 95 106 154 53 142 41 336 41 344z m-100-322c-19-52-36-83-89-129-38-35-144-84-209-120-48-27-77-43-89-53-8-6-12-15-12-25v-163l-66-72-28 118c-1 6-4 10-7 14-58 64-144 160-151 168-4 5-10 9-17 10l-143 33 70 74h178c10 0 20 6 26 15 14 23 30 54 48 91 32 63 71 145 105 186 41 47 82 77 134 96 115 43 234 48 288 47 1-57-1-191-38-290z" horiz-adv-x="1000" />

<glyph glyph-name="question" unicode="&#xe05d;" d="M500 850c-276 0-500-224-500-500 0-276 224-500 500-500 276 0 500 224 500 500 0 276-224 500-500 500z m0-939c-241 0-437 198-437 439 0 241 196 438 437 438s438-197 438-438-197-439-438-439z m-46 157h79v80h-79z m45 564c-46 0-83-13-113-37-30-25-44-74-43-115l1-3h72c0 25 8 60 24 73 16 12 36 18 59 18 27 0 47-7 62-21 14-15 21-36 21-62 0-23-5-42-16-58-10-16-28-39-53-69-26-24-42-42-49-57-6-14-9-39-9-76h75c0 23 2 40 4 51 3 11 12 23 25 37 30 28 54 56 72 83 18 28 26 58 26 90 0 46-13 82-41 107-28 26-67 39-117 39z" horiz-adv-x="1000" />

<glyph glyph-name="pie-chart" unicode="&#xe05e;" d="M562 759c-17 0-31-14-31-31s14-32 31-32c221 0 376-161 376-382 0-222-180-402-401-402-222 0-383 160-383 381 0 18-14 32-31 32s-32-14-32-32c0-255 190-443 446-443 255 0 463 208 463 464 0 255-182 445-438 445v0z m-93-347v407c0 17-14 31-31 31-244 0-438-194-438-438 0-17 14-31 31-31h407c17 0 31 14 31 31z m-62 32h-343c15 184 158 327 343 342v-342z" horiz-adv-x="1000" />

<glyph glyph-name="pencil" unicode="&#xe05f;" d="M942 802c-34 32-72 49-112 49-63 0-108-41-121-53-18-18-618-619-618-619-4-3-7-8-8-14-14-50-82-272-83-274-3-12 0-24 8-32 6-6 15-10 23-10 3 0 6 1 9 2 3 1 232 75 270 86 5 1 9 4 13 8 24 23 584 577 621 616 39 40 58 81 57 123-1 41-21 80-59 118z m-243-104c16-4 54-17 92-55 39-39 49-84 51-94-123-122-406-402-517-513-10 24-27 53-54 80-32 33-66 52-91 62 110 111 398 399 519 520z m-562-573c17-4 53-17 89-54 28-28 42-59 48-78-44-14-139-47-199-67 17 59 48 151 62 199z m762 481c-1-2-3-4-6-6-10 25-27 58-57 88-31 31-62 49-87 60 2 2 4 4 5 4 3 4 36 35 76 35 23 0 46-11 68-32 26-25 39-49 40-73 0-24-13-49-39-76z" horiz-adv-x="1000" />

<glyph glyph-name="note" unicode="&#xe060;" d="M781-88h-719v782h439l63 60-1 2h-501c-35 0-63-28-63-62v-782c0-34 28-62 63-62h719c34 0 62 28 62 62v458l-62-60v-398z m170 898c-28 27-59 40-92 40-52 0-90-33-100-44-15-14-429-428-429-428-3-3-6-7-7-11-11-42-67-226-68-228-3-9 0-20 7-26 5-5 11-8 18-8 3 0 5 0 8 1 2 1 192 62 223 72 4 1 8 3 11 6 20 19 401 394 432 426 31 33 47 67 47 102-1 34-18 67-50 98z m-42-156c-18-18-154-153-405-400l-19-19c-29-9-98-31-150-48 17 55 37 122 46 154 53 54 408 408 422 421 2 3 26 26 56 26 17 0 33-8 49-24 20-18 30-36 30-53 0-18-9-37-29-57z" horiz-adv-x="1000" />

<glyph glyph-name="music-tone-alt" unicode="&#xe061;" d="M969 161c0 1 0 1 0 2v651c0 4 0 7-1 11-3 14-15 25-31 25-5 0-11-1-15-4l-584-152c-11-3-18-11-22-20-2-5-4-10-4-15v-559c-29 20-67 32-109 32-95 0-172-63-172-141 0-78 77-141 172-141 95 0 173 63 173 141 0 4-1 8-1 12v0 636l531 138v-521c-30 20-68 32-109 32-95 0-173-63-173-141 0-78 78-141 173-141 95 0 172 63 172 141 0 5 0 10 0 14z m-765-249c-65 0-110 42-110 79 0 37 45 78 110 78 58 0 100-33 108-66v0c0-4 1-7 2-9 0-1 0-2 0-3 0-37-45-79-110-79z m593 157c-65 0-110 41-110 78s45 78 110 78c64 0 109-41 109-78s-45-78-109-78z" horiz-adv-x="1000" />

<glyph glyph-name="music-tone" unicode="&#xe062;" d="M833 534l-306 306c-10 10-24 11-36 6-12-4-21-16-21-30v-691c-33 24-76 39-124 39-104 0-188-70-188-156 0-87 84-157 188-157 103 0 187 70 187 157 0 3 0 7 0 11v727l255-256c13-12 32-12 45 0s12 32 0 44z m-488-620c-74 0-125 49-125 94 0 44 51 93 125 93 72 0 123-47 125-91v-5c-2-44-53-91-125-91v0z" horiz-adv-x="1000" />

<glyph glyph-name="microphone" unicode="&#xe063;" d="M499 163h7c87 0 150 64 150 152v372c0 92-66 163-150 163h-7c-86 0-155-73-155-163v-372c0-87 67-152 155-152z m-93 524c0 56 42 101 93 101h7c50 0 88-44 88-101v-372c0-54-35-90-88-90h-7c-55 0-93 37-93 90z m375-181c-17 0-31-14-31-31v-130c0-186-66-276-203-276h-93c-178 0-204 150-204 276v130c0 17-14 31-31 31s-31-14-31-31v-130c0-215 89-339 266-339h15v-94h-156c-18 0-32-14-32-31s14-31 32-31h375c17 0 31 14 31 31s-14 31-31 31h-157v94h16c121 0 266 59 266 339v130c0 17-14 31-32 31z" horiz-adv-x="1000" />

<glyph glyph-name="loop" unicode="&#xe064;" d="M938 751l-875 0c-35 0-63-28-63-63v-562c0-35 28-63 63-63h156c20 0 31 26 31 31v0c0 6-11 32-31 32h-118c-21 0-38 17-38 38v485c0 21 17 38 38 38l799 1c21 0 38-17 38-38v-486c0-21-17-38-38-38h-394l74 67c9 9 12 23 3 32l-5 8c-9 9-24 9-33 0l-127-116c0 0 0 0 0 0l-9-8c-4-4-7-10-6-16-1-6 2-11 6-16l9-8c0 0 0 0 0 0l125-113c9-9 24-9 33 0l5 8c9 9 6 23-3 31l-75 68h435c34 0 62 28 62 63v562c0 35-28 63-62 63z" horiz-adv-x="1000" />

<glyph glyph-name="logout" unicode="&#xe065;" d="M114 319h542c17 0 31 14 31 31s-14 32-31 32h-540l113 113c12 12 12 32 0 44s-32 12-44 0l-185-190 185-189c6-6 14-9 22-9s16 3 22 9c12 12 12 32 0 44z m823 531h-531c-35 0-63-28-63-62v-282h63v243c0 21 17 38 38 38h454c21 0 38-17 38-38l1-799c0-21-17-38-38-38h-455c-21 0-38 17-38 38v245l-63 0v-283c0-34 28-62 63-62h531c35 0 63 28 63 62v876c0 34-28 62-63 62z" horiz-adv-x="1000" />

<glyph glyph-name="login" unicode="&#xe066;" d="M520 204c-12-12-12-32 0-44 6-6 14-9 22-9s16 3 22 9l185 189-185 190c-12 12-32 12-44 0-12-12-12-32 0-44l113-113h-602c-17 0-31-14-31-32s14-31 31-31h604z m418 646h-563c-34 0-62-28-62-62v-282h63v243c0 21 17 38 37 38h485c21 0 38-17 38-38l1-799c0-21-17-38-38-38h-486c-20 0-37 17-37 38v245l-63 0v-283c0-34 28-62 62-62h563c34 0 62 28 62 62v876c0 34-28 62-62 62z" horiz-adv-x="1000" />

<glyph glyph-name="list" unicode="&#xe067;" d="M94 413h-63c-17 0-31-14-31-32v-62c0-17 14-31 31-31h63c17 0 31 14 31 31v62c0 18-14 32-31 32z m875-32h-656c-18 0-32-14-32-31s14-31 32-31h656c17 0 31 14 31 31s-14 31-31 31z m-875-218h-63c-17 0-31-14-31-32v-62c0-17 14-31 31-31h63c17 0 31 14 31 31v62c0 18-14 32-31 32z m875-32h-656c-18 0-32-14-32-31s14-31 32-31h656c17 0 31 14 31 31s-14 31-31 31z m-875 532h-63c-17 0-31-14-31-32v-62c0-17 14-31 31-31h63c17 0 31 14 31 31v62c0 18-14 32-31 32z m219-94h656c17 0 31 14 31 31s-14 31-31 31h-656c-18 0-32-14-32-31s14-31 32-31z" horiz-adv-x="1000" />

<glyph glyph-name="like" unicode="&#xe068;" d="M594-150c-284 0-286 12-321 38-19 14-54 24-182 33-10 0-19 4-25 11-2 3-67 97-67 247 0 148 46 216 48 219 6 9 16 14 27 14 105 0 252 135 350 370 17 41 21 68 83 68 36 0 76-26 95-58 41-67 20-210 1-287 65 1 181 1 237 1 77 0 128-46 130-113 0-22-3-50-9-65 17-17 39-43 40-76 1-42-27-74-45-93 4-12 13-29 12-48-2-49-39-80-63-96 2-13 4-38 0-57-17-77-130-108-311-108z m-487 134c112-9 172-22 204-46 24-18 20-25 283-25 81 0 238 3 250 58 4 22-19 44-19 44-6 16 1 34 16 41 0 0 63 22 64 57 1 23-14 36-14 36-10 15-6 34 8 44 0 0 40 24 39 58-1 26-36 45-37 45-7 5-13 13-15 22-2 8 0 18 6 25 0 0 16 25 15 49-1 50-56 52-67 52-79 0-282-1-282-1-10 0-20 5-26 14-6 9-6 20-3 30 31 87 48 225 20 273-9 13-11 27-42 27-4 0-14-3-25-29-105-250-261-394-388-407-11-25-32-77-32-172 0-96 30-171 45-195z" horiz-adv-x="1000" />

<glyph glyph-name="home" unicode="&#xe069;" d="M993 349l-469 491c-6 6-14 10-23 10-8 0-16-4-22-10l-472-491c-12-13-11-32 1-44 13-12 32-12 44 0l42 44v-467c0-18 14-32 32-32h218c17 0 31 14 31 31l1 313h249v-312c0-18 14-32 31-32h219c17 0 31 14 31 32v467l42-44c6-6 14-9 22-9 8 0 16 3 22 9 12 11 13 31 1 44z m-150 57v-493h-155v312c0 17-14 31-32 31h-311c-17 0-31-14-31-31l-1-312h-156v493c0 2-1 5-1 7l345 360 343-359c0-3-1-5-1-8z" horiz-adv-x="1000" />

<glyph glyph-name="grid" unicode="&#xe06a;" d="M938-150h-313c-34 0-62 28-62 62v313c0 35 28 63 62 63h313c34 0 62-28 62-63v-313c0-34-28-62-62-62z m0 375h-313v-313h313v313z m0 188h-313c-34 0-62 28-62 62v313c0 34 28 62 62 62h313c34 0 62-28 62-62v-313c0-34-28-62-62-62z m0 375h-313v-313h313v313z m-563-938h-312c-35 0-63 28-63 62v313c0 35 28 63 63 63h312c35 0 63-28 63-63v-313c0-34-28-62-63-62z m0 375h-312v-313h312v313z m0 188h-312c-35 0-63 28-63 62v313c0 34 28 62 63 62h312c35 0 63-28 63-62v-313c0-34-28-62-63-62z m0 375h-312v-313h312v313z" horiz-adv-x="1000" />

<glyph glyph-name="graph" unicode="&#xe06b;" d="M922 631c-43 0-78-35-78-78 0-9 2-17 4-25l-190-164c-13 11-30 17-49 17-21 0-40-8-54-22l-149 75c-3 40-37 72-78 72-43 0-78-35-78-78 0-12 3-23 8-33l-153-175c-8 3-17 5-27 5-43 0-78-35-78-78s35-78 78-78c43 0 78 35 78 78 0 10-2 20-6 29l155 178c7-2 15-4 23-4 23 0 43 10 57 25l146-73c1-42 36-77 78-77 44 0 79 35 79 78 0 2-1 3-1 4l203 175c10-4 21-7 32-7 43 0 78 35 78 78 0 43-35 78-78 78z" horiz-adv-x="1000" />

<glyph glyph-name="equalizer" unicode="&#xe06c;" d="M156 471v348c0 17-14 31-31 31s-31-14-31-31v-348c-54-14-94-63-94-121 0-58 40-107 94-121v-348c0-17 14-31 31-31 17 0 31 14 31 31v348c54 14 94 63 94 121 0 58-40 107-94 121z m-31-183c0 0 0 0 0 0 0 0 0 0 0 0-35 0-63 28-63 62 0 34 28 62 63 63 0 0 0 0 0 0 0 0 0 0 0 0 35-1 63-29 63-63 0-34-28-62-63-62z m406-4l0 535c0 17-14 31-31 31s-31-14-31-31v-535c-54-14-94-63-94-121s40-108 94-122v-160c0-17 14-31 31-31 17 0 31 14 31 31v160c54 14 94 63 94 122 0 58-40 107-94 121z m-31-184c0 0 0 0 0 0 0 0 0 0 0 0-35 0-63 28-63 63 0 34 28 62 63 62 0 0 0 0 0 0 0 0 0 0 0 0 35 0 63-28 63-62 0-35-28-63-63-63z m406 559l0 160c0 17-14 31-31 31-17 0-31-14-31-31v-160c-54-14-94-63-94-121s40-108 94-122v-535c0-17 14-31 31-31 17 0 31 14 31 31v535c54 14 94 63 94 122 0 58-40 107-94 121z m-31-184c0 0 0 0 0 0 0 0 0 0 0 0-35 0-63 28-63 63 0 34 28 62 63 62 0 0 0 0 0 0s0 0 0 0c35 0 63-28 63-62 0-35-28-63-63-63z" horiz-adv-x="1000" />

<glyph glyph-name="dislike" unicode="&#xe06d;" d="M406 850c284 0 286-12 321-38 19-14 54-24 183-33 9 0 18-4 24-11 2-3 67-97 67-247 0-148-46-215-48-219-6-9-16-14-27-14-105 0-252-135-350-370-17-41-21-68-83-68-36 0-75 26-95 58-41 67-20 210-1 287-65 0-181-1-237-1-77 0-128 46-130 113 0 22 3 51 9 65-17 17-39 43-40 76-1 42 27 75 45 93-4 12-12 29-12 48 2 49 39 80 63 96-2 13-4 38 0 57 17 77 130 108 311 108z m487-134c-112 9-172 22-203 46-25 18-21 25-284 25-80 0-237-3-249-58-5-22 18-44 18-44 6-16-1-34-16-41 0 0-63-22-64-57-1-22 14-36 15-36 9-14 5-34-9-43 0-1-40-25-39-59 1-26 36-45 37-45 7-5 13-13 15-21 2-9 0-19-6-26 0 0-16-25-15-49 1-50 56-52 67-52 79 0 282 1 282 1 11 0 20-5 26-14s6-20 3-29c-31-88-48-226-20-274 9-13 11-27 42-27 4 0 15 3 25 29 105 250 261 394 389 407 11 25 31 77 31 172 0 96-30 171-45 195z" horiz-adv-x="1000" />

<glyph glyph-name="cursor" unicode="&#xe06e;" d="M900 749l-329-767-116 336-336 102z m81 100c-6 0-13-1-22-5l-932-396c-34-14-36-41-5-61l386-120 127-394c9-15 20-22 30-22 12 0 23 9 31 26l398 932c11 25 5 40-13 40z" horiz-adv-x="1000" />

<glyph glyph-name="control-start" unicode="&#xe06f;" d="M952 786c0 23-12 44-32 55-9 5-20 8-30 8-12 0-23-3-33-10l-719-436c-15-10-26-25-29-43v459c0 17-14 31-31 31s-31-14-31-31v-938c0-17 14-31 31-31 17 0 31 14 31 31v459c3-17 14-33 29-43l720-436c10-7 21-10 33-10 10 0 21 3 30 8 20 11 32 32 32 55z m-781-436l719 436 1-872z" horiz-adv-x="1000" />

<glyph glyph-name="control-rewind" unicode="&#xe070;" d="M561 657l-494-307 494-307v242l375-242v614l-375-241v249-8z m-3 62c10 0 22-2 32-8 19-11 33-32 33-54v-129l291 182c10 6 21 9 33 9 10 0 15-2 24-8 20-11 27-32 27-54v-614c0-22-7-43-27-54-9-6-17-8-28-8-11 0-20 3-30 9l-290 182v-129c0-22-14-43-33-54-10-6-21-8-31-8-12 0-24 3-34 9l-493 307c-19 11-30 31-30 53s11 42 30 53l493 307c10 6 21 9 33 9z" horiz-adv-x="1000" />

<glyph glyph-name="control-play" unicode="&#xe071;" d="M141 786l719-436-720-436z m0 63c-10 0-21-3-30-8-20-11-32-32-32-55l-1-872c0-23 12-44 32-55 9-5 20-8 30-8 12 0 23 3 33 10l720 436c18 11 29 31 29 53s-11 42-29 53l-719 436c-10 7-21 10-33 10v0z" horiz-adv-x="1000" />

<glyph glyph-name="control-pause" unicode="&#xe072;" d="M407 850h-219c-18 0-32-14-32-31v-938c0-17 14-31 32-31h219c17 0 31 14 31 31v938c0 17-14 31-31 31z m-32-938h-156v876h156v-876z m437 938h-217c-18 0-32-14-32-31v-938c0-17 14-31 32-31h217c18 0 32 14 32 31v938c0 17-14 31-32 31z m-31-938h-155v876h155v-876z" horiz-adv-x="1000" />

<glyph glyph-name="control-forward" unicode="&#xe073;" d="M440 657l493-307-493-307v242l-375-242v614l375-241v249z m2 62c-10 0-22-2-31-8-20-11-34-32-34-54v-129l-291 182c-10 6-21 9-32 9-11 0-16-2-25-8-20-11-27-32-27-54v-614c0-22 7-43 27-54 9-6 17-8 28-8 11 0 20 3 30 9l290 182v-129c0-22 14-43 34-54 9-6 20-8 31-8 11 0 23 3 33 9l493 307c19 11 30 31 30 53s-11 42-29 53l-494 307c-10 6-21 9-33 9v0z" horiz-adv-x="1000" />

<glyph glyph-name="control-end" unicode="&#xe074;" d="M922 850c-17 0-31-14-31-31v-459c-3 18-14 33-29 43l-719 436c-10 7-21 10-33 10-10 0-20-3-30-8-20-11-32-32-32-55l-1-872c0-23 12-44 32-55 10-5 20-8 30-8 12 0 23 3 33 10l720 436c15 10 26 26 29 43v-459c0-17 14-31 31-31s31 14 31 31v938c0 17-14 31-31 31z m-813-936l1 872 719-436z" horiz-adv-x="1000" />

<glyph glyph-name="calender" unicode="&#xe075;" d="M938 756l-251 0v63c0 17-14 31-31 31s-31-14-31-31v-63h-250v63c0 17-14 31-31 31s-32-14-32-31v-63h-249c-35 0-63-28-63-62v-781c0-35 28-63 63-63h875c34 0 62 28 62 63v781c0 34-28 62-62 62z m0-843l-875 0v781h249v-32c0-17 14-31 32-31s31 14 31 31v32h250v-32c0-17 14-31 31-31s31 14 31 31v32h251v-781 0z m-219 437h62c18 0 32 14 32 31v63c0 17-14 31-32 31h-62c-17 0-31-14-31-31v-63c0-17 14-31 31-31z m0-250h62c18 0 32 14 32 31v63c0 17-14 31-32 31h-62c-17 0-31-14-31-31v-63c0-17 14-31 31-31z m-188 125h-62c-17 0-31-14-31-31v-63c0-17 14-31 31-31h62c18 0 32 14 32 31v63c0 17-14 31-32 31z m0 250h-62c-17 0-31-14-31-31v-63c0-17 14-31 31-31h62c18 0 32 14 32 31v63c0 17-14 31-32 31z m-250 0h-62c-17 0-31-14-31-31v-63c0-17 14-31 31-31h62c18 0 32 14 32 31v63c0 17-14 31-32 31z m0-250h-62c-17 0-31-14-31-31v-63c0-17 14-31 31-31h62c18 0 32 14 32 31v63c0 17-14 31-32 31z" horiz-adv-x="1000" />

<glyph glyph-name="bulb" unicode="&#xe076;" d="M500 850c-193 0-345-157-345-351 0-145 72-215 128-265 37-33 61-53 61-77v-53c0-1 0-3 1-4h-1v-90c0-96 62-160 157-160 92 0 155 64 155 160v90h-1c1 1 1 3 1 4v53c0 37 27 59 69 95 56 50 120 111 120 247 0 194-152 351-345 351z m-1-938c-59 0-93 37-93 98l0 41c22-7 53-13 94-13 41 0 71 6 94 14v-42c0-62-35-98-95-98z m185 388c-43-38-91-76-91-143v-39c-14-9-42-19-93-19-55 0-80 10-93 18v40c0 53-42 87-82 123-53 48-107 102-107 219 0 159 123 289 282 289 159 0 282-130 282-289 0-108-47-155-98-199z" horiz-adv-x="1000" />

<glyph glyph-name="chart" unicode="&#xe077;" d="M266 538h-219c-17 0-31-14-31-32v-625c0-17 14-31 31-31h219c17 0 31 14 31 31v625c0 18-14 32-31 32z m-32-626h-156v563h156v-563z m375 440h-219c-17 0-31-14-31-31v-440c0-17 14-31 31-31h219c17 0 31 14 31 31v440c0 17-14 31-31 31z m-31-440h-156v377h156v-377z m375 938h-218c-18 0-32-14-32-31v-938c0-17 14-31 32-31h218c17 0 31 14 31 31v938c0 17-14 31-31 31z m-31-938h-156v876h156v-876z" horiz-adv-x="1000" />

<glyph glyph-name="arrow-up-circle" unicode="&#xe078;" d="M1000 350c0 276-224 500-500 500-276 0-500-224-500-500 0-276 224-500 500-500 276 0 500 224 500 500z m-938 0c0 241 197 438 438 438 241 0 438-197 438-438s-197-438-438-438-438 197-438 438z m470-219v352l113-113c12-12 32-12 44 0s12 32 0 44l-190 185-189-185c-6-6-9-14-9-22s3-16 9-22c12-12 32-12 44 0l115 115v-354c0-17 14-31 31-31 18 0 32 14 32 31z" horiz-adv-x="1000" />

<glyph glyph-name="arrow-right-circle" unicode="&#xe079;" d="M500 850c-276 0-500-224-500-500 0-276 224-500 500-500 276 0 500 224 500 500 0 276-224 500-500 500z m0-939c-241 0-437 198-437 439 0 241 196 438 437 438s438-197 438-438-197-439-438-439z m20 628c-12-12-12-32 0-44l113-113h-352c-17 0-31-14-31-32s14-31 31-31h354l-115-115c-12-12-12-32 0-44 6-6 14-9 22-9s16 3 22 9l185 189-185 190c-12 12-32 12-44 0z" horiz-adv-x="1000" />

<glyph glyph-name="arrow-left-circle" unicode="&#xe07a;" d="M500 850c-276 0-500-224-500-500 0-276 224-500 500-500 276 0 500 224 500 500 0 276-224 500-500 500z m0-939c-241 0-437 198-437 439 0 241 196 438 437 438s438-197 438-438-197-439-438-439z m219 471h-352l113 113c12 12 12 32 0 44s-32 12-44 0l-185-190 185-189c6-6 14-9 22-9s16 3 22 9c12 12 12 32 0 44l-115 115h354c17 0 31 14 31 31s-14 32-31 32z" horiz-adv-x="1000" />

<glyph glyph-name="arrow-down-circle" unicode="&#xe07b;" d="M0 350c0-276 224-500 500-500 276 0 500 224 500 500 0 276-224 500-500 500-276 0-500-224-500-500z m939 0c0-241-198-438-439-438s-437 197-437 438 196 438 437 438 439-197 439-438z m-471 219v-352l-113 113c-12 12-32 12-44 0s-12-32 0-44l190-185 189 185c6 6 9 14 9 22s-3 16-9 22c-12 12-32 12-44 0l-115-115v354c0 17-14 31-31 31s-32-14-32-31z" horiz-adv-x="1000" />

<glyph glyph-name="ban" unicode="&#xe07c;" d="M500 850c-276 0-500-224-500-500 0-276 224-500 500-500 276 0 500 224 500 500 0 276-224 500-500 500z m-437-500c0 110 40 210 107 287l617-617c-77-68-177-109-287-109-241 0-437 198-437 439v0z m768-286l-617 617c77 66 177 107 286 107 241 0 438-197 438-438 0-109-41-209-107-286z" horiz-adv-x="1000" />

<glyph glyph-name="bubble" unicode="&#xe07d;" d="M500 725c241 0 438-140 438-312 0-173-197-313-438-313l-26 0c-17 0-28 0-46 3l-35 5-22-27c-11-13-63-56-121-84 11 31 20 66 21 99l0 2v44l-34 17c-111 57-174 149-174 254 0 172 196 312 437 312z m0 63c-276 0-500-168-500-375 0-129 76-242 209-309 0-1-1-2-1-3 0-56-31-117-49-149h0c-2-4-3-7-3-11 0-16 13-29 29-29 2 0 6 1 7 1 0 0 1 0 1 0 97 16 205 102 226 128 22-3 37-4 55-4 8 0 16 1 26 1 276 0 500 167 500 375 0 207-224 375-500 375z" horiz-adv-x="1000" />

<glyph glyph-name="camrecorder" unicode="&#xe07e;" d="M623 632c1 0 2-1 2-2v-125c0-23 13-45 34-55 9-5 19-8 29-8 12 0 26 4 37 11l213 120v-445l-214 116c-11 8-23 12-36 12-10 0-20-3-29-7-21-11-33-32-34-56l0-123c0-1-1-2-2-2h-558c-1 0-2 1-2 2l0 560c0 1 1 2 2 2h558z m344 31c-6 0-20-2-27-9l-252-149v125c0 35-29 64-65 64h-558c-36 0-65-29-65-64l0-560c0-35 29-64 65-64h558c36 0 65 29 65 64l0 123 257-150c7-7 16-6 22-6 7 0 12 2 13 2 12 5 20 17 20 30v562c0 13-8 25-20 30-1 0-6 2-13 2z" horiz-adv-x="1000" />

<glyph glyph-name="camera" unicode="&#xe07f;" d="M906 631h-143l-75 125h-375l-75-125h-144c-31 0-94-31-94-92v-501c0-52 47-94 87-94h821c41 0 92 44 92 93v501c0 31-31 93-94 93z m32-594c0-13-20-30-30-31h-821c-7 1-24 15-24 32v501c0 19 26 29 31 30h179l75 125h306l56-95 17-30h179c22 0 31-29 32-31v-501 0z m-438 501c-121 0-219-98-219-219s98-219 219-219 219 98 219 219-98 219-219 219z m0-375c-86 0-156 70-156 156s70 156 156 156 156-70 156-156-70-156-156-156z" horiz-adv-x="1000" />

<glyph glyph-name="check" unicode="&#xe080;" d="M500 850c-276 0-500-224-500-500 0-276 224-500 500-500 276 0 500 224 500 500 0 276-224 500-500 500z m0-939c-241 0-437 198-437 439 0 241 196 438 437 438s438-197 438-438-197-439-438-439z m200 622l-294-295-132 132c-12 12-32 12-44 0-12-12-12-32 0-44l155-155c12-12 32-12 44 0 1 1 2 3 4 5l311 313c12 12 12 32 0 44-12 12-32 12-44 0z" horiz-adv-x="1000" />

<glyph glyph-name="clock" unicode="&#xe081;" d="M500 850c-276 0-500-224-500-500 0-276 224-500 500-500 276 0 500 224 500 500 0 276-224 500-500 500z m0-939c-241 0-437 198-437 439 0 241 196 438 437 438s438-197 438-438-197-439-438-439z m31 452v300c0 17-14 31-31 31s-31-14-31-31v-313c0-9 4-17 9-22 1-1 1-2 2-2l155-155c12-12 32-12 44 0 12 12 12 32 0 44z" horiz-adv-x="1000" />

<glyph glyph-name="close" unicode="&#xe082;" d="M500 850c-276 0-500-224-500-500 0-276 224-500 500-500 276 0 500 224 500 500 0 276-224 500-500 500z m0-939c-241 0-437 198-437 439 0 241 196 438 437 438s438-197 438-438-197-439-438-439z m177 616c-12 12-32 12-44 0l-133-133-133 133c-12 12-32 12-44 0-12-12-12-32 0-44l133-133-133-133c-12-12-12-32 0-44 12-12 32-12 44 0l133 133 133-133c12-12 32-12 44 0 12 12 12 32 0 44l-133 133 133 133c12 12 12 32 0 44z" horiz-adv-x="1000" />

<glyph glyph-name="cloud-download" unicode="&#xe083;" d="M745 596c-43 116-137 189-279 189-180 0-306-134-316-308-87-28-150-116-150-217 0-123 97-226 211-226h28c17 0 31 14 31 31s-14 31-31 31h-28c-81 0-149 75-149 164 0 79 55 150 124 162l28 5-2 28-1 1c0 152 101 267 255 267 125 0 194-62 227-166l6-21 23-1c116-2 218-97 218-214 0-106-71-225-178-225h-9c-17 0-31-14-31-31s14-31 31-31v0c157 4 247 153 247 287 0 145-113 260-255 275z m-114-503c-8 9-23 9-31 0l-69-76v315c0 17-14 31-31 31s-32-14-32-31v-315l-66 74c-9 9-23 11-32 2l-8-5c-8-9-8-23 0-33l113-124c0-1 0-1 1-1l7-8c5-5 11-7 16-7 6 0 12 2 16 7l8 8c0 0 0 0 0 1l116 126c9 9 9 20 0 29z" horiz-adv-x="1000" />

<glyph glyph-name="cloud-upload" unicode="&#xe084;" d="M745 596c-43 116-137 189-279 189-180 0-306-134-316-308-87-28-150-116-150-217 0-122 97-226 211-226h90c17 0 31 14 31 31 0 17-14 31-31 31h-90c-81 0-149 75-149 164 0 79 55 150 124 162l28 5-2 28-1 1c0 152 101 267 255 267 125 0 194-62 227-166l6-21 23-1c116-2 218-97 218-214 0-106-71-225-178-225h-71c-17 0-31-14-31-31 0-17 14-31 31-31l71 0c156 4 238 153 238 287 0 145-113 260-255 275z m-222-249c0 0 0 1 0 1l-8 8c-4 5-10 7-16 7-5 0-11-2-16-7l-7-8c-1 0-1-1-1-1l-113-125c-8-9-8-23 0-33l8-5c9-9 23-6 32 3l66 74v-315c0-17 14-31 32-31 17 0 31 14 31 31v315l69-76c8-9 23-12 31-3l8 5c9 10 9 24 0 33z" horiz-adv-x="1000" />

<glyph glyph-name="doc" unicode="&#xe085;" d="M547 850h-344c-34 0-62-28-62-62v-876c0-34 28-62 62-62h594c34 0 62 28 62 62v626z m250-338v-6h-281v282h5z m-594-600v876h250v-344h344v-532h-594z" horiz-adv-x="1000" />

<glyph glyph-name="envolope" unicode="&#xe086;" d="M1000 623c0 6 0 13-3 18-8 35-33 53-75 53h-813c-37 0-77-14-97-41-1-1-3-2-4-4-7-7-9-17-7-26-1-2-1-5-1-7v-500c0-52 58-110 109-110h813c52 0 78 58 78 110v500c0 2 0 5 0 7z m-891 8l813 0h0l-422-336-421 335c10 2 22 1 30 1z m813-562h-813c-17 0-46 29-46 47v447l417-333c5-5 13-8 20-8 7 0 15 3 21 8l417 333v-447c0-18 1-47-16-47z" horiz-adv-x="1000" />

<glyph glyph-name="eye" unicode="&#xe087;" d="M503 536c-103 0-187-84-187-187 0-104 84-188 187-188s188 84 188 188-84 187-188 187z m0-312c-68 0-126 57-126 126 0 69 56 125 125 125 69 0 125-56 125-125s-55-126-124-126z m497 133c-1 2 0 4-1 5 0 1-1 1-1 2 0 1 0 2 0 3-91 208-287 327-496 327s-409-119-500-327c0-1 0-2 0-3 0-1-1-1-1-2-1-1 0-3-1-4 0-3-1-6-1-9 0-3 1-5 1-8 1-2 0-3 1-5 0-1 1-1 1-2 0 0 0-2 0-2 91-208 289-326 498-326 209 0 407 117 498 325 0 1 0 2 0 3 0 1 1 1 1 2 1 1 0 3 1 5 0 2 1 5 1 8 0 3-1 5-1 8z m-500-289c-177 0-351 94-437 281 85 187 262 283 439 283 177 0 350-96 435-283-85-187-259-281-437-281z" horiz-adv-x="1000" />

<glyph glyph-name="flag" unicode="&#xe088;" d="M664 757c-156 0-198 94-396 94-127 0-205-97-205-97v-873c0-18 14-32 31-32s31 14 31 32v398c33 21 79 40 135 40 198 0 256-93 412-93s266 93 266 93v532s-118-94-274-94z m211-406c-35-23-110-63-203-63-62 0-103 17-157 38-64 26-138 56-255 56-53 0-98-13-135-31v378c24 21 75 59 143 59 92 0 144-22 199-46 54-23 111-48 197-48 83 0 156 23 211 48v-391z" horiz-adv-x="1000" />

<glyph glyph-name="folder" unicode="&#xe089;" d="M346 678l77-75 20-19h495v-562h-875v656h281 2z m29 63h-312c-35 0-63-28-63-63v-656c0-35 28-63 63-63h875c34 0 62 28 62 63v562c0 35-28 63-62 63h-469z" horiz-adv-x="1000" />

<glyph glyph-name="heart" unicode="&#xe08a;" d="M281 739c31 0 86-15 176-104l45-43 44 44c62 64 128 103 173 103 60 0 107-21 153-67 44-43 68-101 68-162 0-61-24-119-68-163-4-3-193-207-351-378-7-7-16-8-20-8-5 0-13 1-21 8-38 43-318 354-350 386-44 43-67 101-67 162 0 62 23 119 67 163 42 42 92 59 151 59z m0 62c-74 0-140-22-195-77-115-114-115-299 0-413 32-33 349-385 349-385 18-18 42-27 66-27 23 0 47 9 65 27 0 0 347 374 350 378 115 114 115 299 0 413-57 56-120 84-197 84-74 0-156-59-218-121-63 62-143 121-220 121v0z" horiz-adv-x="1000" />

<glyph glyph-name="info" unicode="&#xe08b;" d="M563 131l-32 0v280c0 0 0 0 0 1s0 0 0 1c0 17-14 31-31 31h-62c-18 0-32-14-32-31s14-32 32-32h31v-250h-31c-18 0-32-14-32-31s14-31 32-31h125c17 0 31 14 31 31s-14 31-31 31z m-63 375c35 0 63 28 63 63s-28 62-63 62-62-28-62-62 28-63 62-63z m0 344c-276 0-500-224-500-500 0-276 224-500 500-500 276 0 500 224 500 500 0 276-224 500-500 500z m0-939c-241 0-437 198-437 439 0 241 196 438 437 438s438-197 438-438-197-439-438-439z" horiz-adv-x="1000" />

<glyph glyph-name="key" unicode="&#xe08c;" d="M640 850c-155 0-281-126-281-282 0-69 26-133 67-182-8 0-17-3-24-9l-314-317c-13-12-13-32 0-44 0 0 0-1 0-1 0 0 0 0 1 0l153-156c12-13 32-13 44 0s12 32 0 44l-132 135 80 81 133-135c12-13 32-13 44 0s12 32 0 44l-133 135 169 170c6 6 9 15 9 23 49-43 114-69 184-69 156 0 282 126 282 281 0 156-126 282-282 282z m0-500c-120 0-218 98-218 219 0 121 98 219 218 219s219-98 219-219c0-121-98-219-219-219z" horiz-adv-x="1000" />

<glyph glyph-name="link" unicode="&#xe08d;" d="M289 135c6-6 14-9 22-9s16 3 22 9l379 381c12 13 12 32 0 44s-32 13-45 0l-378-381c-12-12-12-32 0-44z m176 66c10-45-1-90-36-125l-126-123c-27-26-62-41-100-41s-73 15-99 41c-55 55-55 145-1 199l124 127c26 27 62 42 99 42 13 0 25-3 37-6l49 49c-27 12-56 19-86 19-52 0-104-20-144-59l-123-127c-79-80-79-208 0-288 40-39 92-59 144-59s104 20 144 59l126 122c60 61 73 146 41 220z m476 590c-40 39-92 59-144 59-52 0-104-20-144-59l-126-122c-62-63-75-157-38-233l48 49c-14 48-3 102 34 139l127 123c26 26 61 41 99 41 38 0 73-15 99-41 55-55 55-145 1-199l-126-126c-27-27-62-41-100-41-9 0-18-1-27 0l-50-49c25-11 51-14 77-14 52 0 104 20 144 60l126 125c79 80 79 208 0 288z" horiz-adv-x="1000" />

<glyph glyph-name="lock" unicode="&#xe08e;" d="M781 475h-31v119c0 144-104 256-251 256-148 0-249-115-249-256v-119h-31c-69 0-125-56-125-125v-375c0-69 56-125 125-125h562c69 0 125 56 125 125v375c0 69-56 125-125 125z m-468 119c0 107 72 194 186 194 112 0 189-85 189-194v-119h-375v119z m531-619c0-35-28-63-63-63h-562c-35 0-63 28-63 63v375c0 35 28 63 63 63h562c35 0 63-28 63-63v-375z m-344 313c-34 0-62-28-62-63 0-23 12-43 31-54v-102c0-17 14-31 31-31 17 0 31 14 31 31v102c19 11 32 31 32 54 0 35-28 63-63 63z" horiz-adv-x="1000" />

<glyph glyph-name="lock-open" unicode="&#xe08f;" d="M781 474l-446 0-16 73c-28 102 20 205 130 234 108 29 204-33 232-137l13-53c5-17 22-27 39-22 16 4 26 21 22 38l-14 53c-37 138-166 220-308 182-143-39-211-175-174-312l12-56h-52c-69 0-125-56-125-125v-375c0-69 56-125 125-125h562c69 0 125 56 125 125v375c0 69-56 125-125 125z m63-500c0-35-28-63-63-63h-562c-35 0-63 28-63 63v375c0 34 28 62 63 62h562c35 0 63-28 63-62v-375z m-344 312c-34 0-62-28-62-62 0-23 12-43 31-54v-102c0-18 14-32 31-32 17 0 31 14 31 32v102c19 11 32 31 32 54 0 34-28 62-63 62z" horiz-adv-x="1000" />

<glyph glyph-name="magnifier" unicode="&#xe090;" d="M991-96l-304 305c57 68 91 155 91 250 0 216-175 391-391 391s-390-175-390-391 175-390 390-390c98 0 188 36 256 96l304-306c12-12 32-12 44 0 12 13 12 32 0 45z m-604 227c-181 0-328 147-328 328s147 329 328 329c182 0 329-147 329-329s-147-328-329-328z" horiz-adv-x="1000" />

<glyph glyph-name="magnifier-add" unicode="&#xe091;" d="M991-96l-277 278c60 71 95 162 95 261 0 225-181 407-406 407s-406-182-406-407 182-407 406-407c103 0 196 39 268 101l276-278c12-12 32-12 44 0 12 13 12 32 0 45z m-588 196c-189 0-344 155-344 344s155 344 344 344c189 0 344-155 344-344s-155-344-344-344z m156 375h-125v125c0 17-14 31-31 31s-31-14-31-31v-125h-125c-18 0-32-14-32-31s14-31 32-31h125v-125c0-18 14-32 31-32s31 14 31 32v125h125c17 0 31 14 31 31s-14 31-31 31z" horiz-adv-x="1000" />

<glyph glyph-name="magnifier-remove" unicode="&#xe092;" d="M991-96l-277 278c60 71 95 162 95 261 0 225-181 407-406 407s-406-182-406-407 182-407 406-407c103 0 196 39 268 101l276-278c12-12 32-12 44 0 12 13 12 32 0 45z m-588 196c-189 0-344 155-344 344s155 344 344 344c189 0 344-155 344-344s-155-344-344-344z m156 375h-312c-18 0-32-14-32-31s14-31 32-31h312c17 0 31 14 31 31s-14 31-31 31z" horiz-adv-x="1000" />

<glyph glyph-name="paper-clip" unicode="&#xe093;" d="M169-134c-43 0-83 17-116 50-72 72-72 190 0 262l561 595c87 88 222 80 319-18 44-44 69-107 68-174-1-66-27-129-71-173l-424-451c-11-13-31-13-44-1-12 12-13 31-1 44l424 452c34 33 53 80 53 130 1 50-17 97-49 129-60 60-158 91-230 19l-561-596c-48-48-48-126-1-174 23-22 49-33 77-31 28 1 57 16 81 40l446 475c17 16 49 56 16 89-19 19-32 18-36 17-13-1-27-9-42-24l-336-357c-12-13-32-14-44-2-13 12-13 32-1 44l336 358c27 27 54 41 81 44 22 2 54-3 86-36 49-48 43-119-15-177l-446-475c-36-35-79-56-122-59-3 0-6 0-9 0z" horiz-adv-x="1000" />

<glyph glyph-name="paper-plane" unicode="&#xe094;" d="M981 850c-6 0-14-2-22-5l-932-396c-34-14-36-41-5-61l263-164c31-19 72-60 91-92l158-258c9-15 20-23 31-23 12 0 23 9 30 27l399 932c11 25 5 40-13 40z m-663-570l-214 133 717 304-461-469c-14 12-29 24-42 32z m241-324l-127 209c-8 12-17 25-29 38l464 471z" horiz-adv-x="1000" />

<glyph glyph-name="plus" unicode="&#xe095;" d="M500 850c-276 0-500-224-500-500 0-276 224-500 500-500 276 0 500 224 500 500 0 276-224 500-500 500z m0-939c-241 0-437 198-437 439 0 241 196 438 437 438s438-197 438-438-197-439-438-439z m219 470h-188v188c0 17-14 31-31 31s-31-14-31-31v-188h-188c-17 0-31-14-31-31s14-31 31-31h188v-188c0-17 14-31 31-31 17 0 31 14 31 31v188h188c17 0 31 14 31 31s-14 31-31 31z" horiz-adv-x="1000" />

<glyph glyph-name="location-pin" unicode="&#xe096;" d="M504 850c-205 0-379-174-379-381 0-217 201-438 337-594 0 0 22-25 49-25h2c27 0 49 25 50 25 127 146 312 387 312 594 0 207-135 381-371 381z m12-933c-1-1-3-2-4-3-1 1-3 2-4 3l-16 19c-129 147-304 349-304 533 0 173 144 319 316 319 213 0 309-160 309-319 0-140-100-325-297-552z m-15 744c-103 0-187-84-187-187s84-188 187-188 188 84 188 188-84 187-188 187z m0-312c-69 0-126 57-126 126 0 69 56 125 125 125 69 0 125-56 125-125 0-69-55-126-124-126z" horiz-adv-x="1000" />

<glyph glyph-name="power" unicode="&#xe097;" d="M685 690c-15 7-34 0-41-15-8-16-1-34 15-42 158-74 244-246 209-418-42-204-242-336-446-294-99 21-180 78-235 162-56 85-75 185-55 284 24 118 100 214 209 266 15 7 22 26 15 41-8 16-26 23-42 15-126-60-215-172-243-309-24-115-1-233 64-331 64-98 159-165 275-189 29-6 59-9 88-9 205 0 389 144 431 352 41 200-59 400-244 487z m-185-246c17 0 31 14 31 31v344c0 17-14 31-31 31s-31-14-31-31v-344c0-17 14-31 31-31z" horiz-adv-x="1000" />

<glyph glyph-name="refresh" unicode="&#xe098;" d="M486-28c0 1 0 1-1 1l-89 140c-7 11-21 15-31 9l-8-5c-11-6-11-21-4-32l57-89c-5 1-10 2-15 3-100 27-186 95-234 187-45 88-53 187-23 281 29 94 97 171 184 216 15 8 21 26 13 41-7 15-26 20-41 13-101-53-180-142-214-251-35-110-25-226 28-328 55-107 155-187 272-218 1 0 3 0 4-1l-79-40c-11-6-15-19-8-29l3-8c6-11 17-15 28-9l145 75c1 0 1 0 1 0l10 5c5 3 9 8 10 13 1 6 1 12-2 17z m407 565c-56 107-152 187-270 218-8 2-17 4-25 5l78 40c11 6 17 19 11 29l-4 8c-6 11-20 15-31 9l-145-75c0 0 0 0 0 0l-10-5c-6-3-9-8-11-13-1-6 0-12 3-17l6-10c0 0 0 0 0 0l90-140c6-11 20-14 31-9l7 5c11 6 11 21 5 32l-58 90c13-2 25-5 38-8 101-26 183-95 231-187 45-88 53-187 24-281-30-94-95-170-182-216-15-7-21-26-13-41 5-10 16-16 27-16 4 0 9 1 14 3 102 53 177 142 211 251 35 110 25 226-27 328z" horiz-adv-x="1000" />

<glyph glyph-name="reload" unicode="&#xe099;" d="M499 850c-249 0-453-203-453-453 0-235 181-431 414-451l-90-46c-11-6-17-20-11-30l3-9c7-10 21-14 32-8l150 76c0 1 0 1 1 1l10 5c5 3 9 8 10 14 2 5 1 11-2 17l-6 10c0 0 0 0-1 0l-92 145c-7 11-21 14-32 8l-7-5c-11-6-12-21-5-32l54-85c0 0 0 0-1 0-204 14-364 185-364 390 0 215 175 391 390 391 216 0 392-176 392-391 0-124-57-238-156-312-14-11-17-30-7-44 11-14 30-17 44-6 115 86 181 218 181 362 0 250-204 453-454 453z" horiz-adv-x="1000" />

<glyph glyph-name="settings" unicode="&#xe09a;" d="M938 445l-80 18c-6 20-15 39-24 57l43 72c17 26 25 64 0 89l-44 44c-24 24-65 20-90 3l-71-45c-18 9-37 17-57 24l-18 81c-5 30-31 62-66 62h-62c-35 0-56-33-63-62l-20-81c-21-6-41-15-61-25l-72 46c-25 17-66 21-90-3l-44-44c-25-25-17-63 0-89l45-76c-8-17-16-35-22-53l-80-18c-30-6-62-32-62-66v-63c0-34 33-55 63-62l81-20c5-18 12-34 20-50l-45-76c-17-26-25-64 0-89l44-44c24-25 65-20 90-3l73 46c19-10 39-19 61-26l20-80c7-29 28-62 62-62h63c34 0 60 32 66 62l18 81c19 7 38 15 56 24l71-45c25-17 66-22 90 3l44 44c25 25 17 63 0 89l-43 72c9 17 16 35 22 54l82 20c29 7 62 28 62 62v63c0 34-32 60-62 66z m0-124c-3-2-8-5-14-6l-116-29-11-33c-5-15-11-30-19-45l-15-31 61-102c4-6 6-11 6-15l-41-41c-4 1-8 3-11 5l-103 65-32-16c-15-8-31-15-46-20l-35-11-25-117c-1-6-5-11-7-13h-56c-2 3-5 8-6 14l-29 116-33 10c-18 6-35 13-51 22l-32 16-103-65c-5-3-9-5-13-5l-41 40c0 4 2 9 6 14l63 107-15 30c-7 15-12 28-17 42l-11 33-114 28c-8 2-13 5-15 7v58c0 0 0 0 0 0 1 0 6 3 10 4l118 26 11 35c4 14 10 28 18 44l15 31-63 105c-4 7-6 12-6 16l41 41c4-2 8-3 11-5l104-66 33 16c16 9 33 16 50 22l33 10 29 114c2 8 4 13 6 16h58c0-1 4-7 5-11l26-119 34-11c16-5 32-11 48-20l32-16 100 64c5 3 9 4 13 4l41-39c0-4-2-9-6-14l-61-103 15-31c9-17 15-33 20-48l11-35 116-25c6-2 12-6 13-8z m-438 217c-103 0-188-84-188-188 0-103 85-188 188-188s189 85 189 188c0 104-85 188-189 188z m0-313c-69 0-125 56-125 125 0 69 56 125 125 125 69 0 125-56 125-125 0-69-56-125-125-125z" horiz-adv-x="1000" />

<glyph glyph-name="star" unicode="&#xe09b;" d="M500 774l134-278 306-45-222-221 8-44 44-264-270 145-270-145 44 264 8 44-221 221 305 45 20 42z m0 61c-28 0-53-16-65-41l-114-235-260-38c-27-4-49-23-58-48-8-25-2-52 17-71l191-191-44-264c-5-27 7-53 29-69 13-9 27-13 42-13 12 0 24 3 35 9l227 122 227-122c11-6 23-9 35-9 15 0 29 4 42 13 22 16 34 42 29 69l-44 264 191 191c19 19 25 46 17 71-9 25-31 44-58 48l-260 38-114 235c-11 25-37 41-65 41z" horiz-adv-x="1000" />

<glyph glyph-name="symble-female" unicode="&#xe09c;" d="M609 850c-216 0-390-175-390-390 0-97 34-185 92-253l-124-125-132 134c-13 12-32 12-45 0s-12-32 0-45l133-133-134-134c-12-12-12-32 0-44 13-13 32-13 45 0l133 133 133-134c12-12 32-12 44 0s12 32 0 44l-133 135 124 125c68-59 157-94 254-94 216 0 391 175 391 391 0 215-175 390-391 390z m0-719c-181 0-329 147-329 329s148 328 329 328 329-147 329-328c0-182-147-329-329-329z" horiz-adv-x="1000" />

<glyph glyph-name="symbol-male" unicode="&#xe09d;" d="M999 828c1 6-1 12-5 16-4 4-10 7-16 6l-12 0c0 0 0 0 0 0l-287 1c-12 0-23-11-23-23l0-16c2-15 13-24 26-24l210 0-250-249c-68 57-155 91-251 91-215 0-390-174-390-390 0-216 175-391 390-391 216 0 391 175 391 391 0 98-36 187-95 255l250 250 0-214c-1-13 9-24 22-24l16 0c13 1 23 8 23 21l1 288c0 0-1 0-1 0z m-279-588c0-182-147-329-329-329-181 0-328 147-328 329 0 181 147 328 328 328 182 0 329-147 329-328z" horiz-adv-x="1000" />

<glyph glyph-name="target" unicode="&#xe09e;" d="M969 381h-95c-15 182-161 327-343 343v95c0 17-14 31-31 31s-31-14-31-31v-95c-182-16-328-161-343-343h-95c-17 0-31-14-31-31s14-31 31-31h95c15-182 161-327 343-343v-95c0-17 14-31 31-31 17 0 31 14 31 31v95c182 16 328 161 343 343h95c17 0 31 14 31 31s-14 31-31 31z m-500 280v-280h-280c15 148 132 265 280 280z m-280-342h280v-280c-148 15-265 132-280 280z m342-280v280h280c-15-148-132-265-280-280z m0 342v280c148-15 265-132 280-280z" horiz-adv-x="1000" />

<glyph glyph-name="volume-1" unicode="&#xe09f;" d="M639 786c-10 5-22 5-32-2l-313-246-104 0c-54 0-97-38-97-85l2-206c0-46 43-84 96-84l104 0 312-247c6-4 12-5 18-5 5 0 10 1 14 3 11 6 17 16 17 28v816c0 12-6 22-17 28z m-45-785l-272 219c-5 4-11 5-17 5l-114 0c-20 0-34 12-34 22l-1 207c0 10 14 21 34 21l113 0c7 0 13 2 18 6l273 218v-698z m177 510c-17 2-33-9-36-26-2-17 9-33 26-36 49-8 84-51 84-104 0-51-36-95-85-105-17-3-28-19-24-36 2-15 16-25 30-25 2 0 4 0 6 0 78 16 135 85 135 166 0 83-57 152-136 166z" horiz-adv-x="1000" />

<glyph glyph-name="volume-2" unicode="&#xe0a0;" d="M561 786c-10 5-22 5-32-2l-314-246-104 0c-53 0-96-38-96-85l1-206c0-46 44-84 97-84l104 0 312-247c5-4 11-5 17-5 5 0 10 1 15 3 10 6 17 16 17 28v816c0 12-7 22-17 28z m-46-785l-271 219c-5 4-11 5-17 5l-114 0c-20 0-34 12-34 22l-2 207c0 10 14 21 34 21l114 0c6 0 12 2 17 6l273 218v-698z m314 344c0 83-57 152-136 166-17 2-33-9-36-26-3-17 9-33 26-36 49-8 83-51 83-104 0-51-35-95-84-105-17-3-28-19-25-36 3-15 16-25 31-25 2 0 4 0 6 0 78 16 135 85 135 166z m-42 286c-16 6-34-2-40-18-6-16 2-34 18-40 95-35 158-127 158-228 0-102-63-194-158-229-16-6-24-24-18-40 5-13 17-20 29-20 4 0 8 0 11 2 119 44 198 159 198 287s-79 242-198 286z" horiz-adv-x="1000" />

<glyph glyph-name="volume-off" unicode="&#xe0a1;" d="M562 786c-10 5-22 5-32-2l-314-246-104 0c-53 0-96-38-96-85l1-206c0-46 44-84 97-84l104 0 312-247c5-4 11-5 17-5 5 0 10 1 15 3 10 6 17 16 17 28v816c0 12-7 22-17 28z m-46-785l-271 219c-5 4-11 5-17 5l-114 0c-20 0-34 12-34 22l-2 207c0 10 14 21 34 21l114 0c6 0 12 2 17 6l273 218v-698z m357 349l102 103c12 12 12 32 0 44-12 12-32 12-44 0l-102-103-102 103c-12 12-32 12-44 0s-12-32 0-44l102-103-101-103c-12-12-12-32 0-44s32-12 44 0l101 102 101-102c12-12 32-12 44 0s12 32 0 44z" horiz-adv-x="1000" />

<glyph glyph-name="phone" unicode="&#xe600;" d="M256 814c37-50 80-116 131-195 12-21 10-47-6-78-6-12-22-41-47-87 27-39 70-87 126-143s105-99 142-127c46 26 75 43 87 49 17 9 33 13 48 13 11 0 21-2 30-7 58-36 123-79 197-131 13-10 21-24 23-41 2-18-3-37-16-57-6-9-16-22-30-39-14-17-35-39-63-64s-50-39-68-39h-2c-133 5-298 105-492 300-195 195-295 359-300 493 0 17 13 40 39 69 25 28 47 49 63 61 16 13 30 23 41 31 14 10 30 15 48 15 21 0 38-8 49-23z m-62-40c-27-19-52-40-75-63-23-24-37-41-41-52 5-118 99-267 281-449 182-181 332-275 449-282 10 4 27 18 50 42s45 49 64 76c3 5 5 9 3 13-75 53-138 95-189 127-5 0-11-2-19-6-11-6-39-22-85-47l-32-19-32 21c-42 29-92 74-152 134-59 59-103 110-132 152l-23 30 19 34c25 45 41 74 47 85 4 8 6 14 6 19-45 72-86 135-124 189h-2c-5 0-10-1-13-4z" horiz-adv-x="1000" />

<glyph glyph-name="menu" unicode="&#xe601;" d="M26 661c-8 8-11 18-11 30s3 23 11 31 19 12 31 12h891c12 0 22-4 30-12s12-18 12-31-4-22-12-30-18-12-30-12h-891c-12 0-23 4-31 12z m952-279c8-8 12-18 12-30s-4-22-12-30-18-12-30-12h-891c-12 0-23 4-31 12s-11 18-11 30 3 22 11 30 19 12 31 12h891c12 0 22-4 30-12z m0-339c8-8 12-18 12-30s-4-23-12-31-18-12-30-12h-891c-12 0-23 4-31 12-8 8-11 18-11 31s3 22 11 30 19 12 31 12h891c12 0 22-4 30-12z" horiz-adv-x="1000" />

<glyph glyph-name="options-vertical" unicode="&#xe602;" d="M380-25v26c0 2 1 4 2 6 8 56 55 100 109 104 61 4 113-30 130-87 2-7 3-15 5-23v-26c0-2-1-4-2-6-8-51-45-91-96-102-4 0-8-2-12-3h-26c-2 1-4 2-5 2-51 8-90 44-102 95-1 5-2 9-3 14z m246 750l0-26c0-2-1-4-2-6-8-57-55-101-110-104-61-4-112 31-129 88-2 7-4 15-5 22v26c0 2 1 4 2 6 9 50 39 83 88 99 6 2 13 4 20 5h26c2 0 4-1 6-1 51-9 89-45 101-95 1-5 2-9 3-14z m0-362v-26c0-2-1-4-2-6-9-57-57-102-112-104-61-3-113 34-128 92-2 6-3 12-4 18v26c0 2 1 4 2 7 8 56 57 101 112 103 61 3 113-34 128-91 1-7 3-13 4-19z" horiz-adv-x="1000" />

<glyph glyph-name="options" unicode="&#xe603;" d="M878 227h-26c-2 0-4 1-6 2-56 8-100 55-104 109-4 61 30 113 87 130 7 2 15 3 23 5h26c2 0 4-1 6-1 51-9 90-46 102-97 0-4 2-8 3-11v-27c-1-2-2-4-2-5-8-51-45-90-95-101-5-2-9-3-14-4z m-750 246l26 0c2 0 4-1 6-1 57-9 101-56 104-111 4-61-31-112-88-129-7-2-15-3-22-5h-26c-2 0-4 1-5 2-51 9-84 39-100 88-2 6-4 13-5 20v26c0 2 1 4 1 6 9 51 45 89 95 101 5 1 9 2 14 3z m362 0h26c2 0 4-1 7-2 56-8 101-57 103-112 3-61-34-113-92-128-6-1-12-3-18-4h-26c-2 0-4 1-7 2-56 8-101 57-103 112-3 61 34 113 91 128 7 2 13 3 19 4z" horiz-adv-x="1000" />

<glyph glyph-name="arrow-down" unicode="&#xe604;" d="M8 581c0 9 3 17 10 24 13 12 34 12 47 0l441-442 435 435c13 13 34 13 47 0s12-34 0-47l-459-458c-13-13-34-13-47 0l-464 464c-7 7-10 16-10 24z" horiz-adv-x="1000" />

<glyph glyph-name="arrow-left" unicode="&#xe605;" d="M735 850c8 0 17-3 23-10 13-13 13-34 0-47l-445-446 439-439c13-13 13-34 0-47-13-13-35-13-48 0l-462 462c-13 13-13 35 0 48l469 469c6 7 15 10 24 10z" horiz-adv-x="1000" />

<glyph glyph-name="arrow-right" unicode="&#xe606;" d="M265-149c-8 0-17 3-23 10-13 13-13 34 0 47l445 446-439 439c-13 13-13 34 0 47 13 13 34 13 48 0l462-463c13-13 13-34 0-47l-469-469c-7-7-15-10-24-10z" horiz-adv-x="1000" />

<glyph glyph-name="arrow-up" unicode="&#xe607;" d="M8 116c0-8 3-17 10-23 13-13 34-13 47 0l441 441 435-435c13-13 34-13 47 0s12 34 0 47l-459 459c-13 12-34 12-47 0l-464-465c-7-7-10-15-10-24z" horiz-adv-x="1000" />

<glyph glyph-name="paypal" unicode="&#xe608;" d="M311 15h-210c-9 0-17 3-22 10s-8 15-7 24l135 734c8 41 41 67 83 67h324c130 0 218-83 218-207 0-125-86-358-294-358h-141l-57-248c-4-13-15-22-29-22z m-176 57l153 0 57 248c3 13 15 22 29 22h164c165 0 236 199 236 301 0 92-61 149-160 149h-324c-8 0-22-2-26-20z m276-222l-210 0c-9 0-17 4-22 10s-8 15-7 24l27 154c3 15 18 26 34 23 15-3 26-18 23-33l-21-120h153l55 250c3 13 14 22 28 22h165c164 0 235 199 235 301 0 66-28 112-82 136-15 6-22 23-15 37 6 15 23 22 38 16 75-33 117-100 117-189 0-125-86-358-293-358h-142l-54-250c-3-14-15-23-29-23h0z m38 597h-57c-8 0-16 3-22 10-5 7-8 15-6 24l38 210c2 14 14 24 28 24h92c35 0 62-11 80-32 19-23 25-55 19-96-14-98-66-140-172-140z m-22 57l22 0c86 0 106 31 115 92 2 17 4 38-6 50-8 9-24 11-36 11h-68l-27-153z" horiz-adv-x="1000" />

<glyph glyph-name="social-instagram" unicode="&#xe609;" d="M499 846c135 0 151-1 204-3 52-2 88-11 120-23 33-13 61-30 88-57s44-55 57-88c13-32 21-68 23-120 2-53 3-69 3-204s-1-151-3-204c-2-52-10-88-23-120-13-33-29-61-57-88s-55-44-88-57c-32-13-68-21-120-23-53-2-69-3-204-3s-151 1-204 3c-52 2-88 10-120 23-33 13-61 29-88 57s-44 55-57 88c-12 32-21 68-23 120-2 53-3 69-3 204s1 151 3 204c2 52 11 88 23 120 13 33 30 61 57 88s55 44 88 57c32 12 68 21 120 23 53 2 69 3 204 3z m0-64c-141 0-157-1-212-3-51-2-79-12-97-19-48-19-81-52-100-99-7-19-17-47-19-98-2-55-3-71-3-212s1-157 3-212c2-51 12-79 19-98 19-47 52-80 100-99 18-7 46-17 97-19 55-2 71-3 212-3s157 1 212 3c51 2 79 12 98 19 47 19 80 52 99 99 7 19 17 47 19 98 2 55 3 71 3 212s-1 157-3 212c-2 51-12 79-19 98-19 47-52 80-99 99-19 7-47 17-98 19-55 2-71 3-212 3z m0-629c109 0 198 89 198 198s-89 198-198 198-198-89-198-198 89-198 198-198z m0 452c141 0 254-113 254-254s-113-254-254-254-254 113-254 254 113 254 254 254z m324 10c0-34-27-59-60-59s-59 25-59 59 26 60 59 60 60-27 60-60z" horiz-adv-x="1000" />

<glyph glyph-name="social-linkedin" unicode="&#xe60a;" d="M974-129h-203c-14 0-26 12-26 26v327c0 112-58 112-77 112-51 0-73-40-80-58-3-7-5-21-5-40v-341c0-15-11-26-26-26h-203c-7 0-14 3-19 7s-7 12-7 19c0 6 3 554 0 610-1 7 2 14 7 19s12 8 19 8h203c15 0 26-11 26-25v-16c34 31 84 56 157 56 163 0 260-113 260-301v-351c0-14-11-26-26-26h0z m-177 52l152 0v325c0 158-76 249-208 249-89 0-132-44-159-85-3-10-13-18-25-18h-1c-9 0-18 5-23 13-3 7-4 14-2 21v55h-151c2-109 0-460 0-560h151v316c0 26 3 45 9 59 23 57 71 91 128 91 82 0 129-60 129-165v-301h0z m-556-52h-203c-14 0-26 12-26 26v612c0 14 12 26 26 26h203c15 0 26-12 26-26v-612c0-14-11-26-26-26z m-177 52h151v560h-151v-560z m76 643l-2 0c-80 0-138 56-138 132 0 76 59 132 141 132 81 0 138-54 140-132 0-76-59-132-141-132z m1 211c-53 0-89-32-89-79 0-47 35-80 86-80h2c53 0 89 32 89 80-1 48-36 79-88 79z" horiz-adv-x="1000" />

<glyph glyph-name="social-pintarest" unicode="&#xe60b;" d="M866 507c-4 182-152 314-354 314-22 0-44-2-66-5-162-23-286-139-309-289-16-108 18-236 132-266l17-4 10 14c3 5 32 48 27 84-2 18-13 29-19 35l-3 3c-18 29-26 76-18 116 18 98 100 170 203 177 8 1 15 1 22 1 108 0 180-64 185-163 5-96-24-183-75-228l-3-3c-12-10-21-19-41-22-5 0-10-1-15-1-39 0-61 26-62 52 0 28 11 60 23 93 15 41 31 84 25 128-6 46-48 81-95 81-12 0-24-2-36-7-85-32-97-144-66-234-8-35-17-70-28-107-30-112-62-228-38-364l6-30 28 12c27 11 42 37 54 57 2 4 5 8 7 12 40 63 62 138 79 210 43-32 87-43 150-36 173 19 263 205 260 370z m-469-127l1 7-2 7c-27 70-21 156 36 177 6 3 12 4 18 4 23 0 43-17 46-39 4-32-9-67-22-104-13-36-27-74-26-112 2-48 41-99 111-99 7 0 15 1 22 2 34 5 53 22 67 34l3 3c62 54 97 157 91 267-6 133-113 220-259 209-126-10-226-97-248-218-10-52 0-112 25-151 3-4 6-8 9-11 2-2 6-6 6-7 1-7-3-21-11-34-71 30-91 126-78 205 19 128 126 228 267 248 20 2 40 4 59 4 174 0 302-112 305-266 3-143-72-304-216-320-10-1-19-2-28-2-52 0-80 19-114 52l-31 31-10-43c-18-82-40-168-82-235-3-4-6-9-8-14-1-1-2-3-4-5-7 105 18 200 44 293 10 38 21 78 29 117z" horiz-adv-x="1000" />

</font>
</defs>
</svg>
