<?xml version="1.0" standalone="no"?>
<!DOCTYPE svg PUBLIC "-//W3C//DTD SVG 1.1//EN" "http://www.w3.org/Graphics/SVG/1.1/DTD/svg11.dtd" >
<svg xmlns="http://www.w3.org/2000/svg" xmlns:xlink="http://www.w3.org/1999/xlink" version="1.1">
<metadata>
Created by FontForge 20190801 at Wed Aug  3 20:38:00 2005
 By www-data
(c) 2004 Just Another Foundry. All Rights Reserved.
</metadata>
<defs>
<font id="FacitBold" horiz-adv-x="577" >
  <font-face 
    font-family="FacitBold"
    font-weight="700"
    font-stretch="normal"
    units-per-em="1000"
    panose-1="0 0 8 0 0 0 0 0 0 0"
    ascent="800"
    descent="-200"
    x-height="504"
    cap-height="690"
    bbox="-186 -324 1280 1032"
    underline-thickness="150"
    underline-position="-300"
    unicode-range="U+0020-FB03"
  />
<missing-glyph horiz-adv-x="500" 
d="M0 0v700h500v-700h-500zM250 395l170 255h-340zM280 350l170 -255v510zM80 50h340l-170 255zM50 605v-510l170 255z" />
    <glyph glyph-name="fj" unicode="fj" horiz-adv-x="641" 
d="M30 363v134h76v20q0 51 12 89.5t41.5 72t86 51t138.5 17.5q131 0 195 -49l-59 -116q-57 32 -146 32q-72 0 -92 -20.5t-20 -71.5v-25h316v-514q0 -101 -52.5 -157.5t-159.5 -56.5q-43 0 -71 9l21 136q20 -5 45 -5q37 0 49 16t12 54v384h-160v-363h-156v363h-76z" />
    <glyph glyph-name="ff" unicode="ff" horiz-adv-x="721" 
d="M390 721l-21 -128q-19 6 -45 6q-42 0 -54.5 -20t-12.5 -66v-22h163v32q0 98 49.5 159t160.5 61q89 0 136 -30l-57 -120q-28 15 -69 15t-54.5 -19.5t-13.5 -67.5v-30h115v-129h-115v-362h-152v362h-163v-362h-151v362h-76v129h76v24q0 218 207 218q41 0 77 -12z" />
    <glyph glyph-name="fi" unicode="fi" horiz-adv-x="641" 
d="M30 363v134h76v20q0 51 12 89.5t41.5 72t86 51t138.5 17.5q131 0 195 -49l-59 -116q-57 32 -146 32q-72 0 -92 -20.5t-20 -71.5v-25h316v-497h-156v363h-160v-363h-156v363h-76z" />
    <glyph glyph-name="ffi" unicode="ffi" horiz-adv-x="951" 
d="M420 0v362h-163v-362h-151v362h-76v129h76v24q0 218 205 218q43 0 79 -12l-21 -128q-19 6 -43 6q-44 0 -56.5 -19.5t-12.5 -66.5v-22h163v26q0 52 11.5 90t39.5 71.5t84.5 51t138.5 17.5q133 0 195 -49l-59 -116q-57 32 -146 32q-72 0 -92 -20.5t-20 -71.5v-31h316v-491
h-157v362h-159v-362h-152z" />
    <glyph glyph-name=".notdef" horiz-adv-x="500" 
d="M0 0v700h500v-700h-500zM250 395l170 255h-340zM280 350l170 -255v510zM80 50h340l-170 255zM50 605v-510l170 255z" />
    <glyph glyph-name=".null" horiz-adv-x="0" 
 />
    <glyph glyph-name="nonmarkingreturn" horiz-adv-x="333" 
 />
    <glyph glyph-name="space" unicode=" " horiz-adv-x="194" 
 />
    <glyph glyph-name="exclam" unicode="!" horiz-adv-x="333" 
d="M274 690l-9 -449h-151l-9 449h169zM98 82q0 40 26 66t65 26q40 0 66 -26t26 -66q0 -39 -26 -65t-66 -26q-39 0 -65 26t-26 65z" />
    <glyph glyph-name="quotedbl" unicode="&#x22;" horiz-adv-x="458" 
d="M195 436h-128l-5 254h138zM391 436h-128l-4 254h137z" />
    <glyph glyph-name="numbersign" unicode="#" 
d="M387 690h134l-25 -164h59v-123h-80l-17 -117h63v-123h-83l-25 -163h-135l26 163h-102l-25 -163h-135l26 163h-58v123h79l16 117h-63v123h84l25 164h135l-26 -164h102zM239 403l-16 -117h101l17 117h-102z" />
    <glyph glyph-name="dollar" unicode="$" 
d="M373 765l-1 -85q95 -13 147 -52l-77 -117q-58 37 -148 37q-84 0 -84 -53q0 -25 33.5 -40t81 -27t95 -30.5t81 -61t33.5 -107.5q0 -97 -77 -152q-37 -26 -85 -38l1 -94h-168l1 83q-116 13 -176 62l81 120q68 -48 169 -48q87 0 87 57q0 24 -24 40.5t-60 24.5t-78 22.5
t-78 33t-60 57t-24 92.5q0 90 70 142q38 28 93 42l-1 92h168z" />
    <glyph glyph-name="percent" unicode="%" horiz-adv-x="948" 
d="M827 671l-612 -725l-87 72l612 726zM898 196q0 -113 -47 -162q-40 -42 -113 -42t-112 41q-44 47 -44 159q0 113 45 161q38 43 115 43q73 0 111 -40q45 -49 45 -160zM789 196q0 63 -9 86t-38 23q-31 0 -40.5 -24t-9.5 -89q0 -64 9 -86.5t38 -22.5q31 0 40.5 24t9.5 89z
M365 498q0 -112 -46 -162q-39 -42 -114 -42q-72 0 -112 40q-43 46 -43 158q0 114 45 163q40 43 115 43q72 0 110 -40q45 -47 45 -160zM256 500q0 62 -8.5 84.5t-37.5 22.5q-32 0 -41.5 -24t-9.5 -90q0 -63 9 -86t38 -23q31 0 40.5 24t9.5 92z" />
    <glyph glyph-name="ampersand" unicode="&#x26;" horiz-adv-x="676" 
d="M456 364h134q0 -106 -67 -212l141 -152h-178l-48 51q-70 -64 -171 -64q-103 0 -164 51q-61 50 -61 137q0 114 100 195q-52 68 -52 139q0 86 56 137q57 54 161 54q97 0 153 -54l-84 -100q-32 27 -76 27q-62 0 -62 -58q0 -38 23.5 -72.5t90.5 -106.5l80 -87q21 49 24 115z
M268 107q48 0 87 32l-126 134q-45 -35 -45 -91q0 -75 84 -75z" />
    <glyph glyph-name="quotesingle" unicode="'" horiz-adv-x="262" 
d="M195 436h-128l-5 254h138z" />
    <glyph glyph-name="parenleft" unicode="(" horiz-adv-x="359" 
d="M226 768l90 -117q-69 -54 -87 -122t-18 -238t17.5 -239t87.5 -122l-90 -116q-100 71 -135.5 180.5t-35.5 298.5q0 188 35.5 295.5t135.5 179.5z" />
    <glyph glyph-name="parenright" unicode=")" horiz-adv-x="359" 
d="M134 -186l-90 117q69 54 87 122t18 238q0 169 -18 237.5t-87 122.5l90 116q100 -70 135.5 -179.5t35.5 -298.5q0 -188 -35.5 -295.5t-135.5 -179.5z" />
    <glyph glyph-name="asterisk" unicode="*" horiz-adv-x="513" 
d="M423 419l-91 -66l-76 112l-76 -112l-90 67l80 107l-128 40l35 107l126 -45l-3 136h112l-2 -136l126 44l34 -107l-127 -38z" />
    <glyph glyph-name="plus" unicode="+" horiz-adv-x="567" 
d="M522 204h-162v-186h-152v186h-162v135h162v186h152v-186h162v-135z" />
    <glyph glyph-name="comma" unicode="," horiz-adv-x="283" 
d="M47 86q0 40 25.5 67t69.5 27q43 0 68 -26.5t25 -71.5q0 -93 -102 -247l-99 51q43 83 54 125q-41 24 -41 75z" />
    <glyph glyph-name="hyphen" unicode="-" horiz-adv-x="319" 
d="M305 199h-291v144h291v-144z" />
    <glyph glyph-name="period" unicode="." horiz-adv-x="283" 
d="M47 85q0 41 27 68t68 27t67.5 -27t26.5 -68t-27 -68t-67 -27t-67.5 27t-27.5 68z" />
    <glyph glyph-name="slash" unicode="/" horiz-adv-x="477" 
d="M474 794l-336 -959l-141 52l336 959z" />
    <glyph glyph-name="zero" unicode="0" 
d="M540 351q0 -205 -76 -293q-64 -72 -179 -72q-120 0 -180 72q-68 80 -68 282q0 207 76 293q63 71 179 71q119 0 180 -72q68 -80 68 -281zM375 354q0 118 -17 165t-67 47q-53 0 -71.5 -50.5t-18.5 -179.5q0 -118 17 -165t68 -47q52 0 70.5 51t18.5 179z" />
    <glyph glyph-name="one" unicode="1" 
d="M74 0v141h169v388l-130 -102l-88 112l201 151h178v-549h130v-141h-460z" />
    <glyph glyph-name="two" unicode="2" 
d="M521 138v-138h-470v104q0 51 10 87t37.5 67.5t60.5 55.5t94 60q42 25 61 39t34.5 37t15.5 51q0 38 -23 52.5t-66 14.5q-81 0 -135 -55l-98 96q82 94 245 94q106 0 172 -47t66 -154q0 -78 -36.5 -121.5t-120.5 -94.5q-86 -52 -116.5 -81t-30.5 -68z" />
    <glyph glyph-name="three" unicode="3" 
d="M145 286v129h92q111 0 111 84q0 41 -22 56t-69 15q-94 0 -142 -44l-78 105q37 38 99.5 55.5t127.5 17.5q106 0 173 -44q74 -48 74 -141q0 -58 -29 -100.5t-85 -61.5q122 -33 122 -169q0 -100 -76 -153q-70 -48 -184 -48q-69 0 -130.5 17.5t-93.5 53.5l78 107
q48 -47 144 -47q49 0 74.5 19t25.5 67q0 47 -27 64.5t-90 17.5h-95z" />
    <glyph glyph-name="four" unicode="4" 
d="M540 124h-93v-124h-148v124h-260v139l133 427h153l-133 -425h110v244h145v-243h93v-142z" />
    <glyph glyph-name="five" unicode="5" 
d="M53 56l77 108q24 -23 64 -34.5t78 -11.5q42 0 61 14q33 23 33 90q0 61 -27 82q-21 16 -62 16q-53 0 -88 -36l-117 28l3 378h413v-133h-278l-3 -138q35 28 104 28q86 0 147 -48q71 -56 71 -172q0 -129 -86 -191q-70 -49 -172 -49q-60 0 -122 17t-96 52z" />
    <glyph glyph-name="six" unicode="6" 
d="M528 639l-78 -106q-44 39 -136 39q-39 0 -61.5 -9t-34 -35.5t-14.5 -56.5t-4 -91q41 53 132 53q84 0 143 -48q63 -55 63 -168q0 -119 -68 -177q-62 -53 -172 -53q-128 0 -190 75q-64 76 -64 276q0 104 15 175t55 116q68 75 204 75q149 0 210 -65zM303 321
q-50 0 -73 -26.5t-23 -83.5q0 -52 20.5 -76t69.5 -24q50 0 69 25.5t19 80.5q0 57 -18 80.5t-64 23.5z" />
    <glyph glyph-name="seven" unicode="7" 
d="M174 432h-129l-3 258h490v-142q-128 -292 -204 -548h-173q67 230 211 540h-189z" />
    <glyph glyph-name="eight" unicode="8" 
d="M53 519q0 50 21 88t56.5 58.5t75.5 30.5t85 10q60 0 110.5 -16t87 -58t36.5 -106q0 -115 -113 -170q122 -50 122 -177q0 -98 -71 -146t-174 -48q-65 0 -118.5 18.5t-90.5 63t-37 110.5q0 122 127 174q-117 51 -117 168zM199 507q0 -24 6.5 -40.5t21.5 -27.5t26.5 -16
t34.5 -13q23 7 35.5 13t27.5 17t21.5 27.5t6.5 40.5q0 79 -89 79q-91 0 -91 -80zM188 191q0 -86 100 -86t100 86q0 26 -7.5 44.5t-24.5 31t-30.5 18.5t-38.5 15q-23 -8 -38 -15t-30.5 -19t-23 -31t-7.5 -44z" />
    <glyph glyph-name="nine" unicode="9" 
d="M49 51l78 106q44 -39 135 -39q32 0 52.5 7t33 19t18.5 38t8 53t2 75q-39 -53 -130 -53q-90 0 -144 48q-63 55 -63 169q0 117 68 176q61 53 171 53q127 0 190 -74q38 -46 51.5 -111.5t13.5 -164.5q0 -106 -14.5 -177t-55.5 -115q-68 -75 -204 -75q-149 0 -210 65zM273 369
q50 0 73.5 26t23.5 84q0 52 -20.5 76t-69.5 24q-50 0 -69.5 -25.5t-19.5 -80.5q0 -57 18.5 -80.5t63.5 -23.5z" />
    <glyph glyph-name="colon" unicode=":" horiz-adv-x="300" 
d="M66 83q0 40 26 66.5t66 26.5t66 -26.5t26 -66.5t-26 -66t-66 -26t-66 26t-26 66zM66 401q0 40 26 66.5t66 26.5t66 -26.5t26 -66.5q0 -39 -26 -65.5t-66 -26.5t-66 26.5t-26 65.5z" />
    <glyph glyph-name="semicolon" unicode=";" horiz-adv-x="284" 
d="M47 404q0 40 26 66.5t66 26.5t66.5 -26.5t26.5 -66.5t-26.5 -66.5t-66.5 -26.5t-66 26.5t-26 66.5zM47 84q0 40 25 66.5t67 26.5q43 0 67.5 -26.5t24.5 -70.5q0 -93 -101 -244l-97 50q41 77 53 125q-39 23 -39 73z" />
    <glyph glyph-name="less" unicode="&#x3c;" horiz-adv-x="568" 
d="M449 19l-403 176v152l403 176l48 -133l-301 -118l301 -120z" />
    <glyph glyph-name="equal" unicode="=" horiz-adv-x="567" 
d="M497 94h-426v131h426v-131zM497 317h-426v131h426v-131z" />
    <glyph glyph-name="greater" unicode="&#x3e;" horiz-adv-x="568" 
d="M119 523l403 -176v-152l-403 -176l-47 133l300 119l-300 119z" />
    <glyph glyph-name="question" unicode="?" horiz-adv-x="475" 
d="M137 531l-80 102q77 65 192 65q83 0 140 -35q70 -42 70 -125q0 -43 -18 -77t-43 -53.5t-50.5 -34.5t-43.5 -31t-18 -33q0 -16 15 -39l-112 -50q-43 55 -43 103q0 34 17.5 62t42 45t49 32t42 32t17.5 35q0 45 -61 45q-65 0 -116 -43zM182 83q0 39 26 65t66 26
q39 0 65.5 -26t26.5 -65q0 -40 -26.5 -66t-65.5 -26q-40 0 -66 26t-26 66z" />
    <glyph glyph-name="at" unicode="@" horiz-adv-x="851" 
d="M638 167q22 0 36 34.5t14 95.5q0 262 -257 262q-273 0 -273 -286q0 -143 72.5 -212.5t229.5 -69.5q180 0 280 93l67 -74q-58 -58 -149 -92.5t-205 -34.5q-201 0 -306.5 105t-105.5 283q0 184 107 292.5t286 108.5q173 0 272.5 -99.5t99.5 -252.5q0 -109 -50 -178.5
t-140 -69.5q-84 0 -106 66q-49 -69 -134 -69q-60 0 -98 34.5t-38 93.5q0 130 200 130h38v10q0 25 -12 34.5t-44 9.5q-67 0 -101 -30l-61 81q56 52 166 52q90 0 133.5 -39.5t43.5 -123.5v-72q0 -82 35 -82zM479 243h-41q-22 0 -34 -2t-22 -11.5t-10 -27.5q0 -32 27 -32
q24 0 50 22.5t30 50.5z" />
    <glyph glyph-name="A" unicode="A" horiz-adv-x="622" 
d="M625 0h-170l-37 131h-219l-37 -131h-165l217 690h194zM384 260l-75 267l-75 -267h150z" />
    <glyph glyph-name="B" unicode="B" horiz-adv-x="618" 
d="M69 690h289q99 0 150 -40q56 -42 56 -126q0 -60 -28.5 -103t-84.5 -58q126 -22 126 -159q0 -102 -67 -155q-62 -49 -169 -49h-272v690zM226 288v-160h96q46 0 65 18q22 20 22 67q0 43 -19 59t-62 16h-102zM226 561v-153h74q46 0 71 19t25 68q0 39 -17 54q-13 12 -50 12
h-103z" />
    <glyph glyph-name="C" unicode="C" horiz-adv-x="565" 
d="M452 196l95 -100q-92 -108 -239 -108q-121 0 -187 69q-80 81 -80 280q0 203 82 289q71 76 207 76q137 0 208 -76l-88 -111q-49 46 -125 46q-65 0 -90 -39q-26 -41 -26 -182q0 -140 30 -180q24 -33 75 -33q77 0 138 69z" />
    <glyph glyph-name="D" unicode="D" horiz-adv-x="662" 
d="M69 690h271q137 0 204 -64q43 -41 60 -107.5t17 -165.5q0 -100 -18 -172t-67 -117q-69 -64 -191 -64h-276v690zM232 549v-408h99q63 0 91 33q31 35 31 172t-32 173q-27 30 -89 30h-100z" />
    <glyph glyph-name="E" unicode="E" horiz-adv-x="538" 
d="M69 690h413v-135h-255v-138h232v-135h-232v-148h260v-134h-418v690z" />
    <glyph glyph-name="F" unicode="F" horiz-adv-x="517" 
d="M69 690h415v-144h-253v-143h231v-143h-231v-260h-162v690z" />
    <glyph glyph-name="G" unicode="G" horiz-adv-x="647" 
d="M329 393h260v-358q-110 -45 -236 -45q-156 0 -233 75q-46 45 -62.5 111t-16.5 160q0 103 18 174t65 116q76 74 228 74q153 0 231 -72l-93 -114q-55 46 -146 46q-74 0 -103 -34q-17 -20 -23.5 -59t-6.5 -121q0 -91 7.5 -133t25.5 -61q28 -31 102 -31q58 0 97 12v130h-114
v130z" />
    <glyph glyph-name="H" unicode="H" horiz-adv-x="678" 
d="M69 690h162v-266h217v266h161v-690h-161v280h-217v-280h-162v690z" />
    <glyph glyph-name="I" unicode="I" horiz-adv-x="299" 
d="M69 690h162v-690h-162v690z" />
    <glyph glyph-name="J" unicode="J" horiz-adv-x="320" 
d="M91 690h161v-639q0 -269 -247 -269q-50 0 -83 12l22 138q26 -8 57 -8q53 0 71.5 27.5t18.5 91.5v647z" />
    <glyph glyph-name="K" unicode="K" horiz-adv-x="656" 
d="M69 690h162v-261h61l161 261h185l-206 -334l223 -356h-193l-171 277h-60v-277h-162v690z" />
    <glyph glyph-name="L" unicode="L" horiz-adv-x="491" 
d="M69 690h162v-546h237v-144h-399v690z" />
    <glyph glyph-name="M" unicode="M" horiz-adv-x="866" 
d="M90 690h217l126 -436l129 436h214l39 -690h-158l-17 510l-134 -479h-148l-133 480l-18 -511h-156z" />
    <glyph glyph-name="N" unicode="N" horiz-adv-x="713" 
d="M69 690h205l220 -471l-5 471h155v-690h-205l-220 471l5 -471h-155v690z" />
    <glyph glyph-name="O" unicode="O" horiz-adv-x="686" 
d="M645 351q0 -204 -85 -289q-79 -77 -222 -77q-146 0 -219 76q-78 81 -78 277q0 205 85 290q77 77 221 77q146 0 220 -76q78 -79 78 -278zM473 345q0 150 -36 190q-30 33 -91 33q-66 0 -98 -38q-35 -43 -35 -186q0 -150 36 -190q29 -32 91 -32q66 0 98 38q35 43 35 185z
" />
    <glyph glyph-name="P" unicode="P" horiz-adv-x="605" 
d="M69 690h264q109 0 167 -45q75 -58 75 -192q0 -138 -74 -196q-59 -46 -172 -46h-98v-211h-162v690zM231 551v-201h94q45 0 63 18q19 18 19 82q0 67 -22 86q-17 15 -64 15h-90z" />
    <glyph glyph-name="Q" unicode="Q" horiz-adv-x="686" 
d="M645 351q0 -187 -70 -271l84 -93l-125 -116l-110 122q-40 -8 -86 -8q-146 0 -219 76q-78 81 -78 277q0 205 85 290q77 77 221 77q146 0 220 -76q78 -79 78 -278zM473 345q0 150 -36 190q-30 33 -91 33q-66 0 -98 -38q-35 -43 -35 -186q0 -150 36 -190q29 -32 91 -32
q66 0 98 38q35 43 35 185z" />
    <glyph glyph-name="R" unicode="R" horiz-adv-x="634" 
d="M69 690h282q104 0 162 -37q76 -49 76 -160q0 -157 -130 -191q63 -12 90 -78t44 -224h-170q-19 145 -37.5 189.5t-63.5 44.5h-91v-234h-162v690zM231 552v-182h73q62 0 89.5 21t27.5 83q0 46 -19 64q-15 14 -60 14h-111z" />
    <glyph glyph-name="S" unicode="S" horiz-adv-x="536" 
d="M494 642l-76 -117q-58 40 -145 40q-40 0 -60.5 -14.5t-20.5 -52.5q0 -24 23.5 -41t58.5 -26t76.5 -25.5t76.5 -37t58.5 -62.5t23.5 -101q0 -110 -87 -169q-70 -48 -179 -48q-63 0 -126 17t-102 52l80 119q64 -51 164 -51q41 0 63.5 15.5t22.5 56.5q0 27 -23.5 46
t-58.5 29t-76.5 26t-76.5 36t-58.5 61t-23.5 99q0 96 78 154q73 54 180 54q56 0 113.5 -14.5t94.5 -45.5z" />
    <glyph glyph-name="T" unicode="T" horiz-adv-x="531" 
d="M8 690h515v-144h-177v-546h-162v546h-176v144z" />
    <glyph glyph-name="U" unicode="U" horiz-adv-x="678" 
d="M69 690h162v-444q0 -64 19 -91t90 -27q68 0 87.5 26.5t19.5 91.5v444h162v-442q0 -115 -46 -173q-68 -87 -229 -87q-151 0 -216 77q-49 59 -49 178v447z" />
    <glyph glyph-name="V" unicode="V" horiz-adv-x="619" 
d="M3 690h172l137 -508l135 508h170l-218 -690h-181z" />
    <glyph glyph-name="W" unicode="W" horiz-adv-x="902" 
d="M10 690h162l88 -501l110 483h164l109 -482l88 500h161l-152 -690h-183l-108 474l-109 -474h-183z" />
    <glyph glyph-name="X" unicode="X" horiz-adv-x="635" 
d="M19 690h189l112 -224l110 224h186l-194 -333l210 -357h-191l-124 245l-126 -245h-187l210 357z" />
    <glyph glyph-name="Y" unicode="Y" horiz-adv-x="568" 
d="M-10 690h185l108 -269l111 269h185l-217 -433v-257h-162v257z" />
    <glyph glyph-name="Z" unicode="Z" horiz-adv-x="544" 
d="M500 688v-135l-276 -412l283 1v-142h-477v135l274 411h-263v142h459z" />
    <glyph glyph-name="bracketleft" unicode="[" horiz-adv-x="365" 
d="M69 731h253v-128h-104v-625h104v-127h-253v880z" />
    <glyph glyph-name="backslash" unicode="\" horiz-adv-x="472" 
d="M334 -165l-331 949l142 52l331 -949z" />
    <glyph glyph-name="bracketright" unicode="]" horiz-adv-x="365" 
d="M296 -149h-252v128h104v624h-104v128h252v-880z" />
    <glyph glyph-name="asciicircum" unicode="^" horiz-adv-x="567" 
d="M33 341l174 402h153l175 -402l-134 -48l-118 300l-117 -300z" />
    <glyph glyph-name="underscore" unicode="_" horiz-adv-x="415" 
d="M415 -177h-415v140h415v-140z" />
    <glyph glyph-name="grave" unicode="`" horiz-adv-x="200" 
d="M210 629l-84 -75l-176 189l97 83z" />
    <glyph glyph-name="a" unicode="a" horiz-adv-x="522" 
d="M125 359l-77 89q68 73 204 73q110 0 161 -45t51 -151v-325h-133l-1 65q-53 -78 -148 -78q-69 0 -112 40q-45 42 -45 118q0 89 63 132q60 41 178 41h54v13q0 42 -16.5 57.5t-58.5 15.5q-74 0 -120 -45zM323 218h-64q-46 0 -66.5 -12.5t-20.5 -53.5q0 -51 36 -51
q35 0 72.5 33.5t42.5 83.5z" />
    <glyph glyph-name="b" unicode="b" horiz-adv-x="575" 
d="M63 765h157v-307q51 65 138 65q53 0 89 -21.5t54 -60.5t25 -81t7 -96q0 -58 -8 -102t-28 -85.5t-60.5 -64t-99.5 -22.5q-89 0 -138 63l-3 -53h-133v765zM372 254q0 69 -12 101t-46 32q-38 0 -66 -37q-34 -43 -34 -116q0 -59 27 -87q25 -28 63 -28q41 0 54.5 32.5
t13.5 102.5z" />
    <glyph glyph-name="c" unicode="c" horiz-adv-x="479" 
d="M363 170l93 -99q-72 -81 -194 -81q-104 0 -160 61q-60 65 -60 198q0 145 68 213q62 60 170 60q111 0 169 -59l-88 -106q-32 28 -79 28q-46 0 -61 -28.5t-15 -100.5q0 -71 13.5 -101.5t50.5 -30.5q50 0 93 46z" />
    <glyph glyph-name="d" unicode="d" horiz-adv-x="578" 
d="M358 765h157v-765h-147l-2 67q-52 -80 -149 -80q-71 0 -115 49q-60 66 -60 215q0 155 67 219q54 52 142 52q68 0 107 -36v279zM258 121q34 0 64 38q42 53 42 130q0 55 -26 81q-21 21 -59 21q-44 0 -58 -31t-14 -107q0 -74 11 -103t40 -29z" />
    <glyph glyph-name="e" unicode="e" horiz-adv-x="544" 
d="M416 163l77 -90q-84 -85 -217 -85q-105 0 -165 52q-69 61 -69 205t67 214q62 64 175 64q216 0 216 -246q0 -28 -4 -60l-301 -3q1 -55 18 -80t68 -25q76 0 135 54zM197 317h154q-1 49 -15 70.5t-58 21.5t-61.5 -23t-19.5 -69z" />
    <glyph glyph-name="f" unicode="f" horiz-adv-x="406" 
d="M30 361v137h76v25q0 97 51.5 158.5t163.5 61.5q84 0 130 -30l-51 -120q-28 15 -69 15q-42 0 -55.5 -19.5t-13.5 -67.5v-23h116v-137h-116v-361h-156v361h-76z" />
    <glyph glyph-name="g" unicode="g" 
d="M382 510h133v-502q0 -49 -12.5 -89.5t-41 -76.5t-83.5 -56t-132 -20q-133 0 -197 59l73 111q51 -41 131 -41q64 0 85.5 24t21.5 76v72q-50 -70 -140 -70q-78 0 -125 56q-53 65 -53 201q0 146 63 213q52 54 138 54q88 0 137 -61zM260 126q38 0 67 37q37 48 37 121
q0 55 -27 83q-25 25 -62 25q-41 0 -54.5 -30.5t-13.5 -104.5q0 -72 11 -101.5t42 -29.5z" />
    <glyph glyph-name="h" unicode="h" horiz-adv-x="569" 
d="M63 765h157v-319q44 77 144 77q71 0 109 -47t38 -135v-341h-158v319q0 31 -8 45t-29 14q-39 0 -67.5 -44t-28.5 -131v-203h-157v765z" />
    <glyph glyph-name="i" unicode="i" horiz-adv-x="282" 
d="M63 510h157v-510h-157v510zM49 678q0 40 26.5 67t65.5 27q40 0 66 -26.5t26 -67.5q0 -40 -26 -66.5t-66 -26.5q-39 0 -65.5 26.5t-26.5 66.5z" />
    <glyph glyph-name="j" unicode="j" horiz-adv-x="288" 
d="M69 510h157v-527q0 -101 -53 -157.5t-161 -56.5q-36 0 -69 9l21 136q20 -5 44 -5q37 0 49 16t12 54v531zM56 678q0 41 26 67.5t66 26.5q39 0 65.5 -27t26.5 -67t-26.5 -66.5t-65.5 -26.5q-40 0 -66 26.5t-26 66.5z" />
    <glyph glyph-name="k" unicode="k" horiz-adv-x="560" 
d="M63 765h157v-428h38l95 173h185l-155 -245l170 -265h-193l-107 187h-33v-187h-157v765z" />
    <glyph glyph-name="l" unicode="l" horiz-adv-x="282" 
d="M63 765h157v-765h-157v765z" />
    <glyph glyph-name="m" unicode="m" horiz-adv-x="847" 
d="M63 510h146v-77q47 90 149 90t133 -93q52 93 153 93q70 0 107.5 -47t37.5 -135v-341h-157v315q0 33 -8 48t-29 15q-37 0 -64 -44t-27 -128v-206h-157v317q0 31 -7.5 46t-28.5 15q-38 0 -65 -44t-27 -128v-206h-156v510z" />
    <glyph glyph-name="n" unicode="n" horiz-adv-x="569" 
d="M63 510h146v-78q49 91 152 91q74 0 112 -47t38 -135v-341h-158v316q0 32 -8 47t-30 15q-40 0 -67.5 -45t-27.5 -128v-205h-157v510z" />
    <glyph glyph-name="o" unicode="o" horiz-adv-x="560" 
d="M518 261q0 -78 -15.5 -128.5t-54.5 -87.5q-63 -60 -172 -60q-106 0 -166 55q-38 34 -53 83t-15 125q0 79 15.5 129t53.5 87q64 62 173 62q107 0 167 -55q37 -34 52 -84t15 -126zM358 260q0 88 -24 116q-15 18 -50 18q-40 0 -56 -20q-25 -29 -25 -123q0 -92 23 -117
q16 -18 52 -18t54 21q26 30 26 123z" />
    <glyph glyph-name="p" unicode="p" horiz-adv-x="578" 
d="M63 510h148l1 -67q53 80 148 80q66 0 111 -43q65 -64 65 -219q0 -160 -71 -225q-53 -48 -135 -48q-66 0 -110 36v-254h-157v740zM319 387q-36 0 -67 -42q-38 -53 -38 -131q0 -47 22 -73q21 -25 63 -25t57 30t15 111q0 72 -11.5 101t-40.5 29z" />
    <glyph glyph-name="q" unicode="q" 
d="M382 510h132v-740h-156v284q-53 -67 -139 -67q-66 0 -113 45q-64 63 -64 214q0 160 65 225q48 50 131 50q94 0 141 -65zM207 248q0 -70 11 -99t44 -29q36 0 65 36q36 45 36 118q0 56 -26 86q-26 29 -66 29q-39 0 -51.5 -30.5t-12.5 -110.5z" />
    <glyph glyph-name="r" unicode="r" horiz-adv-x="411" 
d="M63 510h148l-1 -83q42 97 136 97q26 0 51 -10l-20 -149q-22 6 -38 6q-120 0 -120 -202v-169h-156v510z" />
    <glyph glyph-name="s" unicode="s" horiz-adv-x="444" 
d="M410 462l-72 -95q-47 37 -108 37q-54 0 -54 -36q0 -17 25 -28.5t60.5 -22.5t71.5 -27t61 -51t25 -86q0 -58 -32.5 -96.5t-78.5 -53.5t-103 -15q-127 0 -185 65l72 96q45 -44 122 -44q60 0 60 41q0 19 -25 31.5t-61 23t-72 26.5t-61 50t-25 85q0 77 59.5 118t150.5 41
q115 0 170 -59z" />
    <glyph glyph-name="t" unicode="t" horiz-adv-x="434" 
d="M381 138l9 -131q-54 -13 -107 -13q-102 0 -141.5 47.5t-39.5 147.5v176h-74v136h74v140l157 14v-154h126v-136h-126v-164q0 -44 9 -57t48 -13q37 0 65 7z" />
    <glyph glyph-name="u" unicode="u" horiz-adv-x="566" 
d="M503 0h-145v78q-49 -91 -149 -91q-146 0 -146 181v342h156v-318q0 -62 39 -62q36 0 62.5 44.5t26.5 126.5v209h156v-510z" />
    <glyph glyph-name="v" unicode="v" horiz-adv-x="523" 
d="M10 510h169l86 -344l84 344h164l-164 -510h-177z" />
    <glyph glyph-name="w" unicode="w" horiz-adv-x="765" 
d="M13 510h158l61 -334l71 324h162l71 -322l61 332h155l-127 -510h-171l-73 324l-74 -324h-172z" />
    <glyph glyph-name="x" unicode="x" horiz-adv-x="540" 
d="M25 510h178l71 -145l68 145h175l-137 -247l148 -263h-178l-80 156l-80 -156h-178l156 263z" />
    <glyph glyph-name="y" unicode="y" horiz-adv-x="535" 
d="M525 510l-137 -480q-37 -130 -98 -196.5t-153 -66.5q-66 0 -100 24l47 127q20 -12 49 -12q38 0 60.5 25.5t39.5 87.5h-72l-151 491h167l97 -392l88 392h163z" />
    <glyph glyph-name="z" unicode="z" horiz-adv-x="465" 
d="M419 504v-128l-191 -241h196v-135h-387v129l190 240h-180v135h372z" />
    <glyph glyph-name="braceleft" unicode="{" horiz-adv-x="378" 
d="M335 -149h-76q-76 0 -120 41.5t-44 119.5v115q0 58 -19 76t-73 20v135q54 2 73 20t19 77v110q0 78 43.5 122t120.5 44h76v-138h-35q-37 0 -47.5 -14.5t-10.5 -51.5v-89q0 -120 -96 -147q96 -28 96 -147v-91q0 -37 10.5 -51.5t47.5 -14.5h35v-136z" />
    <glyph glyph-name="bar" unicode="|" horiz-adv-x="297" 
d="M228 765v-995h-159v995h159z" />
    <glyph glyph-name="braceright" unicode="}" horiz-adv-x="378" 
d="M44 730h76q76 0 119.5 -41.5t43.5 -119.5v-115q0 -57 19 -75t73 -20v-135q-53 -2 -72.5 -20t-19.5 -77v-110q0 -78 -43.5 -122t-119.5 -44h-76v138h34q37 0 48 14t11 52v88q0 122 95 148q-95 28 -95 147v91q0 36 -11 51t-48 15h-34v135z" />
    <glyph glyph-name="asciitilde" unicode="~" horiz-adv-x="567" 
d="M449 359l84 -93q-47 -47 -82.5 -69.5t-79.5 -22.5q-39 0 -98.5 26.5t-81.5 26.5q-28 0 -73 -45l-83 94q45 47 81 69.5t80 22.5q39 0 98.5 -26.5t81.5 -26.5q31 0 73 44z" />
    <glyph glyph-name="exclamdown" unicode="&#xa1;" horiz-adv-x="333" 
d="M60 -74l9 449h151l9 -449h-169zM236 534q0 -39 -26 -65.5t-66 -26.5q-39 0 -65 26t-26 66q0 39 26 65t65 26q40 0 66 -26t26 -65z" />
    <glyph glyph-name="cent" unicode="&#xa2;" 
d="M394 765l-1 -109q87 -13 138 -64l-94 -110q-41 37 -107 37q-65 0 -85.5 -36t-20.5 -126q0 -93 18.5 -130.5t73.5 -37.5q72 0 125 60l101 -104q-60 -66 -149 -86l1 -114h-168l2 115q-65 17 -106 61q-69 74 -69 230q0 159 71 234q40 44 104 62l-2 118h168z" />
    <glyph glyph-name="sterling" unicode="&#xa3;" 
d="M426 409v-135h-148v-139h270v-135h-498v135h65v139h-65v135h65v38q0 47 12.5 89.5t39.5 80t77.5 60t118.5 22.5q117 0 175 -59l-92 -108q-33 31 -85 31t-67.5 -29t-15.5 -91v-34h148z" />
    <glyph glyph-name="currency" unicode="&#xa4;" 
d="M591 563l-98 -95q21 -46 21 -109t-21 -109l99 -97l-96 -96l-97 96q-45 -22 -112 -22q-65 0 -110 22l-94 -97l-97 97l96 96q-20 48 -20 107q0 61 22 111l-99 96l96 97l98 -98q49 22 111 22t108 -21l96 95zM381 359q0 52 -22 76.5t-70 24.5q-49 0 -71 -25t-22 -76
q0 -105 92 -105q93 0 93 105z" />
    <glyph glyph-name="yen" unicode="&#xa5;" 
d="M538 242v-135h-173v-107h-160v107h-161v135h161v35l-10 19h-151v134h81l-137 260h185l114 -268l121 268h181l-141 -260h90v-134h-163l-10 -19v-35h173z" />
    <glyph glyph-name="brokenbar" unicode="&#xa6;" horiz-adv-x="297" 
d="M228 -230h-159v378h159v-378zM228 765v-379h-159v379h159z" />
    <glyph glyph-name="section" unicode="&#xa7;" horiz-adv-x="499" 
d="M33 -45l65 103q55 -41 134 -41q69 0 69 45q0 21 -29.5 35t-71.5 27t-84 32.5t-71.5 62t-29.5 104.5q0 90 64 146q-28 38 -28 92q0 77 63.5 118.5t153.5 41.5q113 0 177 -51l-64 -100q-46 34 -122 34q-66 0 -66 -44q0 -19 28.5 -33.5t69.5 -28.5t82 -34.5t69.5 -63.5
t28.5 -105q0 -88 -61 -144q31 -39 31 -94q0 -76 -66 -116.5t-151 -40.5q-50 0 -103.5 14t-87.5 41zM335 288q0 15 -6.5 28t-14.5 21t-26 18t-28 14.5t-36 14t-35 13.5q-38 -29 -38 -65q0 -13 4 -24t13 -20.5t17.5 -16t24.5 -14t26.5 -11.5t31 -12t30.5 -12q37 30 37 66z" />
    <glyph glyph-name="dieresis" unicode="&#xa8;" horiz-adv-x="200" 
d="M202 746q32 0 54.5 -22t22.5 -56q0 -32 -22.5 -53.5t-54.5 -21.5t-53.5 21.5t-21.5 53.5q0 34 21.5 56t53.5 22zM-4 746q32 0 54.5 -22t22.5 -56q0 -32 -22.5 -53.5t-54.5 -21.5t-53.5 21.5t-21.5 53.5q0 34 21.5 56t53.5 22z" />
    <glyph glyph-name="copyright" unicode="&#xa9;" horiz-adv-x="788" 
d="M41 346q0 157 94 263t259 106t259 -106.5t94 -264.5t-94.5 -264t-258.5 -106q-110 0 -191.5 51.5t-121.5 135t-40 185.5zM152 343q0 -118 60.5 -187.5t182.5 -69.5q121 0 180 69.5t59 188.5q0 120 -58.5 190t-178.5 70q-122 0 -183.5 -71t-61.5 -190zM474 291l81 -88
q-64 -64 -160 -64q-79 0 -126 44q-53 50 -53 154q0 100 49 155q51 55 144 55q88 0 138 -44l-72 -98q-28 20 -67 20q-29 0 -39 -16.5t-10 -63.5q0 -51 10 -68t34 -17q37 0 71 31z" />
    <glyph glyph-name="ordfeminine" unicode="&#xaa;" horiz-adv-x="350" 
d="M303 360h-258v82h258v-82zM90 686l-52 60q43 43 129 43q71 0 103.5 -26.5t32.5 -91.5v-186h-90l-1 33q-33 -42 -90 -42q-43 0 -70 24q-29 24 -29 71q0 55 44 80q37 22 108 22h30v5q0 19 -9.5 26t-33.5 7q-43 0 -72 -25zM207 609h-34q-27 0 -38.5 -6t-11.5 -29
q0 -21 19 -21q17 0 39 17.5t26 38.5z" />
    <glyph glyph-name="guillemotleft" unicode="&#xab;" horiz-adv-x="573" 
d="M195 45l-177 226l177 226l94 -73l-114 -153l114 -151zM445 45l-177 226l177 226l95 -73l-115 -153l115 -151z" />
    <glyph glyph-name="logicalnot" unicode="&#xac;" horiz-adv-x="568" 
d="M495 389v-327h-151v192h-283v135h434z" />
    <glyph glyph-name="registered" unicode="&#xae;" horiz-adv-x="583" 
d="M42 587q0 109 69.5 182.5t179.5 73.5t180 -73.5t70 -182.5q0 -108 -70.5 -181.5t-180.5 -73.5q-109 0 -178.5 73.5t-69.5 181.5zM127 587q0 -78 43.5 -124.5t119.5 -46.5q77 0 121 46.5t44 124.5q0 80 -43 126.5t-120 46.5t-121 -47t-44 -126zM182 714h125q104 0 104 -77
q0 -57 -51 -71q29 -5 37 -25.5t12 -78.5h-86q-4 43 -8.5 56.5t-15.5 13.5h-35v-70h-82v252zM264 645v-45h20q23 0 32.5 5t9.5 21q0 12 -5.5 15.5t-20.5 3.5h-36z" />
    <glyph glyph-name="macron" unicode="&#xaf;" horiz-adv-x="200" 
d="M262 601h-324v116h324v-116z" />
    <glyph glyph-name="degree" unicode="&#xb0;" horiz-adv-x="483" 
d="M436 551q0 -87 -52.5 -140.5t-144.5 -53.5q-91 0 -141.5 51t-50.5 137t53 140t144 54t141.5 -51.5t50.5 -136.5zM307 552q0 76 -63 76q-34 0 -51.5 -23.5t-17.5 -60.5q0 -77 64 -77q34 0 51 24t17 61z" />
    <glyph glyph-name="plusminus" unicode="&#xb1;" horiz-adv-x="567" 
d="M487 316h-135v-128h-136v128h-136v127h136v124h136v-124h135v-127zM487 22h-407v126h407v-126z" />
    <glyph glyph-name="twosuperior" unicode="&#xb2;" horiz-adv-x="385" 
d="M337 579v-94h-298v71q0 56 27 86t97 66q27 14 37 19.5t19.5 16.5t9.5 25q0 30 -49 30q-47 0 -81 -32l-67 66q53 59 156 59q68 0 110.5 -28.5t42.5 -92.5q0 -47 -24 -73t-72 -50q-54 -27 -70.5 -39.5t-16.5 -29.5h179z" />
    <glyph glyph-name="threesuperior" unicode="&#xb3;" horiz-adv-x="385" 
d="M98 642v88h61q62 0 62 37q0 20 -12.5 27t-39.5 7q-57 0 -86 -23l-53 71q44 43 145 43q67 0 112 -28q46 -30 46 -81q0 -70 -70 -93q74 -21 74 -96q0 -54 -46 -86q-43 -31 -119 -31q-104 0 -144 41l53 72q30 -24 87 -24q58 0 58 39q0 21 -15 29t-50 8h-63z" />
    <glyph glyph-name="acute" unicode="&#xb4;" horiz-adv-x="200" 
d="M67 554l-84 75l163 197l96 -83z" />
    <glyph glyph-name="mu" unicode="&#xb5;" horiz-adv-x="566" 
d="M503 0h-145l1 78q-45 -88 -140 -88h-9l10 -220h-157v740h156v-318q0 -61 39 -61q36 0 62.5 45t26.5 128v206h156v-510z" />
    <glyph glyph-name="paragraph" unicode="&#xb6;" horiz-adv-x="811" 
d="M497 -231h-148v452h-87q-38 0 -66 3.5t-61.5 17.5t-54 38.5t-35 71t-14.5 110.5q0 80 18 132t53.5 76t71 32t87.5 8h482v-941h-149v806h-97v-806zM349 358v215h-76q-54 0 -72.5 -25t-18.5 -83q0 -68 20.5 -87.5t73.5 -19.5h73z" />
    <glyph glyph-name="periodcentered" unicode="&#xb7;" horiz-adv-x="283" 
d="M47 271q0 41 27 68t67 27q41 0 68 -27t27 -68t-27 -68t-68 -27q-40 0 -67 27.5t-27 67.5z" />
    <glyph glyph-name="cedilla" unicode="&#xb8;" horiz-adv-x="200" 
d="M32 23h94l-5 -57q63 -29 63 -89q0 -49 -33.5 -82.5t-92.5 -33.5q-74 0 -120 57l61 63q24 -31 51 -31q30 0 30 27q0 32 -58 48z" />
    <glyph glyph-name="onesuperior" unicode="&#xb9;" horiz-adv-x="385" 
d="M53 485v97h104v190l-75 -57l-61 76l124 92h124v-301h78v-97h-294z" />
    <glyph glyph-name="ordmasculine" unicode="&#xba;" horiz-adv-x="373" 
d="M318 360h-264v82h264v-82zM339 637q0 -84 -46 -125q-40 -35 -110 -35q-67 0 -105 31q-45 36 -45 121t47 126q40 35 109 35q65 0 104 -31q46 -38 46 -122zM226 639q0 43 -14 54q-7 6 -24 6q-19 0 -28 -9q-14 -14 -14 -61q0 -43 12 -54q8 -8 26 -8t30 10q12 15 12 62z" />
    <glyph glyph-name="guillemotright" unicode="&#xbb;" horiz-adv-x="573" 
d="M378 497l178 -226l-178 -226l-94 74l115 152l-115 151zM128 497l177 -226l-177 -226l-94 74l114 152l-114 151z" />
    <glyph glyph-name="onequarter" unicode="&#xbc;" horiz-adv-x="954" 
d="M827 671l-612 -725l-87 72l612 726zM79 302v93h94v191l-66 -56l-57 75l108 85h121v-295h71v-93h-271zM894 65h-51v-65h-97v65h-153v91l70 232h100l-70 -230h55v131h95v-130h51v-94z" />
    <glyph glyph-name="onehalf" unicode="&#xbd;" horiz-adv-x="954" 
d="M827 671l-612 -725l-87 72l612 726zM79 302v93h94v191l-66 -56l-57 75l108 85h121v-295h71v-93h-271zM880 91v-91h-277v69q0 54 25 83.5t89 64.5q25 13 34.5 19t18 17t8.5 25q0 29 -45 29q-44 0 -74 -31l-63 64q47 56 145 56q143 0 143 -116q0 -46 -22 -71.5t-67 -49.5
q-49 -26 -64.5 -39t-15.5 -30z" />
    <glyph glyph-name="threequarters" unicode="&#xbe;" horiz-adv-x="954" 
d="M827 671l-612 -725l-87 72l612 726zM894 65h-51v-65h-97v65h-153v91l70 232h100l-70 -230h55v131h95v-130h51v-94zM115 456v84h59q61 0 61 38q0 19 -12 26t-38 7q-55 0 -85 -22l-51 68q42 41 141 41q66 0 108 -27q45 -29 45 -79q0 -67 -68 -91q72 -19 72 -93
q0 -53 -45 -84q-43 -30 -115 -30q-100 0 -139 40l51 69q27 -23 85 -23q56 0 56 39q0 21 -15 29t-49 8h-61z" />
    <glyph glyph-name="questiondown" unicode="&#xbf;" horiz-adv-x="475" 
d="M339 85l79 -102q-77 -65 -192 -65q-83 0 -140 35q-70 42 -70 125q0 43 18 77t43 53.5t50.5 34.5t43.5 31t18 33q0 16 -15 39l112 50q44 -54 44 -103q0 -34 -17.5 -62t-42 -45t-49 -32t-42 -32t-17.5 -35q0 -45 60 -45q65 0 117 43zM293 534q0 -40 -26 -66t-65 -26
q-40 0 -66 26t-26 66t26 65.5t66 25.5q39 0 65 -25.5t26 -65.5z" />
    <glyph glyph-name="Agrave" unicode="&#xc0;" horiz-adv-x="622" 
d="M625 0h-170l-37 131h-219l-37 -131h-165l217 690h194zM384 260l-75 267l-75 -267h150zM418 824l-58 -90l-228 137l71 106z" />
    <glyph glyph-name="Aacute" unicode="&#xc1;" horiz-adv-x="622" 
d="M625 0h-170l-37 131h-219l-37 -131h-165l217 690h194zM384 260l-75 267l-75 -267h150zM248 734l-58 90l215 153l71 -106z" />
    <glyph glyph-name="Acircumflex" unicode="&#xc2;" horiz-adv-x="622" 
d="M625 0h-170l-37 131h-219l-37 -131h-165l217 690h194zM384 260l-75 267l-75 -267h150zM140 826l173 121l169 -119l-57 -91l-114 71l-115 -72z" />
    <glyph glyph-name="Atilde" unicode="&#xc3;" horiz-adv-x="622" 
d="M625 0h-170l-37 131h-219l-37 -131h-165l217 690h194zM384 260l-75 267l-75 -267h150zM443 942l63 -79q-35 -39 -65 -58t-69 -19q-31 0 -71.5 16.5t-58.5 16.5q-29 0 -63 -36l-63 79q36 38 66 57t69 19q30 0 71 -16.5t58 -16.5q28 0 63 37z" />
    <glyph glyph-name="Adieresis" unicode="&#xc4;" horiz-adv-x="622" 
d="M625 0h-170l-37 131h-219l-37 -131h-165l217 690h194zM384 260l-75 267l-75 -267h150zM413 926q33 0 55 -22t22 -56q0 -32 -22.5 -53.5t-54.5 -21.5t-53.5 21.5t-21.5 53.5q0 34 21.5 56t53.5 22zM207 926q33 0 55 -22t22 -56q0 -32 -22.5 -53.5t-54.5 -21.5
q-31 0 -53 21.5t-22 53.5q0 34 21.5 56t53.5 22z" />
    <glyph glyph-name="Aring" unicode="&#xc5;" horiz-adv-x="622" 
d="M625 0h-170l-37 131h-219l-37 -131h-165l217 690h194zM384 260l-75 267l-75 -267h150zM448 859q0 -55 -38.5 -87t-98.5 -32t-98.5 32.5t-38.5 86.5q0 55 38.5 87t98.5 32t98.5 -32.5t38.5 -86.5zM353 859q0 40 -41 40q-43 0 -43 -41q0 -40 42 -40t42 41z" />
    <glyph glyph-name="AE" unicode="&#xc6;" horiz-adv-x="895" 
d="M431 142h-215l-61 -142h-179l321 690h541v-137h-246v-135h225v-136h-225v-146h251v-136h-412v142zM394 553l-123 -284h160v284h-37z" />
    <glyph glyph-name="Ccedilla" unicode="&#xc7;" horiz-adv-x="565" 
d="M452 196l95 -100q-85 -98 -209 -107l-2 -23q63 -29 63 -89q0 -49 -33.5 -82.5t-92.5 -33.5q-73 0 -119 57l60 63q24 -31 51 -31q31 0 31 27q0 32 -59 48l7 68q-76 14 -123 64q-80 81 -80 280q0 203 82 289q71 76 206 76q138 0 209 -76l-88 -111q-49 46 -126 46
q-64 0 -89 -39q-26 -40 -26 -188q0 -134 30 -174q24 -33 75 -33q77 0 138 69z" />
    <glyph glyph-name="Egrave" unicode="&#xc8;" horiz-adv-x="538" 
d="M69 690h413v-135h-255v-138h232v-135h-232v-148h260v-134h-418v690zM389 824l-58 -90l-228 137l71 106z" />
    <glyph glyph-name="Eacute" unicode="&#xc9;" horiz-adv-x="538" 
d="M69 690h413v-135h-255v-138h232v-135h-232v-148h260v-134h-418v690zM219 734l-58 90l215 153l71 -106z" />
    <glyph glyph-name="Ecircumflex" unicode="&#xca;" horiz-adv-x="538" 
d="M69 690h413v-135h-255v-138h232v-135h-232v-148h260v-134h-418v690zM111 826l173 121l169 -119l-57 -91l-114 71l-115 -72z" />
    <glyph glyph-name="Edieresis" unicode="&#xcb;" horiz-adv-x="538" 
d="M69 690h413v-135h-255v-138h232v-135h-232v-148h260v-134h-418v690zM384 926q32 0 54.5 -22t22.5 -56q0 -32 -22.5 -53.5t-54.5 -21.5t-53.5 21.5t-21.5 53.5q0 34 21.5 56t53.5 22zM178 926q32 0 54.5 -22t22.5 -56q0 -32 -22.5 -53.5t-54.5 -21.5t-53.5 21.5
t-21.5 53.5q0 34 21.5 56t53.5 22z" />
    <glyph glyph-name="Igrave" unicode="&#xcc;" horiz-adv-x="299" 
d="M69 690h162v-690h-162v690zM257 824l-58 -90l-228 137l71 106z" />
    <glyph glyph-name="Iacute" unicode="&#xcd;" horiz-adv-x="299" 
d="M69 690h162v-690h-162v690zM87 734l-58 90l215 153l71 -106z" />
    <glyph glyph-name="Icircumflex" unicode="&#xce;" horiz-adv-x="299" 
d="M69 690h162v-690h-162v690zM-21 826l173 121l169 -119l-57 -91l-114 71l-115 -72z" />
    <glyph glyph-name="Idieresis" unicode="&#xcf;" horiz-adv-x="299" 
d="M69 690h162v-690h-162v690zM252 926q32 0 54.5 -22t22.5 -56q0 -32 -22.5 -53.5t-54.5 -21.5t-53.5 21.5t-21.5 53.5q0 34 21.5 56t53.5 22zM46 926q32 0 54.5 -22t22.5 -56q0 -32 -22.5 -53.5t-54.5 -21.5t-53.5 21.5t-21.5 53.5q0 34 21.5 56t53.5 22z" />
    <glyph glyph-name="Eth" unicode="&#xd0;" horiz-adv-x="672" 
d="M79 690h272q139 0 206 -69q74 -75 74 -268q0 -195 -78 -279q-71 -74 -199 -74h-275v282h-57v137h57v271zM236 549v-130h99v-137h-99v-141h106q72 0 97 40q23 36 23 167q0 136 -26 169q-25 32 -93 32h-107z" />
    <glyph glyph-name="Ntilde" unicode="&#xd1;" horiz-adv-x="713" 
d="M69 690h205l220 -471l-5 471h155v-690h-205l-220 471l5 -471h-155v690zM508 942l63 -79q-35 -39 -65 -58t-69 -19q-31 0 -71.5 16.5t-58.5 16.5q-29 0 -63 -36l-63 79q36 38 66 57t69 19q30 0 71 -16.5t58 -16.5q28 0 63 37z" />
    <glyph glyph-name="Ograve" unicode="&#xd2;" horiz-adv-x="686" 
d="M645 351q0 -204 -85 -289q-79 -77 -222 -77q-146 0 -219 76q-78 81 -78 277q0 205 85 290q77 77 221 77q146 0 220 -76q78 -79 78 -278zM473 345q0 150 -36 190q-30 33 -91 33q-66 0 -98 -38q-35 -43 -35 -186q0 -150 36 -190q29 -32 91 -32q66 0 98 38q35 43 35 185z
M450 824l-58 -90l-228 137l71 106z" />
    <glyph glyph-name="Oacute" unicode="&#xd3;" horiz-adv-x="686" 
d="M645 351q0 -204 -85 -289q-79 -77 -222 -77q-146 0 -219 76q-78 81 -78 277q0 205 85 290q77 77 221 77q146 0 220 -76q78 -79 78 -278zM473 345q0 150 -36 190q-30 33 -91 33q-66 0 -98 -38q-35 -43 -35 -186q0 -150 36 -190q29 -32 91 -32q66 0 98 38q35 43 35 185z
M280 734l-58 90l215 153l71 -106z" />
    <glyph glyph-name="Ocircumflex" unicode="&#xd4;" horiz-adv-x="686" 
d="M645 351q0 -204 -85 -289q-79 -77 -222 -77q-146 0 -219 76q-78 81 -78 277q0 205 85 290q77 77 221 77q146 0 220 -76q78 -79 78 -278zM473 345q0 150 -36 190q-30 33 -91 33q-66 0 -98 -38q-35 -43 -35 -186q0 -150 36 -190q29 -32 91 -32q66 0 98 38q35 43 35 185z
M172 826l173 121l169 -119l-57 -91l-114 71l-115 -72z" />
    <glyph glyph-name="Otilde" unicode="&#xd5;" horiz-adv-x="686" 
d="M645 351q0 -204 -85 -289q-79 -77 -222 -77q-146 0 -219 76q-78 81 -78 277q0 205 85 290q77 77 221 77q146 0 220 -76q78 -79 78 -278zM473 345q0 150 -36 190q-30 33 -91 33q-66 0 -98 -38q-35 -43 -35 -186q0 -150 36 -190q29 -32 91 -32q66 0 98 38q35 43 35 185z
M475 942l63 -79q-35 -39 -65 -58t-69 -19q-31 0 -71.5 16.5t-58.5 16.5q-29 0 -63 -36l-63 79q36 38 66 57t69 19q30 0 71 -16.5t58 -16.5q28 0 63 37z" />
    <glyph glyph-name="Odieresis" unicode="&#xd6;" horiz-adv-x="686" 
d="M645 351q0 -204 -85 -289q-79 -77 -222 -77q-146 0 -219 76q-78 81 -78 277q0 205 85 290q77 77 221 77q146 0 220 -76q78 -79 78 -278zM473 345q0 150 -36 190q-30 33 -91 33q-66 0 -98 -38q-35 -43 -35 -186q0 -150 36 -190q29 -32 91 -32q66 0 98 38q35 43 35 185z
M445 926q33 0 55 -22t22 -56q0 -32 -22.5 -53.5t-54.5 -21.5t-53.5 21.5t-21.5 53.5q0 34 21.5 56t53.5 22zM239 926q33 0 55 -22t22 -56q0 -32 -22.5 -53.5t-54.5 -21.5q-31 0 -53 21.5t-22 53.5q0 34 21.5 56t53.5 22z" />
    <glyph glyph-name="multiply" unicode="&#xd7;" horiz-adv-x="567" 
d="M418 40l-134 137l-135 -137l-96 96l136 135l-136 135l97 96l134 -136l134 136l96 -96l-135 -135l135 -135z" />
    <glyph glyph-name="Oslash" unicode="&#xd8;" horiz-adv-x="687" 
d="M642 352q0 -208 -88 -292q-77 -75 -219 -75q-73 0 -131 21l-60 -93l-117 76l66 101q-54 80 -54 247q0 201 79 286q77 82 228 82q76 0 131 -20l60 92l116 -76l-65 -101q54 -81 54 -248zM192 344q0 -59 4 -95l209 323q-25 9 -61 9q-85 0 -119 -49q-33 -46 -33 -188z
M488 345q0 55 -4 94l-208 -322q26 -8 60 -8q87 0 121 51q31 47 31 185z" />
    <glyph glyph-name="Ugrave" unicode="&#xd9;" horiz-adv-x="678" 
d="M69 690h162v-444q0 -64 19 -91t90 -27q68 0 87.5 26.5t19.5 91.5v444h162v-442q0 -115 -46 -173q-68 -87 -229 -87q-151 0 -216 77q-49 59 -49 178v447zM446 824l-58 -90l-228 137l71 106z" />
    <glyph glyph-name="Uacute" unicode="&#xda;" horiz-adv-x="678" 
d="M69 690h162v-444q0 -64 19 -91t90 -27q68 0 87.5 26.5t19.5 91.5v444h162v-442q0 -115 -46 -173q-68 -87 -229 -87q-151 0 -216 77q-49 59 -49 178v447zM276 734l-58 90l215 153l71 -106z" />
    <glyph glyph-name="Ucircumflex" unicode="&#xdb;" horiz-adv-x="678" 
d="M69 690h162v-444q0 -64 19 -91t90 -27q68 0 87.5 26.5t19.5 91.5v444h162v-442q0 -115 -46 -173q-68 -87 -229 -87q-151 0 -216 77q-49 59 -49 178v447zM168 826l173 121l169 -119l-57 -91l-114 71l-115 -72z" />
    <glyph glyph-name="Udieresis" unicode="&#xdc;" horiz-adv-x="678" 
d="M69 690h162v-444q0 -64 19 -91t90 -27q68 0 87.5 26.5t19.5 91.5v444h162v-442q0 -115 -46 -173q-68 -87 -229 -87q-151 0 -216 77q-49 59 -49 178v447zM441 926q33 0 55 -22t22 -56q0 -32 -22.5 -53.5t-54.5 -21.5t-53.5 21.5t-21.5 53.5q0 34 21.5 56t53.5 22zM235 926
q33 0 55 -22t22 -56q0 -32 -22.5 -53.5t-54.5 -21.5q-31 0 -53 21.5t-22 53.5q0 34 21.5 56t53.5 22z" />
    <glyph glyph-name="Yacute" unicode="&#xdd;" horiz-adv-x="568" 
d="M-10 690h185l108 -269l111 269h185l-217 -433v-257h-162v257zM221 734l-58 90l215 153l71 -106z" />
    <glyph glyph-name="Thorn" unicode="&#xde;" horiz-adv-x="614" 
d="M231 578h100q103 0 161 -41q81 -56 81 -196q0 -145 -83 -201q-58 -41 -164 -41h-95v-99h-162v690h162v-112zM231 439v-201h92q45 0 63 18q20 20 20 82q0 69 -24 88q-16 13 -63 13h-88z" />
    <glyph glyph-name="germandbls" unicode="&#xdf;" horiz-adv-x="646" 
d="M63 0v454q0 38 5 73t21.5 78.5t44.5 75t78.5 53.5t118.5 22q113 0 175 -62q58 -59 58 -179q0 -50 -7 -99h-13q-40 0 -59 -1t-39.5 -4.5t-28 -12.5t-7.5 -24q0 -19 21.5 -31t52.5 -22t62.5 -25.5t53 -50t21.5 -87.5q0 -84 -66 -130q-55 -40 -137 -40q-46 0 -93 13.5
t-75 41.5l64 107q46 -43 113 -43q24 0 34 8.5t10 28.5q0 21 -21.5 35t-52.5 24.5t-62.5 26t-53 49.5t-21.5 85q0 65 42 107q39 39 109 52q2 10 2 22q0 41 -18 60q-16 17 -56 17q-30 0 -52.5 -8.5t-35 -22.5t-20 -35t-9.5 -40.5t-2 -45.5v-470h-157z" />
    <glyph glyph-name="agrave" unicode="&#xe0;" horiz-adv-x="522" 
d="M125 359l-77 89q68 73 204 73q110 0 161 -45t51 -151v-325h-133l-1 65q-53 -78 -148 -78q-69 0 -112 40q-45 42 -45 118q0 89 63 132q60 41 178 41h54v13q0 42 -16.5 57.5t-58.5 15.5q-74 0 -120 -45zM323 218h-64q-46 0 -66.5 -12.5t-20.5 -53.5q0 -51 36 -51
q35 0 72.5 33.5t42.5 83.5zM372 629l-84 -75l-176 189l97 83z" />
    <glyph glyph-name="aacute" unicode="&#xe1;" horiz-adv-x="522" 
d="M125 359l-77 89q68 73 204 73q110 0 161 -45t51 -151v-325h-133l-1 65q-53 -78 -148 -78q-69 0 -112 40q-45 42 -45 118q0 89 63 132q60 41 178 41h54v13q0 42 -16.5 57.5t-58.5 15.5q-74 0 -120 -45zM323 218h-64q-46 0 -66.5 -12.5t-20.5 -53.5q0 -51 36 -51
q35 0 72.5 33.5t42.5 83.5zM229 554l-84 75l163 197l96 -83z" />
    <glyph glyph-name="acircumflex" unicode="&#xe2;" horiz-adv-x="522" 
d="M125 359l-77 89q68 73 204 73q110 0 161 -45t51 -151v-325h-133l-1 65q-53 -78 -148 -78q-69 0 -112 40q-45 42 -45 118q0 89 63 132q60 41 178 41h54v13q0 42 -16.5 57.5t-58.5 15.5q-74 0 -120 -45zM323 218h-64q-46 0 -66.5 -12.5t-20.5 -53.5q0 -51 36 -51
q35 0 72.5 33.5t42.5 83.5zM101 636l163 164l159 -162l-77 -78l-84 89l-85 -90z" />
    <glyph glyph-name="atilde" unicode="&#xe3;" horiz-adv-x="522" 
d="M125 359l-77 89q68 73 204 73q110 0 161 -45t51 -151v-325h-133l-1 65q-53 -78 -148 -78q-69 0 -112 40q-45 42 -45 118q0 89 63 132q60 41 178 41h54v13q0 42 -16.5 57.5t-58.5 15.5q-74 0 -120 -45zM323 218h-64q-46 0 -66.5 -12.5t-20.5 -53.5q0 -51 36 -51
q35 0 72.5 33.5t42.5 83.5zM394 762l63 -79q-35 -39 -65 -58t-69 -19q-31 0 -71.5 16.5t-58.5 16.5q-29 0 -63 -36l-63 79q36 38 66 57t69 19q30 0 71 -16.5t58 -16.5q28 0 63 37z" />
    <glyph glyph-name="adieresis" unicode="&#xe4;" horiz-adv-x="522" 
d="M125 359l-77 89q68 73 204 73q110 0 161 -45t51 -151v-325h-133l-1 65q-53 -78 -148 -78q-69 0 -112 40q-45 42 -45 118q0 89 63 132q60 41 178 41h54v13q0 42 -16.5 57.5t-58.5 15.5q-74 0 -120 -45zM323 218h-64q-46 0 -66.5 -12.5t-20.5 -53.5q0 -51 36 -51
q35 0 72.5 33.5t42.5 83.5zM364 746q32 0 54.5 -22t22.5 -56q0 -32 -22.5 -53.5t-54.5 -21.5t-53.5 21.5t-21.5 53.5q0 34 21.5 56t53.5 22zM158 746q32 0 54.5 -22t22.5 -56q0 -32 -22.5 -53.5t-54.5 -21.5t-53.5 21.5t-21.5 53.5q0 34 21.5 56t53.5 22z" />
    <glyph glyph-name="aring" unicode="&#xe5;" horiz-adv-x="522" 
d="M125 359l-77 89q68 73 204 73q110 0 161 -45t51 -151v-325h-133l-1 65q-53 -78 -148 -78q-69 0 -112 40q-45 42 -45 118q0 89 63 132q60 41 178 41h54v13q0 42 -16.5 57.5t-58.5 15.5q-74 0 -120 -45zM323 218h-64q-46 0 -66.5 -12.5t-20.5 -53.5q0 -51 36 -51
q35 0 72.5 33.5t42.5 83.5zM401 699q0 -56 -39 -91t-100 -35t-100 35t-39 91q0 57 38.5 91.5t100.5 34.5q61 0 100 -34.5t39 -91.5zM304 700q0 43 -41 43q-43 0 -43 -45q0 -44 42 -44t42 46z" />
    <glyph glyph-name="ae" unicode="&#xe6;" horiz-adv-x="818" 
d="M691 164l79 -94q-83 -82 -210 -82q-124 0 -175 89q-62 -89 -182 -89q-85 0 -131.5 42t-46.5 117q0 44 17 76t41.5 49.5t61.5 27t66.5 12t66.5 2.5h49v15q0 39 -17.5 57t-64.5 18q-75 0 -121 -42l-71 92q67 67 191 67q113 0 160 -70q53 71 160 71q104 0 157 -66t53 -171
q0 -25 -4 -65l-296 -3q1 -56 17 -82t67 -26q69 0 133 55zM328 220h-53q-54 0 -74.5 -13t-20.5 -55q0 -28 10 -40t37 -12q50 0 74 36t27 84zM477 314l144 -1q-1 53 -14.5 74.5t-53.5 21.5q-43 0 -59 -23t-17 -72z" />
    <glyph glyph-name="ccedilla" unicode="&#xe7;" horiz-adv-x="480" 
d="M363 170l93 -99q-62 -69 -160 -80l-2 -25q63 -29 63 -89q0 -49 -33 -82.5t-93 -33.5q-73 0 -119 57l61 63q24 -31 51 -31q30 0 30 27q0 32 -58 48l7 70q-62 13 -101 55q-60 65 -60 199q0 144 68 212q62 60 171 60q111 0 168 -60l-88 -105q-32 28 -79 28q-46 0 -61 -28.5
t-15 -99.5q0 -72 13.5 -102t51.5 -30q51 0 92 46z" />
    <glyph glyph-name="egrave" unicode="&#xe8;" horiz-adv-x="544" 
d="M416 163l77 -90q-84 -85 -217 -85q-105 0 -165 52q-69 61 -69 205t67 214q62 64 175 64q216 0 216 -246q0 -28 -4 -60l-301 -3q1 -55 18 -80t68 -25q76 0 135 54zM197 317h154q-1 49 -15 70.5t-58 21.5t-61.5 -23t-19.5 -69zM385 629l-84 -75l-176 189l97 83z" />
    <glyph glyph-name="eacute" unicode="&#xe9;" horiz-adv-x="544" 
d="M416 163l77 -90q-84 -85 -217 -85q-105 0 -165 52q-69 61 -69 205t67 214q62 64 175 64q216 0 216 -246q0 -28 -4 -60l-301 -3q1 -55 18 -80t68 -25q76 0 135 54zM197 317h154q-1 49 -15 70.5t-58 21.5t-61.5 -23t-19.5 -69zM242 554l-84 75l163 197l96 -83z" />
    <glyph glyph-name="ecircumflex" unicode="&#xea;" horiz-adv-x="544" 
d="M416 163l77 -90q-84 -85 -217 -85q-105 0 -165 52q-69 61 -69 205t67 214q62 64 175 64q216 0 216 -246q0 -28 -4 -60l-301 -3q1 -55 18 -80t68 -25q76 0 135 54zM197 317h154q-1 49 -15 70.5t-58 21.5t-61.5 -23t-19.5 -69zM114 636l163 164l159 -162l-77 -78l-84 89
l-85 -90z" />
    <glyph glyph-name="edieresis" unicode="&#xeb;" horiz-adv-x="544" 
d="M416 163l77 -90q-84 -85 -217 -85q-105 0 -165 52q-69 61 -69 205t67 214q62 64 175 64q216 0 216 -246q0 -28 -4 -60l-301 -3q1 -55 18 -80t68 -25q76 0 135 54zM197 317h154q-1 49 -15 70.5t-58 21.5t-61.5 -23t-19.5 -69zM377 746q33 0 55 -22t22 -56
q0 -32 -22.5 -53.5t-54.5 -21.5t-53.5 21.5t-21.5 53.5q0 34 21.5 56t53.5 22zM171 746q33 0 55 -22t22 -56q0 -32 -22.5 -53.5t-54.5 -21.5q-31 0 -53 21.5t-22 53.5q0 34 21.5 56t53.5 22z" />
    <glyph glyph-name="igrave" unicode="&#xec;" horiz-adv-x="282" 
d="M63 510h157v-510h-157v510zM251 629l-84 -75l-176 189l97 83z" />
    <glyph glyph-name="iacute" unicode="&#xed;" horiz-adv-x="282" 
d="M63 510h157v-510h-157v510zM108 554l-84 75l163 197l96 -83z" />
    <glyph glyph-name="icircumflex" unicode="&#xee;" horiz-adv-x="282" 
d="M63 510h157v-510h-157v510zM-20 636l163 164l159 -162l-77 -78l-84 89l-85 -90z" />
    <glyph glyph-name="idieresis" unicode="&#xef;" horiz-adv-x="282" 
d="M63 510h157v-510h-157v510zM243 746q33 0 55 -22t22 -56q0 -32 -22.5 -53.5t-54.5 -21.5t-53.5 21.5t-21.5 53.5q0 34 21.5 56t53.5 22zM37 746q33 0 55 -22t22 -56q0 -32 -22.5 -53.5t-54.5 -21.5q-31 0 -53 21.5t-22 53.5q0 34 21.5 56t53.5 22z" />
    <glyph glyph-name="eth" unicode="&#xf0;" horiz-adv-x="586" 
d="M220 578l54 43q-36 26 -96 53l66 122q89 -38 147 -82l76 61l64 -81l-66 -52q80 -105 80 -299q0 -356 -266 -356q-116 0 -176.5 67t-60.5 181q0 110 57 174t172 64q72 0 110 -33q-4 61 -34 110l-64 -50zM291 353q-51 0 -68 -25.5t-17 -88.5q0 -69 19.5 -95.5t67.5 -26.5
q52 0 71 32t19 96q0 57 -21.5 82.5t-70.5 25.5z" />
    <glyph glyph-name="ntilde" unicode="&#xf1;" horiz-adv-x="569" 
d="M63 510h146v-78q49 91 152 91q74 0 112 -47t38 -135v-341h-158v316q0 32 -8 47t-30 15q-40 0 -67.5 -45t-27.5 -128v-205h-157v510zM414 762l63 -79q-35 -39 -65 -58t-69 -19q-31 0 -71.5 16.5t-58.5 16.5q-29 0 -63 -36l-63 79q36 38 66 57t69 19q30 0 71 -16.5
t58 -16.5q28 0 63 37z" />
    <glyph glyph-name="ograve" unicode="&#xf2;" horiz-adv-x="560" 
d="M518 261q0 -78 -15.5 -128.5t-54.5 -87.5q-63 -60 -172 -60q-106 0 -166 55q-38 34 -53 83t-15 125q0 79 15.5 129t53.5 87q64 62 173 62q107 0 167 -55q37 -34 52 -84t15 -126zM358 260q0 88 -24 116q-15 18 -50 18q-40 0 -56 -20q-25 -29 -25 -123q0 -92 23 -117
q16 -18 52 -18t54 21q26 30 26 123zM390 629l-84 -75l-176 189l97 83z" />
    <glyph glyph-name="oacute" unicode="&#xf3;" horiz-adv-x="560" 
d="M518 261q0 -78 -15.5 -128.5t-54.5 -87.5q-63 -60 -172 -60q-106 0 -166 55q-38 34 -53 83t-15 125q0 79 15.5 129t53.5 87q64 62 173 62q107 0 167 -55q37 -34 52 -84t15 -126zM358 260q0 88 -24 116q-15 18 -50 18q-40 0 -56 -20q-25 -29 -25 -123q0 -92 23 -117
q16 -18 52 -18t54 21q26 30 26 123zM247 554l-84 75l163 197l96 -83z" />
    <glyph glyph-name="ocircumflex" unicode="&#xf4;" horiz-adv-x="560" 
d="M518 261q0 -78 -15.5 -128.5t-54.5 -87.5q-63 -60 -172 -60q-106 0 -166 55q-38 34 -53 83t-15 125q0 79 15.5 129t53.5 87q64 62 173 62q107 0 167 -55q37 -34 52 -84t15 -126zM358 260q0 88 -24 116q-15 18 -50 18q-40 0 -56 -20q-25 -29 -25 -123q0 -92 23 -117
q16 -18 52 -18t54 21q26 30 26 123zM119 636l163 164l159 -162l-77 -78l-84 89l-85 -90z" />
    <glyph glyph-name="otilde" unicode="&#xf5;" horiz-adv-x="560" 
d="M518 261q0 -78 -15.5 -128.5t-54.5 -87.5q-63 -60 -172 -60q-106 0 -166 55q-38 34 -53 83t-15 125q0 79 15.5 129t53.5 87q64 62 173 62q107 0 167 -55q37 -34 52 -84t15 -126zM358 260q0 88 -24 116q-15 18 -50 18q-40 0 -56 -20q-25 -29 -25 -123q0 -92 23 -117
q16 -18 52 -18t54 21q26 30 26 123zM412 762l63 -79q-35 -39 -65 -58t-69 -19q-31 0 -71.5 16.5t-58.5 16.5q-29 0 -63 -36l-63 79q36 38 66 57t69 19q30 0 71 -16.5t58 -16.5q28 0 63 37z" />
    <glyph glyph-name="odieresis" unicode="&#xf6;" horiz-adv-x="560" 
d="M518 261q0 -78 -15.5 -128.5t-54.5 -87.5q-63 -60 -172 -60q-106 0 -166 55q-38 34 -53 83t-15 125q0 79 15.5 129t53.5 87q64 62 173 62q107 0 167 -55q37 -34 52 -84t15 -126zM358 260q0 88 -24 116q-15 18 -50 18q-40 0 -56 -20q-25 -29 -25 -123q0 -92 23 -117
q16 -18 52 -18t54 21q26 30 26 123zM382 746q32 0 54.5 -22t22.5 -56q0 -32 -22.5 -53.5t-54.5 -21.5t-53.5 21.5t-21.5 53.5q0 34 21.5 56t53.5 22zM176 746q32 0 54.5 -22t22.5 -56q0 -32 -22.5 -53.5t-54.5 -21.5t-53.5 21.5t-21.5 53.5q0 34 21.5 56t53.5 22z" />
    <glyph glyph-name="divide" unicode="&#xf7;" horiz-adv-x="567" 
d="M211 95q0 30 21.5 51t51.5 21q31 0 51.5 -20.5t20.5 -51.5t-20.5 -52t-51.5 -21q-30 0 -51.5 21.5t-21.5 51.5zM211 447q0 30 21 51.5t52 21.5t52 -21t21 -52q0 -30 -21 -51t-52 -21t-52 21t-21 51zM507 210h-446v122h446v-122z" />
    <glyph glyph-name="oslash" unicode="&#xf8;" horiz-adv-x="573" 
d="M539 523l-61 -84q46 -63 46 -177q0 -140 -71 -211q-64 -64 -175 -64q-42 0 -76 9l-58 -90l-117 81l60 84q-45 62 -45 175q0 141 71 212q63 65 175 65q42 0 76 -9l57 90zM360 264q0 88 -27 113q-15 14 -46 14q-38 0 -55 -21q-26 -29 -26 -123q0 -83 22 -109q16 -19 52 -19
q41 0 58 26q22 29 22 119z" />
    <glyph glyph-name="ugrave" unicode="&#xf9;" horiz-adv-x="566" 
d="M503 0h-145v78q-49 -91 -149 -91q-146 0 -146 181v342h156v-318q0 -62 39 -62q36 0 62.5 44.5t26.5 126.5v209h156v-510zM393 629l-84 -75l-176 189l97 83z" />
    <glyph glyph-name="uacute" unicode="&#xfa;" horiz-adv-x="566" 
d="M503 0h-145v78q-49 -91 -149 -91q-146 0 -146 181v342h156v-318q0 -62 39 -62q36 0 62.5 44.5t26.5 126.5v209h156v-510zM250 554l-84 75l163 197l96 -83z" />
    <glyph glyph-name="ucircumflex" unicode="&#xfb;" horiz-adv-x="566" 
d="M503 0h-145v78q-49 -91 -149 -91q-146 0 -146 181v342h156v-318q0 -62 39 -62q36 0 62.5 44.5t26.5 126.5v209h156v-510zM122 636l163 164l159 -162l-77 -78l-84 89l-85 -90z" />
    <glyph glyph-name="udieresis" unicode="&#xfc;" horiz-adv-x="566" 
d="M503 0h-145v78q-49 -91 -149 -91q-146 0 -146 181v342h156v-318q0 -62 39 -62q36 0 62.5 44.5t26.5 126.5v209h156v-510zM385 746q33 0 55 -22t22 -56q0 -32 -22.5 -53.5t-54.5 -21.5t-53.5 21.5t-21.5 53.5q0 34 21.5 56t53.5 22zM179 746q33 0 55 -22t22 -56
q0 -32 -22.5 -53.5t-54.5 -21.5q-31 0 -53 21.5t-22 53.5q0 34 21.5 56t53.5 22z" />
    <glyph glyph-name="yacute" unicode="&#xfd;" horiz-adv-x="535" 
d="M525 510l-137 -480q-37 -130 -98 -196.5t-153 -66.5q-66 0 -100 24l47 127q20 -12 49 -12q38 0 60.5 25.5t39.5 87.5h-72l-151 491h167l97 -392l88 392h163zM234 554l-84 75l163 197l96 -83z" />
    <glyph glyph-name="thorn" unicode="&#xfe;" horiz-adv-x="578" 
d="M63 765h157v-312q50 70 141 70q65 0 111 -44q64 -64 64 -221q0 -158 -72 -223q-52 -47 -135 -47q-64 0 -109 36v-254h-157v995zM319 387q-36 0 -67 -42q-38 -53 -38 -131q0 -47 22 -73q21 -25 63 -25t57 30t15 111q0 72 -11.5 101t-40.5 29z" />
    <glyph glyph-name="ydieresis" unicode="&#xff;" horiz-adv-x="535" 
d="M525 510l-137 -480q-37 -130 -98 -196.5t-153 -66.5q-66 0 -100 24l47 127q20 -12 49 -12q38 0 60.5 25.5t39.5 87.5h-72l-151 491h167l97 -392l88 392h163zM369 746q33 0 55 -22t22 -56q0 -32 -22.5 -53.5t-54.5 -21.5t-53.5 21.5t-21.5 53.5q0 34 21.5 56t53.5 22z
M163 746q33 0 55 -22t22 -56q0 -32 -22.5 -53.5t-54.5 -21.5q-31 0 -53 21.5t-22 53.5q0 34 21.5 56t53.5 22z" />
    <glyph glyph-name="Amacron" unicode="&#x100;" horiz-adv-x="622" 
d="M625 0h-170l-37 131h-219l-37 -131h-165l217 690h194zM384 260l-75 267l-75 -267h150zM473 781h-324v116h324v-116z" />
    <glyph glyph-name="amacron" unicode="&#x101;" horiz-adv-x="522" 
d="M125 359l-77 89q68 73 204 73q110 0 161 -45t51 -151v-325h-133l-1 65q-53 -78 -148 -78q-69 0 -112 40q-45 42 -45 118q0 89 63 132q60 41 178 41h54v13q0 42 -16.5 57.5t-58.5 15.5q-74 0 -120 -45zM323 218h-64q-46 0 -66.5 -12.5t-20.5 -53.5q0 -51 36 -51
q35 0 72.5 33.5t42.5 83.5zM424 601h-324v116h324v-116z" />
    <glyph glyph-name="Abreve" unicode="&#x102;" horiz-adv-x="622" 
d="M625 0h-170l-37 131h-219l-37 -131h-165l217 690h194zM384 260l-75 267l-75 -267h150zM387 934h112q-4 -84 -56.5 -131.5t-130.5 -47.5t-131 47.5t-58 131.5h113q2 -38 21.5 -61.5t54.5 -23.5q68 0 75 85z" />
    <glyph glyph-name="abreve" unicode="&#x103;" horiz-adv-x="522" 
d="M125 359l-77 89q68 73 204 73q110 0 161 -45t51 -151v-325h-133l-1 65q-53 -78 -148 -78q-69 0 -112 40q-45 42 -45 118q0 89 63 132q60 41 178 41h54v13q0 42 -16.5 57.5t-58.5 15.5q-74 0 -120 -45zM323 218h-64q-46 0 -66.5 -12.5t-20.5 -53.5q0 -51 36 -51
q35 0 72.5 33.5t42.5 83.5zM338 754h112q-4 -84 -56.5 -131.5t-130.5 -47.5t-131 47.5t-58 131.5h113q2 -38 21.5 -61.5t54.5 -23.5q68 0 75 85z" />
    <glyph glyph-name="Aogonek" unicode="&#x104;" horiz-adv-x="617" 
d="M623 0q-146 -58 -146 -109q0 -29 34 -29q33 0 61 34l73 -78q-55 -61 -142 -61q-71 0 -111.5 33.5t-40.5 85.5q0 73 99 131l-34 124h-219l-37 -131h-166l218 690h194zM382 260l-75 267l-76 -267h151z" />
    <glyph glyph-name="aogonek" unicode="&#x105;" horiz-adv-x="525" 
d="M126 359l-77 89q68 73 204 73q110 0 161 -45t51 -151v-325q-114 -52 -114 -101q0 -31 31 -31q30 0 56 32l69 -73q-51 -58 -132 -58q-68 0 -105.5 32.5t-37.5 83.5q0 35 22 65.5t78 66.5l-1 54q-58 -84 -148 -84q-69 0 -112 40q-45 42 -45 118q0 93 72 137q62 36 171 36
h52v13q0 42 -16.5 57.5t-59.5 15.5q-73 0 -119 -45zM324 218h-60q-50 0 -70.5 -12t-20.5 -56q0 -49 39 -49q32 0 68.5 34t43.5 83z" />
    <glyph glyph-name="Cacute" unicode="&#x106;" horiz-adv-x="565" 
d="M452 196l95 -100q-92 -108 -239 -108q-121 0 -187 69q-80 81 -80 280q0 203 82 289q71 76 207 76q137 0 208 -76l-88 -111q-49 46 -125 46q-65 0 -90 -39q-26 -41 -26 -182q0 -140 30 -180q24 -33 75 -33q77 0 138 69zM259 734l-58 90l215 153l71 -106z" />
    <glyph glyph-name="cacute" unicode="&#x107;" horiz-adv-x="480" 
d="M363 170l93 -99q-72 -81 -194 -81q-104 0 -160 61q-60 65 -60 198q0 145 68 213q62 60 170 60q111 0 169 -59l-88 -106q-32 28 -79 28q-46 0 -61 -28.5t-15 -100.5q0 -71 13.5 -101.5t50.5 -30.5q50 0 93 46zM230 554l-84 75l163 197l96 -83z" />
    <glyph glyph-name="Ccircumflex" unicode="&#x108;" horiz-adv-x="565" 
d="M452 196l95 -100q-92 -108 -239 -108q-121 0 -187 69q-80 81 -80 280q0 203 82 289q71 76 207 76q137 0 208 -76l-88 -111q-49 46 -125 46q-65 0 -90 -39q-26 -41 -26 -182q0 -140 30 -180q24 -33 75 -33q77 0 138 69zM151 826l173 121l169 -119l-57 -91l-114 71
l-115 -72z" />
    <glyph glyph-name="ccircumflex" unicode="&#x109;" horiz-adv-x="480" 
d="M363 170l93 -99q-72 -81 -194 -81q-104 0 -160 61q-60 65 -60 198q0 145 68 213q62 60 170 60q111 0 169 -59l-88 -106q-32 28 -79 28q-46 0 -61 -28.5t-15 -100.5q0 -71 13.5 -101.5t50.5 -30.5q50 0 93 46zM102 636l163 164l159 -162l-77 -78l-84 89l-85 -90z" />
    <glyph glyph-name="Cdotaccent" unicode="&#x10a;" horiz-adv-x="565" 
d="M452 196l95 -100q-92 -108 -239 -108q-121 0 -187 69q-80 81 -80 280q0 203 82 289q71 76 207 76q137 0 208 -76l-88 -111q-49 46 -125 46q-65 0 -90 -39q-26 -41 -26 -182q0 -140 30 -180q24 -33 75 -33q77 0 138 69zM241 852q0 35 23 59t57 24q35 0 58.5 -24t23.5 -59
t-23.5 -58t-58.5 -23q-34 0 -57 23.5t-23 57.5z" />
    <glyph glyph-name="cdotaccent" unicode="&#x10b;" horiz-adv-x="480" 
d="M363 170l93 -99q-72 -81 -194 -81q-104 0 -160 61q-60 65 -60 198q0 145 68 213q62 60 170 60q111 0 169 -59l-88 -106q-32 28 -79 28q-46 0 -61 -28.5t-15 -100.5q0 -71 13.5 -101.5t50.5 -30.5q50 0 93 46zM182 672q0 35 23 59t57 24q35 0 58.5 -24t23.5 -59t-23.5 -58
t-58.5 -23q-34 0 -57 23.5t-23 57.5z" />
    <glyph glyph-name="Ccaron" unicode="&#x10c;" horiz-adv-x="565" 
d="M452 196l95 -100q-92 -108 -239 -108q-121 0 -187 69q-80 81 -80 280q0 203 82 289q71 76 207 76q137 0 208 -76l-88 -111q-49 46 -125 46q-65 0 -90 -39q-26 -41 -26 -182q0 -140 30 -180q24 -33 75 -33q77 0 138 69zM493 849l-173 -120l-169 118l58 91l114 -71l114 72z
" />
    <glyph glyph-name="ccaron" unicode="&#x10d;" horiz-adv-x="480" 
d="M363 170l93 -99q-72 -81 -194 -81q-104 0 -160 61q-60 65 -60 198q0 145 68 213q62 60 170 60q111 0 169 -59l-88 -106q-32 28 -79 28q-46 0 -61 -28.5t-15 -100.5q0 -71 13.5 -101.5t50.5 -30.5q50 0 93 46zM424 715l-163 -164l-159 162l77 78l84 -89l86 90z" />
    <glyph glyph-name="Dcaron" unicode="&#x10e;" horiz-adv-x="662" 
d="M69 690h271q137 0 204 -64q43 -41 60 -107.5t17 -165.5q0 -100 -18 -172t-67 -117q-69 -64 -191 -64h-276v690zM232 549v-408h99q63 0 91 33q31 35 31 172t-32 173q-27 30 -89 30h-100zM501 849l-173 -120l-169 118l58 91l114 -71l114 72z" />
    <glyph glyph-name="dcaron" unicode="&#x10f;" horiz-adv-x="578" 
d="M358 765h157v-765h-147l-2 67q-52 -80 -149 -80q-71 0 -115 49q-60 66 -60 215q0 155 67 219q54 52 142 52q68 0 107 -36v279zM258 121q34 0 64 38q42 53 42 130q0 55 -26 81q-21 21 -59 21q-44 0 -58 -31t-14 -107q0 -74 11 -103t40 -29zM569 705q0 39 25 65.5t67 26.5
q43 0 67.5 -26.5t24.5 -67.5q0 -96 -100 -247l-98 50q42 83 54 125q-40 22 -40 74z" />
    <glyph glyph-name="Dcroat" unicode="&#x110;" horiz-adv-x="672" 
d="M79 690h272q139 0 206 -69q74 -75 74 -268q0 -195 -78 -279q-71 -74 -199 -74h-275v282h-57v137h57v271zM236 549v-130h99v-137h-99v-141h106q72 0 97 40q23 36 23 167q0 136 -26 169q-25 32 -93 32h-107z" />
    <glyph glyph-name="dcroat" unicode="&#x111;" horiz-adv-x="578" 
d="M590 577h-75v-577h-147l-2 67q-52 -80 -149 -80q-71 0 -115 49q-60 66 -60 214q0 156 67 220q54 52 142 52q68 0 107 -36v91h-99v119h99v69h157v-69h75v-119zM260 121q32 0 63 39q41 50 41 130q0 54 -26 80q-21 21 -58 21q-45 0 -59 -30.5t-14 -109.5q0 -74 11 -102
t42 -28z" />
    <glyph glyph-name="Emacron" unicode="&#x112;" horiz-adv-x="538" 
d="M69 690h413v-135h-255v-138h232v-135h-232v-148h260v-134h-418v690zM444 781h-324v116h324v-116z" />
    <glyph glyph-name="emacron" unicode="&#x113;" horiz-adv-x="544" 
d="M416 163l77 -90q-84 -85 -217 -85q-105 0 -165 52q-69 61 -69 205t67 214q62 64 175 64q216 0 216 -246q0 -28 -4 -60l-301 -3q1 -55 18 -80t68 -25q76 0 135 54zM197 317h154q-1 49 -15 70.5t-58 21.5t-61.5 -23t-19.5 -69zM437 601h-324v116h324v-116z" />
    <glyph glyph-name="Ebreve" unicode="&#x114;" horiz-adv-x="538" 
d="M69 690h413v-135h-255v-138h232v-135h-232v-148h260v-134h-418v690zM358 934h112q-4 -84 -56.5 -131.5t-130.5 -47.5t-131 47.5t-58 131.5h113q2 -38 21.5 -61.5t54.5 -23.5q68 0 75 85z" />
    <glyph glyph-name="ebreve" unicode="&#x115;" horiz-adv-x="544" 
d="M416 163l77 -90q-84 -85 -217 -85q-105 0 -165 52q-69 61 -69 205t67 214q62 64 175 64q216 0 216 -246q0 -28 -4 -60l-301 -3q1 -55 18 -80t68 -25q76 0 135 54zM197 317h154q-1 49 -15 70.5t-58 21.5t-61.5 -23t-19.5 -69zM351 754h112q-4 -84 -56.5 -131.5
t-130.5 -47.5t-131 47.5t-58 131.5h113q2 -38 21.5 -61.5t54.5 -23.5q68 0 75 85z" />
    <glyph glyph-name="Edotaccent" unicode="&#x116;" horiz-adv-x="538" 
d="M69 690h413v-135h-255v-138h232v-135h-232v-148h260v-134h-418v690zM201 852q0 35 23 59t57 24q35 0 58.5 -24t23.5 -59t-23.5 -58t-58.5 -23q-34 0 -57 23.5t-23 57.5z" />
    <glyph glyph-name="edotaccent" unicode="&#x117;" horiz-adv-x="544" 
d="M416 163l77 -90q-84 -85 -217 -85q-105 0 -165 52q-69 61 -69 205t67 214q62 64 175 64q216 0 216 -246q0 -28 -4 -60l-301 -3q1 -55 18 -80t68 -25q76 0 135 54zM197 317h154q-1 49 -15 70.5t-58 21.5t-61.5 -23t-19.5 -69zM194 672q0 35 23 59t57 24q35 0 58.5 -24
t23.5 -59t-23.5 -58t-58.5 -23q-34 0 -57 23.5t-23 57.5z" />
    <glyph glyph-name="Eogonek" unicode="&#x118;" horiz-adv-x="538" 
d="M69 690h413v-135h-255v-138h232v-135h-232v-148h260v-134q-72 -19 -114.5 -50t-42.5 -59q0 -29 33 -29q34 0 62 34l73 -78q-54 -60 -142 -60q-70 0 -111 33t-41 84q0 74 93 125h-228v690z" />
    <glyph glyph-name="eogonek" unicode="&#x119;" horiz-adv-x="545" 
d="M419 -100l69 -73q-51 -58 -131 -58q-68 0 -106 32.5t-38 83.5q0 54 41 103q-96 4 -151 62q-61 64 -61 196q0 142 67 213q62 64 174 64q217 0 217 -241q0 -33 -4 -65l-302 -3q2 -55 18.5 -80t68.5 -25q75 0 134 54l77 -89q-23 -23 -66 -53q-94 -66 -94 -119q0 -34 31 -34
q30 0 56 32zM197 317h153q-1 49 -15 70.5t-57 21.5q-45 0 -62.5 -23t-18.5 -69z" />
    <glyph glyph-name="Ecaron" unicode="&#x11a;" horiz-adv-x="538" 
d="M69 690h413v-135h-255v-138h232v-135h-232v-148h260v-134h-418v690zM453 849l-173 -120l-169 118l58 91l114 -71l114 72z" />
    <glyph glyph-name="ecaron" unicode="&#x11b;" horiz-adv-x="544" 
d="M416 163l77 -90q-84 -85 -217 -85q-105 0 -165 52q-69 61 -69 205t67 214q62 64 175 64q216 0 216 -246q0 -28 -4 -60l-301 -3q1 -55 18 -80t68 -25q76 0 135 54zM197 317h154q-1 49 -15 70.5t-58 21.5t-61.5 -23t-19.5 -69zM436 715l-163 -164l-159 162l77 78l84 -89
l86 90z" />
    <glyph glyph-name="Gcircumflex" unicode="&#x11c;" horiz-adv-x="647" 
d="M329 393h260v-358q-110 -45 -236 -45q-156 0 -233 75q-46 45 -62.5 111t-16.5 160q0 103 18 174t65 116q76 74 228 74q153 0 231 -72l-93 -114q-55 46 -146 46q-74 0 -103 -34q-17 -20 -23.5 -59t-6.5 -121q0 -91 7.5 -133t25.5 -61q28 -31 102 -31q58 0 97 12v130h-114
v130zM187 826l173 121l169 -119l-57 -91l-114 71l-115 -72z" />
    <glyph glyph-name="gcircumflex" unicode="&#x11d;" 
d="M382 510h133v-502q0 -49 -12.5 -89.5t-41 -76.5t-83.5 -56t-132 -20q-133 0 -197 59l73 111q51 -41 131 -41q64 0 85.5 24t21.5 76v72q-50 -70 -140 -70q-78 0 -125 56q-53 65 -53 201q0 146 63 213q52 54 138 54q88 0 137 -61zM260 126q38 0 67 37q37 48 37 121
q0 55 -27 83q-25 25 -62 25q-41 0 -54.5 -30.5t-13.5 -104.5q0 -72 11 -101.5t42 -29.5zM135 636l163 164l159 -162l-77 -78l-84 89l-85 -90z" />
    <glyph glyph-name="Gbreve" unicode="&#x11e;" horiz-adv-x="647" 
d="M329 393h260v-358q-110 -45 -236 -45q-156 0 -233 75q-46 45 -62.5 111t-16.5 160q0 103 18 174t65 116q76 74 228 74q153 0 231 -72l-93 -114q-55 46 -146 46q-74 0 -103 -34q-17 -20 -23.5 -59t-6.5 -121q0 -91 7.5 -133t25.5 -61q28 -31 102 -31q58 0 97 12v130h-114
v130zM434 934h112q-4 -84 -56.5 -131.5t-130.5 -47.5t-131 47.5t-58 131.5h113q2 -38 21.5 -61.5t54.5 -23.5q68 0 75 85z" />
    <glyph glyph-name="gbreve" unicode="&#x11f;" 
d="M382 510h133v-502q0 -49 -12.5 -89.5t-41 -76.5t-83.5 -56t-132 -20q-133 0 -197 59l73 111q51 -41 131 -41q64 0 85.5 24t21.5 76v72q-50 -70 -140 -70q-78 0 -125 56q-53 65 -53 201q0 146 63 213q52 54 138 54q88 0 137 -61zM260 126q38 0 67 37q37 48 37 121
q0 55 -27 83q-25 25 -62 25q-41 0 -54.5 -30.5t-13.5 -104.5q0 -72 11 -101.5t42 -29.5zM372 754h112q-4 -84 -56.5 -131.5t-130.5 -47.5t-131 47.5t-58 131.5h113q2 -38 21.5 -61.5t54.5 -23.5q68 0 75 85z" />
    <glyph glyph-name="Gdotaccent" unicode="&#x120;" horiz-adv-x="647" 
d="M329 393h260v-358q-110 -45 -236 -45q-156 0 -233 75q-46 45 -62.5 111t-16.5 160q0 103 18 174t65 116q76 74 228 74q153 0 231 -72l-93 -114q-55 46 -146 46q-74 0 -103 -34q-17 -20 -23.5 -59t-6.5 -121q0 -91 7.5 -133t25.5 -61q28 -31 102 -31q58 0 97 12v130h-114
v130zM277 852q0 35 23 59t57 24q35 0 58.5 -24t23.5 -59t-23.5 -58t-58.5 -23q-34 0 -57 23.5t-23 57.5z" />
    <glyph glyph-name="gdotaccent" unicode="&#x121;" 
d="M382 510h133v-502q0 -49 -12.5 -89.5t-41 -76.5t-83.5 -56t-132 -20q-133 0 -197 59l73 111q51 -41 131 -41q64 0 85.5 24t21.5 76v72q-50 -70 -140 -70q-78 0 -125 56q-53 65 -53 201q0 146 63 213q52 54 138 54q88 0 137 -61zM260 126q38 0 67 37q37 48 37 121
q0 55 -27 83q-25 25 -62 25q-41 0 -54.5 -30.5t-13.5 -104.5q0 -72 11 -101.5t42 -29.5zM215 672q0 35 23 59t57 24q35 0 58.5 -24t23.5 -59t-23.5 -58t-58.5 -23q-34 0 -57 23.5t-23 57.5z" />
    <glyph glyph-name="Gcommaaccent" unicode="&#x122;" horiz-adv-x="647" 
d="M329 393h260v-358q-110 -45 -236 -45q-156 0 -233 75q-46 45 -62.5 111t-16.5 160q0 103 18 174t65 116q76 74 228 74q153 0 231 -72l-93 -114q-55 46 -146 46q-74 0 -103 -34q-17 -20 -23.5 -59t-6.5 -121q0 -91 7.5 -133t25.5 -61q28 -31 102 -31q58 0 97 12v130h-114
v130zM260 -118q0 34 23.5 57.5t62.5 23.5t62 -23t23 -62q0 -77 -86 -202l-90 44q31 58 42 97q-37 20 -37 65z" />
    <glyph glyph-name="gcommaaccent" unicode="&#x123;" 
d="M382 510h133v-502q0 -49 -12.5 -89.5t-41 -76.5t-83.5 -56t-132 -20q-133 0 -197 59l73 111q51 -41 131 -41q64 0 85.5 24t21.5 76v72q-50 -70 -140 -70q-78 0 -125 56q-53 65 -53 201q0 146 63 213q52 54 138 54q88 0 137 -61zM260 126q38 0 67 37q37 48 37 121
q0 55 -27 83q-25 25 -62 25q-41 0 -54.5 -30.5t-13.5 -104.5q0 -72 11 -101.5t42 -29.5zM366 649q0 -37 -24 -61.5t-64 -24.5q-39 0 -62.5 24.5t-23.5 63.5q0 87 95 231l91 -47q-42 -84 -50 -117q38 -21 38 -69z" />
    <glyph glyph-name="Hcircumflex" unicode="&#x124;" horiz-adv-x="678" 
d="M69 690h162v-266h217v266h161v-690h-161v280h-217v-280h-162v690zM168 826l173 121l169 -119l-57 -91l-114 71l-115 -72z" />
    <glyph glyph-name="hcircumflex" unicode="&#x125;" horiz-adv-x="569" 
d="M63 765h157v-319q44 77 144 77q71 0 109 -47t38 -135v-341h-158v319q0 31 -8 45t-29 14q-39 0 -67.5 -44t-28.5 -131v-203h-157v765zM209 636l163 164l159 -162l-77 -78l-84 89l-85 -90z" />
    <glyph glyph-name="Hbar" unicode="&#x126;" horiz-adv-x="711" 
d="M86 690h161v-96h217v96h162v-96h109v-102h-109v-492h-162v280h-217v-280h-161v492h-109v102h109v96zM247 424h217v68h-217v-68z" />
    <glyph glyph-name="Itilde" unicode="&#x128;" horiz-adv-x="299" 
d="M69 690h162v-690h-162v690zM282 942l63 -79q-35 -39 -65 -58t-69 -19q-31 0 -71.5 16.5t-58.5 16.5q-29 0 -63 -36l-63 79q36 38 66 57t69 19q30 0 71 -16.5t58 -16.5q28 0 63 37z" />
    <glyph glyph-name="itilde" unicode="&#x129;" horiz-adv-x="282" 
d="M63 510h157v-510h-157v510zM273 762l63 -79q-35 -39 -65 -58t-69 -19q-31 0 -71.5 16.5t-58.5 16.5q-29 0 -63 -36l-63 79q36 38 66 57t69 19q30 0 71 -16.5t58 -16.5q28 0 63 37z" />
    <glyph glyph-name="Imacron" unicode="&#x12a;" horiz-adv-x="299" 
d="M69 690h162v-690h-162v690zM312 781h-324v116h324v-116z" />
    <glyph glyph-name="imacron" unicode="&#x12b;" horiz-adv-x="282" 
d="M63 510h157v-510h-157v510zM303 601h-324v116h324v-116z" />
    <glyph glyph-name="Iogonek" unicode="&#x12e;" horiz-adv-x="300" 
d="M221 -104l74 -78q-55 -61 -140 -61q-73 0 -113.5 35.5t-40.5 90.5q0 67 68 123v684h162v-690q-103 -48 -103 -102q0 -35 34 -35q32 0 59 33z" />
    <glyph glyph-name="iogonek" unicode="&#x12f;" horiz-adv-x="281" 
d="M209 -104l74 -78q-55 -61 -140 -61q-73 0 -113.5 35.5t-40.5 90.5q0 69 73 127v500h157v-510q-103 -48 -103 -102q0 -35 34 -35q31 0 59 33zM49 678q0 40 26 67t65 27q40 0 66.5 -27t26.5 -67t-26.5 -66.5t-66.5 -26.5q-39 0 -65 26.5t-26 66.5z" />
    <glyph glyph-name="Idotaccent" unicode="&#x130;" horiz-adv-x="299" 
d="M69 690h162v-690h-162v690zM69 852q0 35 23 59t57 24q35 0 58.5 -24t23.5 -59t-23.5 -58t-58.5 -23q-34 0 -57 23.5t-23 57.5z" />
    <glyph glyph-name="dotlessi" unicode="&#x131;" horiz-adv-x="282" 
d="M63 510h157v-510h-157v510z" />
    <glyph glyph-name="Kcommaaccent" unicode="&#x136;" horiz-adv-x="656" 
d="M69 690h162v-261h61l161 261h185l-206 -334l223 -356h-193l-171 277h-60v-277h-162v690zM243 -118q0 34 23.5 57.5t62.5 23.5t62 -23t23 -62q0 -77 -86 -202l-90 44q31 58 42 97q-37 20 -37 65z" />
    <glyph glyph-name="kcommaaccent" unicode="&#x137;" horiz-adv-x="560" 
d="M63 765h157v-428h38l95 173h185l-155 -245l170 -265h-193l-107 187h-33v-187h-157v765zM190 -118q0 34 23.5 57.5t62.5 23.5t62 -23t23 -62q0 -77 -86 -202l-90 44q31 58 42 97q-37 20 -37 65z" />
    <glyph glyph-name="Lacute" unicode="&#x139;" horiz-adv-x="491" 
d="M69 690h162v-546h237v-144h-399v690zM147 690l-84 75l163 197l96 -83z" />
    <glyph glyph-name="lacute" unicode="&#x13a;" horiz-adv-x="282" 
d="M63 765h157v-765h-157v765zM127 760l-84 75l163 197l96 -83z" />
    <glyph glyph-name="Lcommaaccent" unicode="&#x13b;" horiz-adv-x="491" 
d="M69 690h162v-546h237v-144h-399v690zM194 -118q0 34 23.5 57.5t62.5 23.5t62 -23t23 -62q0 -77 -86 -202l-90 44q31 58 42 97q-37 20 -37 65z" />
    <glyph glyph-name="lcommaaccent" unicode="&#x13c;" horiz-adv-x="282" 
d="M63 765h157v-765h-157v765zM57 -118q0 34 23.5 57.5t62.5 23.5t62 -23t23 -62q0 -77 -86 -202l-90 44q31 58 42 97q-37 20 -37 65z" />
    <glyph glyph-name="Lcaron" unicode="&#x13d;" horiz-adv-x="491" 
d="M69 690h162v-546h237v-144h-399v690zM277 622q0 39 25 65.5t67 26.5q43 0 67.5 -26.5t24.5 -67.5q0 -96 -100 -247l-98 50q42 83 54 125q-40 22 -40 74z" />
    <glyph glyph-name="lcaron" unicode="&#x13e;" horiz-adv-x="282" 
d="M63 765h157v-765h-157v765zM277 705q0 39 25 65.5t67 26.5q43 0 67.5 -26.5t24.5 -67.5q0 -96 -100 -247l-98 50q42 83 54 125q-40 22 -40 74z" />
    <glyph glyph-name="Lslash" unicode="&#x141;" horiz-adv-x="504" 
d="M82 690h162v-196l48 26l66 -125l-114 -62v-189h237v-144h-399v246l-34 -18l-66 125l100 54v283z" />
    <glyph glyph-name="lslash" unicode="&#x142;" horiz-adv-x="305" 
d="M75 765h157v-268l54 29l67 -124l-121 -65v-337h-157v253l-35 -19l-67 124l102 55v352z" />
    <glyph glyph-name="Nacute" unicode="&#x143;" horiz-adv-x="713" 
d="M69 690h205l220 -471l-5 471h155v-690h-205l-220 471l5 -471h-155v690zM313 734l-58 90l215 153l71 -106z" />
    <glyph glyph-name="nacute" unicode="&#x144;" horiz-adv-x="569" 
d="M63 510h146v-78q49 91 152 91q74 0 112 -47t38 -135v-341h-158v316q0 32 -8 47t-30 15q-40 0 -67.5 -45t-27.5 -128v-205h-157v510zM249 554l-84 75l163 197l96 -83z" />
    <glyph glyph-name="Ncommaaccent" unicode="&#x145;" horiz-adv-x="713" 
d="M69 690h205l220 -471l-5 471h155v-690h-205l-220 471l5 -471h-155v690zM263 -118q0 34 23.5 57.5t62.5 23.5t62 -23t23 -62q0 -77 -86 -202l-90 44q31 58 42 97q-37 20 -37 65z" />
    <glyph glyph-name="ncommaaccent" unicode="&#x146;" horiz-adv-x="569" 
d="M63 510h146v-78q49 91 152 91q74 0 112 -47t38 -135v-341h-158v316q0 32 -8 47t-30 15q-40 0 -67.5 -45t-27.5 -128v-205h-157v510zM203 -118q0 34 23.5 57.5t62.5 23.5t62 -23t23 -62q0 -77 -86 -202l-90 44q31 58 42 97q-37 20 -37 65z" />
    <glyph glyph-name="Ncaron" unicode="&#x147;" horiz-adv-x="713" 
d="M69 690h205l220 -471l-5 471h155v-690h-205l-220 471l5 -471h-155v690zM547 849l-173 -120l-169 118l58 91l114 -71l114 72z" />
    <glyph glyph-name="ncaron" unicode="&#x148;" horiz-adv-x="569" 
d="M63 510h146v-78q49 91 152 91q74 0 112 -47t38 -135v-341h-158v316q0 32 -8 47t-30 15q-40 0 -67.5 -45t-27.5 -128v-205h-157v510zM443 715l-163 -164l-159 162l77 78l84 -89l86 90z" />
    <glyph glyph-name="Omacron" unicode="&#x14c;" horiz-adv-x="686" 
d="M645 351q0 -204 -85 -289q-79 -77 -222 -77q-146 0 -219 76q-78 81 -78 277q0 205 85 290q77 77 221 77q146 0 220 -76q78 -79 78 -278zM473 345q0 150 -36 190q-30 33 -91 33q-66 0 -98 -38q-35 -43 -35 -186q0 -150 36 -190q29 -32 91 -32q66 0 98 38q35 43 35 185z
M505 781h-324v116h324v-116z" />
    <glyph glyph-name="omacron" unicode="&#x14d;" horiz-adv-x="560" 
d="M518 261q0 -78 -15.5 -128.5t-54.5 -87.5q-63 -60 -172 -60q-106 0 -166 55q-38 34 -53 83t-15 125q0 79 15.5 129t53.5 87q64 62 173 62q107 0 167 -55q37 -34 52 -84t15 -126zM358 260q0 88 -24 116q-15 18 -50 18q-40 0 -56 -20q-25 -29 -25 -123q0 -92 23 -117
q16 -18 52 -18t54 21q26 30 26 123zM442 601h-324v116h324v-116z" />
    <glyph glyph-name="Obreve" unicode="&#x14e;" horiz-adv-x="686" 
d="M645 351q0 -204 -85 -289q-79 -77 -222 -77q-146 0 -219 76q-78 81 -78 277q0 205 85 290q77 77 221 77q146 0 220 -76q78 -79 78 -278zM473 345q0 150 -36 190q-30 33 -91 33q-66 0 -98 -38q-35 -43 -35 -186q0 -150 36 -190q29 -32 91 -32q66 0 98 38q35 43 35 185z
M419 934h112q-4 -84 -56.5 -131.5t-130.5 -47.5t-131 47.5t-58 131.5h113q2 -38 21.5 -61.5t54.5 -23.5q68 0 75 85z" />
    <glyph glyph-name="obreve" unicode="&#x14f;" horiz-adv-x="560" 
d="M518 261q0 -78 -15.5 -128.5t-54.5 -87.5q-63 -60 -172 -60q-106 0 -166 55q-38 34 -53 83t-15 125q0 79 15.5 129t53.5 87q64 62 173 62q107 0 167 -55q37 -34 52 -84t15 -126zM358 260q0 88 -24 116q-15 18 -50 18q-40 0 -56 -20q-25 -29 -25 -123q0 -92 23 -117
q16 -18 52 -18t54 21q26 30 26 123zM356 754h112q-4 -84 -56.5 -131.5t-130.5 -47.5t-131 47.5t-58 131.5h113q2 -38 21.5 -61.5t54.5 -23.5q68 0 75 85z" />
    <glyph glyph-name="Ohungarumlaut" unicode="&#x150;" horiz-adv-x="686" 
d="M645 351q0 -204 -85 -289q-79 -77 -222 -77q-146 0 -219 76q-78 81 -78 277q0 205 85 290q77 77 221 77q146 0 220 -76q78 -79 78 -278zM473 345q0 150 -36 190q-30 33 -91 33q-66 0 -98 -38q-35 -43 -35 -186q0 -150 36 -190q29 -32 91 -32q66 0 98 38q35 43 35 185z
M228 734l-65 70l178 168l76 -79zM442 734l-65 70l179 168l76 -79z" />
    <glyph glyph-name="ohungarumlaut" unicode="&#x151;" horiz-adv-x="560" 
d="M518 261q0 -78 -15.5 -128.5t-54.5 -87.5q-63 -60 -172 -60q-106 0 -166 55q-38 34 -53 83t-15 125q0 79 15.5 129t53.5 87q64 62 173 62q107 0 167 -55q37 -34 52 -84t15 -126zM358 260q0 88 -24 116q-15 18 -50 18q-40 0 -56 -20q-25 -29 -25 -123q0 -92 23 -117
q16 -18 52 -18t54 21q26 30 26 123zM179 555l-75 66l157 191l86 -73zM383 555l-75 66l158 191l85 -73z" />
    <glyph glyph-name="OE" unicode="&#x152;" horiz-adv-x="969" 
d="M912 690v-137h-295q26 -45 28 -135h246v-136h-246q-2 -100 -29 -146h301v-136h-418q-33 0 -78.5 -3.5t-73.5 -3.5q-155 0 -231 85q-75 82 -75 268q0 182 75 265q78 85 232 85q29 0 81.5 -3t77.5 -3h405zM479 343q0 45 -1 68.5t-4.5 52.5t-11.5 42.5t-22.5 27.5
t-36.5 18.5t-53 4.5q-29 0 -50.5 -5t-36.5 -11.5t-24.5 -22.5t-14.5 -28.5t-7.5 -40t-3 -45t-0.5 -55.5q0 -40 0.5 -60.5t3 -48t7.5 -41t14.5 -29t23.5 -22.5t34.5 -11.5t48.5 -4.5t49 5t35.5 11.5t24 23t14.5 29t7.5 40t3 46t0.5 56.5z" />
    <glyph glyph-name="oe" unicode="&#x153;" horiz-adv-x="869" 
d="M741 164l78 -92q-84 -84 -216 -84q-111 0 -165 71q-62 -72 -169 -72q-101 0 -162 64q-65 68 -65 195q0 128 62 199q66 78 176 78q105 0 164 -73q58 73 167 73t161 -68t52 -176q0 -32 -4 -59l-303 -3q0 -58 16 -83t67 -25q79 0 141 55zM358 266q0 67 -14 96.5t-58 29.5
q-49 0 -65 -35.5t-16 -113.5q0 -65 13.5 -95.5t56.5 -30.5q49 0 66 37.5t17 111.5zM519 314h152q0 53 -14 74t-58 21q-45 0 -61.5 -22t-18.5 -73z" />
    <glyph glyph-name="Racute" unicode="&#x154;" horiz-adv-x="634" 
d="M69 690h282q104 0 162 -37q76 -49 76 -160q0 -157 -130 -191q63 -12 90 -78t44 -224h-170q-19 145 -37.5 189.5t-63.5 44.5h-91v-234h-162v690zM231 552v-182h73q62 0 89.5 21t27.5 83q0 46 -19 64q-15 14 -60 14h-111zM264 734l-58 90l215 153l71 -106z" />
    <glyph glyph-name="racute" unicode="&#x155;" horiz-adv-x="414" 
d="M63 510h148l-1 -83q42 97 136 97q26 0 51 -10l-20 -149q-22 6 -38 6q-120 0 -120 -202v-169h-156v510zM188 554l-84 75l163 197l96 -83z" />
    <glyph glyph-name="Rcommaaccent" unicode="&#x156;" horiz-adv-x="634" 
d="M69 690h282q104 0 162 -37q76 -49 76 -160q0 -157 -130 -191q63 -12 90 -78t44 -224h-170q-19 145 -37.5 189.5t-63.5 44.5h-91v-234h-162v690zM231 552v-182h73q62 0 89.5 21t27.5 83q0 46 -19 64q-15 14 -60 14h-111zM233 -118q0 34 23.5 57.5t62.5 23.5t62 -23t23 -62
q0 -77 -86 -202l-90 44q31 58 42 97q-37 20 -37 65z" />
    <glyph glyph-name="rcommaaccent" unicode="&#x157;" horiz-adv-x="414" 
d="M63 510h148l-1 -83q42 97 136 97q26 0 51 -10l-20 -149q-22 6 -38 6q-120 0 -120 -202v-169h-156v510zM82 -118q0 34 23.5 57.5t62.5 23.5t62 -23t23 -62q0 -77 -86 -202l-90 44q31 58 42 97q-37 20 -37 65z" />
    <glyph glyph-name="Rcaron" unicode="&#x158;" horiz-adv-x="634" 
d="M69 690h282q104 0 162 -37q76 -49 76 -160q0 -157 -130 -191q63 -12 90 -78t44 -224h-170q-19 145 -37.5 189.5t-63.5 44.5h-91v-234h-162v690zM231 552v-182h73q62 0 89.5 21t27.5 83q0 46 -19 64q-15 14 -60 14h-111zM498 849l-173 -120l-169 118l58 91l114 -71l114 72
z" />
    <glyph glyph-name="rcaron" unicode="&#x159;" horiz-adv-x="414" 
d="M63 510h148l-1 -83q42 97 136 97q26 0 51 -10l-20 -149q-22 6 -38 6q-120 0 -120 -202v-169h-156v510zM382 715l-163 -164l-159 162l77 78l84 -89l86 90z" />
    <glyph glyph-name="Sacute" unicode="&#x15a;" horiz-adv-x="536" 
d="M494 642l-76 -117q-58 40 -145 40q-40 0 -60.5 -14.5t-20.5 -52.5q0 -24 23.5 -41t58.5 -26t76.5 -25.5t76.5 -37t58.5 -62.5t23.5 -101q0 -110 -87 -169q-70 -48 -179 -48q-63 0 -126 17t-102 52l80 119q64 -51 164 -51q41 0 63.5 15.5t22.5 56.5q0 27 -23.5 46
t-58.5 29t-76.5 26t-76.5 36t-58.5 61t-23.5 99q0 96 78 154q73 54 180 54q56 0 113.5 -14.5t94.5 -45.5zM207 734l-58 90l215 153l71 -106z" />
    <glyph glyph-name="sacute" unicode="&#x15b;" horiz-adv-x="445" 
d="M410 462l-72 -95q-47 37 -108 37q-54 0 -54 -36q0 -17 25 -28.5t60.5 -22.5t71.5 -27t61 -51t25 -86q0 -58 -32.5 -96.5t-78.5 -53.5t-103 -15q-127 0 -185 65l72 96q45 -44 122 -44q60 0 60 41q0 19 -25 31.5t-61 23t-72 26.5t-61 50t-25 85q0 77 59.5 118t150.5 41
q115 0 170 -59zM197 554l-84 75l163 197l96 -83z" />
    <glyph glyph-name="Scircumflex" unicode="&#x15c;" horiz-adv-x="536" 
d="M494 642l-76 -117q-58 40 -145 40q-40 0 -60.5 -14.5t-20.5 -52.5q0 -24 23.5 -41t58.5 -26t76.5 -25.5t76.5 -37t58.5 -62.5t23.5 -101q0 -110 -87 -169q-70 -48 -179 -48q-63 0 -126 17t-102 52l80 119q64 -51 164 -51q41 0 63.5 15.5t22.5 56.5q0 27 -23.5 46
t-58.5 29t-76.5 26t-76.5 36t-58.5 61t-23.5 99q0 96 78 154q73 54 180 54q56 0 113.5 -14.5t94.5 -45.5zM99 826l173 121l169 -119l-57 -91l-114 71l-115 -72z" />
    <glyph glyph-name="scircumflex" unicode="&#x15d;" horiz-adv-x="445" 
d="M410 462l-72 -95q-47 37 -108 37q-54 0 -54 -36q0 -17 25 -28.5t60.5 -22.5t71.5 -27t61 -51t25 -86q0 -58 -32.5 -96.5t-78.5 -53.5t-103 -15q-127 0 -185 65l72 96q45 -44 122 -44q60 0 60 41q0 19 -25 31.5t-61 23t-72 26.5t-61 50t-25 85q0 77 59.5 118t150.5 41
q115 0 170 -59zM69 636l163 164l159 -162l-77 -78l-84 89l-85 -90z" />
    <glyph glyph-name="Scedilla" unicode="&#x15e;" horiz-adv-x="536" 
d="M494 642l-76 -117q-57 40 -147 40q-38 0 -58.5 -15t-20.5 -52q0 -24 23.5 -41t58.5 -26t76.5 -25.5t76.5 -37t58.5 -62.5t23.5 -101q0 -110 -86 -168q-54 -36 -125 -45l-2 -26q63 -29 63 -89q0 -49 -33.5 -82.5t-92.5 -33.5q-73 0 -119 57l60 63q24 -31 51 -31
q31 0 31 27q0 32 -59 48l7 65q-128 10 -189 67l80 119q65 -51 165 -51q40 0 62.5 15.5t22.5 56.5q0 27 -23.5 46t-58.5 29t-76.5 26t-76.5 36t-58.5 61t-23.5 99q0 96 76 153q74 55 182 55q56 0 113.5 -14.5t94.5 -45.5z" />
    <glyph glyph-name="scedilla" unicode="&#x15f;" horiz-adv-x="445" 
d="M411 462l-72 -95q-47 37 -109 37q-53 0 -53 -36q0 -17 25 -28.5t60.5 -22.5t71.5 -27t61 -51t25 -86q0 -73 -47 -113t-121 -49l-2 -25q63 -29 63 -89q0 -49 -33 -82.5t-93 -33.5q-73 0 -119 57l61 63q24 -31 50 -31q31 0 31 27q0 32 -59 48l7 66q-92 10 -137 62l72 96
q45 -44 123 -44q59 0 59 41q0 19 -25 31.5t-61 23t-72 26.5t-61 50t-25 85q0 77 59.5 118t150.5 41q115 0 170 -59z" />
    <glyph glyph-name="Scaron" unicode="&#x160;" horiz-adv-x="536" 
d="M494 642l-76 -117q-58 40 -145 40q-40 0 -60.5 -14.5t-20.5 -52.5q0 -24 23.5 -41t58.5 -26t76.5 -25.5t76.5 -37t58.5 -62.5t23.5 -101q0 -110 -87 -169q-70 -48 -179 -48q-63 0 -126 17t-102 52l80 119q64 -51 164 -51q41 0 63.5 15.5t22.5 56.5q0 27 -23.5 46
t-58.5 29t-76.5 26t-76.5 36t-58.5 61t-23.5 99q0 96 78 154q73 54 180 54q56 0 113.5 -14.5t94.5 -45.5zM441 849l-173 -120l-169 118l58 91l114 -71l114 72z" />
    <glyph glyph-name="scaron" unicode="&#x161;" horiz-adv-x="445" 
d="M410 462l-72 -95q-47 37 -108 37q-54 0 -54 -36q0 -17 25 -28.5t60.5 -22.5t71.5 -27t61 -51t25 -86q0 -58 -32.5 -96.5t-78.5 -53.5t-103 -15q-127 0 -185 65l72 96q45 -44 122 -44q60 0 60 41q0 19 -25 31.5t-61 23t-72 26.5t-61 50t-25 85q0 77 59.5 118t150.5 41
q115 0 170 -59zM391 715l-163 -164l-159 162l77 78l84 -89l86 90z" />
    <glyph glyph-name="Tcommaaccent" unicode="&#x162;" horiz-adv-x="531" 
d="M8 690h515v-144h-177v-546h-162v546h-176v144zM185 -118q0 34 23.5 57.5t62.5 23.5t62 -23t23 -62q0 -77 -86 -202l-90 44q31 58 42 97q-37 20 -37 65z" />
    <glyph glyph-name="tcommaaccent" unicode="&#x163;" horiz-adv-x="434" 
d="M381 138l9 -131q-54 -13 -107 -13q-102 0 -141.5 47.5t-39.5 147.5v176h-74v136h74v140l157 14v-154h126v-136h-126v-164q0 -44 9 -57t48 -13q37 0 65 7zM149 -118q0 34 23.5 57.5t62.5 23.5t62 -23t23 -62q0 -77 -86 -202l-90 44q31 58 42 97q-37 20 -37 65z" />
    <glyph glyph-name="Tcaron" unicode="&#x164;" horiz-adv-x="531" 
d="M8 690h515v-144h-177v-546h-162v546h-176v144zM437 849l-173 -120l-169 118l58 91l114 -71l114 72z" />
    <glyph glyph-name="tcaron" unicode="&#x165;" horiz-adv-x="434" 
d="M381 138l9 -131q-54 -13 -107 -13q-102 0 -141.5 47.5t-39.5 147.5v176h-74v136h74v140l157 14v-154h126v-136h-126v-164q0 -44 9 -57t48 -13q37 0 65 7zM300 757q0 35 22.5 58.5t59.5 23.5q38 0 60.5 -23.5t22.5 -60.5q0 -85 -90 -221l-88 45q39 76 49 111
q-36 20 -36 67z" />
    <glyph glyph-name="Utilde" unicode="&#x168;" horiz-adv-x="678" 
d="M69 690h162v-444q0 -64 19 -91t90 -27q68 0 87.5 26.5t19.5 91.5v444h162v-442q0 -115 -46 -173q-68 -87 -229 -87q-151 0 -216 77q-49 59 -49 178v447zM471 942l63 -79q-35 -39 -65 -58t-69 -19q-31 0 -71.5 16.5t-58.5 16.5q-29 0 -63 -36l-63 79q36 38 66 57t69 19
q30 0 71 -16.5t58 -16.5q28 0 63 37z" />
    <glyph glyph-name="utilde" unicode="&#x169;" horiz-adv-x="566" 
d="M503 0h-145v78q-49 -91 -149 -91q-146 0 -146 181v342h156v-318q0 -62 39 -62q36 0 62.5 44.5t26.5 126.5v209h156v-510zM415 762l63 -79q-35 -39 -65 -58t-69 -19q-31 0 -71.5 16.5t-58.5 16.5q-29 0 -63 -36l-63 79q36 38 66 57t69 19q30 0 71 -16.5t58 -16.5
q28 0 63 37z" />
    <glyph glyph-name="Umacron" unicode="&#x16a;" horiz-adv-x="678" 
d="M69 690h162v-444q0 -64 19 -91t90 -27q68 0 87.5 26.5t19.5 91.5v444h162v-442q0 -115 -46 -173q-68 -87 -229 -87q-151 0 -216 77q-49 59 -49 178v447zM501 781h-324v116h324v-116z" />
    <glyph glyph-name="umacron" unicode="&#x16b;" horiz-adv-x="566" 
d="M503 0h-145v78q-49 -91 -149 -91q-146 0 -146 181v342h156v-318q0 -62 39 -62q36 0 62.5 44.5t26.5 126.5v209h156v-510zM445 601h-324v116h324v-116z" />
    <glyph glyph-name="Ubreve" unicode="&#x16c;" horiz-adv-x="678" 
d="M69 690h162v-444q0 -64 19 -91t90 -27q68 0 87.5 26.5t19.5 91.5v444h162v-442q0 -115 -46 -173q-68 -87 -229 -87q-151 0 -216 77q-49 59 -49 178v447zM415 934h112q-4 -84 -56.5 -131.5t-130.5 -47.5t-131 47.5t-58 131.5h113q2 -38 21.5 -61.5t54.5 -23.5q68 0 75 85z
" />
    <glyph glyph-name="ubreve" unicode="&#x16d;" horiz-adv-x="566" 
d="M503 0h-145v78q-49 -91 -149 -91q-146 0 -146 181v342h156v-318q0 -62 39 -62q36 0 62.5 44.5t26.5 126.5v209h156v-510zM359 754h112q-4 -84 -56.5 -131.5t-130.5 -47.5t-131 47.5t-58 131.5h113q2 -38 21.5 -61.5t54.5 -23.5q68 0 75 85z" />
    <glyph glyph-name="Uring" unicode="&#x16e;" horiz-adv-x="678" 
d="M69 690h162v-444q0 -64 19 -91t90 -27q68 0 87.5 26.5t19.5 91.5v444h162v-442q0 -115 -46 -173q-68 -87 -229 -87q-151 0 -216 77q-49 59 -49 178v447zM476 859q0 -55 -38.5 -87t-98.5 -32t-98.5 32.5t-38.5 86.5q0 55 38.5 87t98.5 32t98.5 -32.5t38.5 -86.5zM381 859
q0 40 -41 40q-43 0 -43 -41q0 -40 42 -40t42 41z" />
    <glyph glyph-name="uring" unicode="&#x16f;" horiz-adv-x="566" 
d="M503 0h-145v78q-49 -91 -149 -91q-146 0 -146 181v342h156v-318q0 -62 39 -62q36 0 62.5 44.5t26.5 126.5v209h156v-510zM422 699q0 -56 -39 -91t-100 -35t-100 35t-39 91q0 57 38.5 91.5t100.5 34.5q61 0 100 -34.5t39 -91.5zM325 700q0 43 -41 43q-43 0 -43 -45
q0 -44 42 -44t42 46z" />
    <glyph glyph-name="Uhungarumlaut" unicode="&#x170;" horiz-adv-x="678" 
d="M69 690h162v-444q0 -64 19 -91t90 -27q68 0 87.5 26.5t19.5 91.5v444h162v-442q0 -115 -46 -173q-68 -87 -229 -87q-151 0 -216 77q-49 59 -49 178v447zM224 734l-65 70l178 168l76 -79zM438 734l-65 70l179 168l76 -79z" />
    <glyph glyph-name="uhungarumlaut" unicode="&#x171;" horiz-adv-x="566" 
d="M503 0h-145v78q-49 -91 -149 -91q-146 0 -146 181v342h156v-318q0 -62 39 -62q36 0 62.5 44.5t26.5 126.5v209h156v-510zM182 555l-75 66l157 191l86 -73zM386 555l-75 66l158 191l85 -73z" />
    <glyph glyph-name="Uogonek" unicode="&#x172;" horiz-adv-x="680" 
d="M69 690h163v-444q0 -33 2.5 -50.5t13 -35.5t33 -25t59.5 -7q68 0 87.5 26.5t19.5 91.5v444h162v-442q0 -115 -46 -173q-35 -43 -89 -64q-59 -30 -91.5 -62t-32.5 -57q0 -29 34 -29q32 0 60 33l74 -78q-57 -61 -141 -61q-71 0 -112.5 33.5t-41.5 84.5q0 61 59 116
q-111 11 -164 74q-49 60 -49 178v447z" />
    <glyph glyph-name="uogonek" unicode="&#x173;" horiz-adv-x="565" 
d="M479 -102l68 -72q-51 -57 -131 -57q-67 0 -105.5 31.5t-38.5 80.5q0 36 18.5 67t67.5 65v65q-49 -91 -149 -91q-147 0 -147 181v342h157v-318q0 -30 8 -45.5t30 -15.5q37 0 63 45t26 128v206h157v-510q-61 -29 -86.5 -53t-25.5 -49q0 -32 32 -32t56 32z" />
    <glyph glyph-name="Wcircumflex" unicode="&#x174;" horiz-adv-x="902" 
d="M10 690h162l88 -501l110 483h164l109 -482l88 500h161l-152 -690h-183l-108 474l-109 -474h-183zM280 826l173 121l169 -119l-57 -91l-114 71l-115 -72z" />
    <glyph glyph-name="wcircumflex" unicode="&#x175;" horiz-adv-x="765" 
d="M13 510h158l61 -334l71 324h162l71 -322l61 332h155l-127 -510h-171l-73 324l-74 -324h-172zM221 636l163 164l159 -162l-77 -78l-84 89l-85 -90z" />
    <glyph glyph-name="Ycircumflex" unicode="&#x176;" horiz-adv-x="568" 
d="M-10 690h185l108 -269l111 269h185l-217 -433v-257h-162v257zM113 826l173 121l169 -119l-57 -91l-114 71l-115 -72z" />
    <glyph glyph-name="ycircumflex" unicode="&#x177;" horiz-adv-x="535" 
d="M525 510l-137 -480q-37 -130 -98 -196.5t-153 -66.5q-66 0 -100 24l47 127q20 -12 49 -12q38 0 60.5 25.5t39.5 87.5h-72l-151 491h167l97 -392l88 392h163zM106 636l163 164l159 -162l-77 -78l-84 89l-85 -90z" />
    <glyph glyph-name="Ydieresis" unicode="&#x178;" horiz-adv-x="568" 
d="M-10 690h185l108 -269l111 269h185l-217 -433v-257h-162v257zM386 926q32 0 54.5 -22t22.5 -56q0 -32 -22.5 -53.5t-54.5 -21.5t-53.5 21.5t-21.5 53.5q0 34 21.5 56t53.5 22zM180 926q32 0 54.5 -22t22.5 -56q0 -32 -22.5 -53.5t-54.5 -21.5t-53.5 21.5t-21.5 53.5
q0 34 21.5 56t53.5 22z" />
    <glyph glyph-name="Zacute" unicode="&#x179;" horiz-adv-x="544" 
d="M500 688v-135l-276 -412l283 1v-142h-477v135l274 411h-263v142h459zM214 734l-58 90l215 153l71 -106z" />
    <glyph glyph-name="zacute" unicode="&#x17a;" horiz-adv-x="465" 
d="M419 504v-128l-191 -241h196v-135h-387v129l190 240h-180v135h372zM201 554l-84 75l163 197l96 -83z" />
    <glyph glyph-name="Zdotaccent" unicode="&#x17b;" horiz-adv-x="544" 
d="M500 688v-135l-276 -412l283 1v-142h-477v135l274 411h-263v142h459zM196 852q0 35 23 59t57 24q35 0 58.5 -24t23.5 -59t-23.5 -58t-58.5 -23q-34 0 -57 23.5t-23 57.5z" />
    <glyph glyph-name="zdotaccent" unicode="&#x17c;" horiz-adv-x="465" 
d="M419 504v-128l-191 -241h196v-135h-387v129l190 240h-180v135h372zM153 672q0 35 23 59t57 24q35 0 58.5 -24t23.5 -59t-23.5 -58t-58.5 -23q-34 0 -57 23.5t-23 57.5z" />
    <glyph glyph-name="Zcaron" unicode="&#x17d;" horiz-adv-x="544" 
d="M500 688v-135l-276 -412l283 1v-142h-477v135l274 411h-263v142h459zM448 849l-173 -120l-169 118l58 91l114 -71l114 72z" />
    <glyph glyph-name="zcaron" unicode="&#x17e;" horiz-adv-x="465" 
d="M419 504v-128l-191 -241h196v-135h-387v129l190 240h-180v135h372zM395 715l-163 -164l-159 162l77 78l84 -89l86 90z" />
    <glyph glyph-name="florin" unicode="&#x192;" 
d="M104 378v142h85v26q0 103 49 161.5t174 58.5q53 0 103 -8l-4 -136q-34 8 -81 8q-51 0 -66.5 -19.5t-15.5 -69.5v-21h130v-142h-130v-388q0 -105 -48.5 -160t-160.5 -55q-44 0 -83 6l7 137q38 -4 59 -4q43 0 55 17.5t12 60.5v386h-85z" />
    <glyph glyph-name="Scommaaccent" unicode="&#x218;" horiz-adv-x="536" 
d="M494 642l-76 -117q-58 40 -145 40q-40 0 -60.5 -14.5t-20.5 -52.5q0 -24 23.5 -41t58.5 -26t76.5 -25.5t76.5 -37t58.5 -62.5t23.5 -101q0 -110 -87 -169q-70 -48 -179 -48q-63 0 -126 17t-102 52l80 119q64 -51 164 -51q41 0 63.5 15.5t22.5 56.5q0 27 -23.5 46
t-58.5 29t-76.5 26t-76.5 36t-58.5 61t-23.5 99q0 96 78 154q73 54 180 54q56 0 113.5 -14.5t94.5 -45.5zM182 -118q0 34 23.5 57.5t62.5 23.5t62 -23t23 -62q0 -77 -86 -202l-90 44q31 58 42 97q-37 20 -37 65z" />
    <glyph glyph-name="scommaaccent" unicode="&#x219;" horiz-adv-x="445" 
d="M410 462l-72 -95q-47 37 -108 37q-54 0 -54 -36q0 -17 25 -28.5t60.5 -22.5t71.5 -27t61 -51t25 -86q0 -58 -32.5 -96.5t-78.5 -53.5t-103 -15q-127 0 -185 65l72 96q45 -44 122 -44q60 0 60 41q0 19 -25 31.5t-61 23t-72 26.5t-61 50t-25 85q0 77 59.5 118t150.5 41
q115 0 170 -59zM126 -118q0 34 23.5 57.5t62.5 23.5t62 -23t23 -62q0 -77 -86 -202l-90 44q31 58 42 97q-37 20 -37 65z" />
    <glyph glyph-name="hsuperior" unicode="&#x2b0;" horiz-adv-x="378" 
d="M45 927h109v-175q28 38 86 38q92 0 92 -109v-196h-108v182q0 22 -20 22t-35 -20.5t-15 -57.5v-126h-109v442z" />
    <glyph glyph-name="circumflex" unicode="&#x2c6;" horiz-adv-x="200" 
d="M-61 636l163 164l159 -162l-77 -78l-84 89l-85 -90z" />
    <glyph glyph-name="caron" unicode="&#x2c7;" horiz-adv-x="200" 
d="M261 715l-163 -164l-159 162l77 78l84 -89l86 90z" />
    <glyph glyph-name="breve" unicode="&#x2d8;" horiz-adv-x="200" 
d="M176 754h112q-4 -84 -56.5 -131.5t-130.5 -47.5t-131 47.5t-58 131.5h113q2 -38 21.5 -61.5t54.5 -23.5q68 0 75 85z" />
    <glyph glyph-name="dotaccent" unicode="&#x2d9;" horiz-adv-x="200" 
d="M19 672q0 35 23 59t57 24q35 0 58.5 -24t23.5 -59t-23.5 -58t-58.5 -23q-34 0 -57 23.5t-23 57.5z" />
    <glyph glyph-name="ring" unicode="&#x2da;" horiz-adv-x="200" 
d="M239 699q0 -56 -39 -91t-100 -35t-100 35t-39 91q0 57 38.5 91.5t100.5 34.5q61 0 100 -34.5t39 -91.5zM142 700q0 43 -41 43q-43 0 -43 -45q0 -44 42 -44t42 46z" />
    <glyph glyph-name="ogonek" unicode="&#x2db;" horiz-adv-x="200" 
d="M168 -100l69 -73q-51 -58 -131 -58q-68 0 -105.5 32.5t-37.5 83.5q0 37 24 68.5t86 70.5l122 -24q-114 -53 -114 -101q0 -31 32 -31q31 0 55 32z" />
    <glyph glyph-name="tilde" unicode="&#x2dc;" horiz-adv-x="200" 
d="M232 762l63 -79q-35 -39 -65 -58t-69 -19q-31 0 -71.5 16.5t-58.5 16.5q-29 0 -63 -36l-63 79q36 38 66 57t69 19q30 0 71 -16.5t58 -16.5q28 0 63 37z" />
    <glyph glyph-name="hungarumlaut" unicode="&#x2dd;" horiz-adv-x="200" 
d="M-1 555l-75 66l157 191l86 -73zM203 555l-75 66l158 191l85 -73z" />
    <glyph glyph-name="pi" unicode="&#x3c0;" horiz-adv-x="677" 
d="M635 383h-66v-227q0 -101 12 -156h-152q-17 25 -17 147v236h-105q-3 -93 -18.5 -208.5t-37.5 -174.5h-152q22 79 38 192.5t16 190.5q-32 0 -96 -16l-15 112q62 26 173 26h420v-122z" />
    <glyph glyph-name="endash" unicode="&#x2013;" horiz-adv-x="500" 
d="M486 199h-472v144h472v-144z" />
    <glyph glyph-name="emdash" unicode="&#x2014;" horiz-adv-x="1000" 
d="M986 199h-972v144h972v-144z" />
    <glyph glyph-name="quoteleft" unicode="&#x2018;" horiz-adv-x="280" 
d="M233 551q0 -39 -25.5 -65.5t-67.5 -26.5t-67 26.5t-25 67.5q0 94 101 247l97 -50q-44 -91 -53 -125q40 -22 40 -74z" />
    <glyph glyph-name="quoteright" unicode="&#x2019;" horiz-adv-x="280" 
d="M48 681q0 39 25 65.5t67 26.5q43 0 67.5 -26.5t24.5 -67.5q0 -96 -100 -247l-98 50q42 83 54 125q-40 22 -40 74z" />
    <glyph glyph-name="quotesinglbase" unicode="&#x201a;" horiz-adv-x="279" 
d="M48 83q0 39 25 65.5t66 26.5q42 0 67 -26t25 -67q0 -92 -100 -242l-97 49q44 88 53 122q-39 22 -39 72z" />
    <glyph glyph-name="quotedblleft" unicode="&#x201c;" horiz-adv-x="516" 
d="M469 534q0 -39 -25.5 -65t-66.5 -26q-42 0 -67 26t-25 67q0 94 100 242l97 -49q-44 -88 -53 -122q40 -24 40 -73zM231 534q0 -39 -25 -65t-67 -26q-41 0 -66 26t-25 67q0 94 100 242l97 -49q-44 -88 -53 -122q39 -23 39 -73z" />
    <glyph glyph-name="quotedblright" unicode="&#x201d;" horiz-adv-x="516" 
d="M48 661q0 39 25 65t66 26q42 0 67 -26t25 -67q0 -92 -100 -243l-97 50q44 88 53 122q-39 22 -39 73zM285 661q0 39 25 65t66 26q42 0 67 -26t25 -67q0 -94 -100 -243l-96 50q45 95 52 122q-39 22 -39 73z" />
    <glyph glyph-name="quotedblbase" unicode="&#x201e;" horiz-adv-x="516" 
d="M48 83q0 39 25 65.5t66 26.5q42 0 67 -26t25 -67q0 -92 -100 -242l-97 49q44 88 53 122q-39 22 -39 72zM285 83q0 39 25 65.5t66 26.5q42 0 67 -26t25 -67q0 -94 -100 -242l-96 49q45 95 52 122q-39 22 -39 72z" />
    <glyph glyph-name="dagger" unicode="&#x2020;" horiz-adv-x="536" 
d="M346 710l-5 -208h153v-132h-152l4 -86l-13 -328h-130l-13 328l4 86h-152v132h153l-5 208h156z" />
    <glyph glyph-name="daggerdbl" unicode="&#x2021;" horiz-adv-x="536" 
d="M190 -88l5 175h-153v131h152l-3 93l3 93h-152v131h153l-5 175h156l-5 -175h153v-131h-152l3 -93l-3 -93h152v-131h-153l5 -175h-156z" />
    <glyph glyph-name="bullet" unicode="&#x2022;" horiz-adv-x="383" 
d="M343 357q0 -62 -43.5 -106.5t-108.5 -44.5t-107.5 44t-42.5 107q0 64 42.5 107.5t107.5 43.5t108.5 -43.5t43.5 -107.5z" />
    <glyph glyph-name="onedotenleader" unicode="&#x2024;" horiz-adv-x="496" 
d="M154 85q0 41 26.5 68t67.5 27t67.5 -27t26.5 -68t-27 -68t-67 -27t-67 27t-27 68z" />
    <glyph glyph-name="twodotenleader" unicode="&#x2025;" horiz-adv-x="496" 
d="M30 85q0 41 26.5 68t67.5 27t67.5 -27t26.5 -68t-27 -68t-67 -27t-67 27t-27 68zM278 85q0 41 26.5 68t67.5 27t67.5 -27t26.5 -68t-27 -68t-67 -27t-67 27t-27 68z" />
    <glyph glyph-name="ellipsis" unicode="&#x2026;" horiz-adv-x="990" 
d="M71 85q0 41 26.5 68t67.5 27t67.5 -27t26.5 -68t-27 -68t-67 -27t-67 27t-27 68zM401 85q0 41 26.5 68t67.5 27t68 -27t27 -68t-27 -68t-68 -27q-40 0 -67 27.5t-27 67.5zM731 85q0 41 26.5 68t67.5 27t68 -27t27 -68t-27 -68t-68 -27q-40 0 -67 27.5t-27 67.5z" />
    <glyph glyph-name="perthousand" unicode="&#x2030;" horiz-adv-x="1330" 
d="M827 671l-612 -725l-87 72l612 726zM898 197q0 -114 -47 -163q-40 -42 -113 -42t-112 41q-44 47 -44 159q0 113 45 161q38 43 115 43q73 0 111 -40q45 -47 45 -159zM789 196q0 64 -9 86.5t-39 22.5q-31 0 -40 -24.5t-9 -90.5q0 -63 9 -85t38 -22q31 0 40.5 24t9.5 89z
M365 498q0 -112 -46 -162q-39 -42 -113 -42t-112 41q-44 45 -44 158t45 162q40 43 114 43q73 0 111 -40q45 -47 45 -160zM256 498q0 64 -8.5 86.5t-38.5 22.5q-31 0 -40.5 -24.5t-9.5 -90.5q0 -63 9 -85.5t39 -22.5t39.5 24.5t9.5 89.5zM1280 197q0 -114 -47 -163
q-40 -42 -113 -42t-112 41q-44 45 -44 159q0 113 45 161q38 43 115 43q73 0 110 -40q46 -47 46 -159zM1171 196q0 64 -9 86.5t-39 22.5q-31 0 -40.5 -24.5t-9.5 -90.5q0 -62 9.5 -84.5t38.5 -22.5q30 0 40 24.5t10 88.5z" />
    <glyph glyph-name="guilsinglleft" unicode="&#x2039;" horiz-adv-x="359" 
d="M221 32l-203 239l203 239l105 -81l-130 -158l130 -157z" />
    <glyph glyph-name="guilsinglright" unicode="&#x203a;" horiz-adv-x="359" 
d="M138 510l204 -239l-204 -239l-104 81l129 158l-129 157z" />
    <glyph glyph-name="fraction" unicode="&#x2044;" horiz-adv-x="328" 
d="M514 671l-613 -725l-87 73l613 725z" />
    <glyph glyph-name="zerosuperior" unicode="&#x2070;" horiz-adv-x="385" 
d="M351 687q0 -119 -48 -169q-40 -42 -115 -42t-115 43q-43 49 -43 162q0 117 47 168q40 42 115 42q76 0 115 -42q44 -50 44 -162zM237 689q0 62 -9 85t-37 23t-37.5 -25t-9.5 -94q0 -62 8.5 -84.5t36.5 -22.5q29 0 38.5 25t9.5 93z" />
    <glyph glyph-name="foursuperior" unicode="&#x2074;" horiz-adv-x="385" 
d="M348 551h-53v-66h-102v66h-159v95l73 237h105l-74 -236h57v134h100v-133h53v-97z" />
    <glyph glyph-name="fivesuperior" unicode="&#x2075;" horiz-adv-x="385" 
d="M39 518l53 72q28 -24 86 -24q24 0 36 7q18 10 18 40q0 26 -16 37q-14 8 -35 8q-30 0 -49 -16l-80 16l1 225h264v-89h-171l-2 -63q19 12 60 12q56 0 93 -27q46 -32 46 -100q0 -73 -53 -109q-44 -30 -110 -30q-39 0 -79.5 10t-61.5 31z" />
    <glyph glyph-name="sixsuperior" unicode="&#x2076;" horiz-adv-x="385" 
d="M343 854l-53 -72q-26 20 -84 20q-42 0 -53 -18t-11 -69q24 23 74 23q59 0 93 -28q40 -32 40 -100q0 -70 -44 -104q-39 -30 -109 -30q-76 0 -117 39q-45 45 -45 165q0 123 46 169q43 43 129 43q96 0 134 -38zM199 663q-28 0 -40.5 -12.5t-12.5 -40.5q0 -27 11.5 -38.5
t38.5 -11.5q28 0 38.5 12t10.5 40t-10 39.5t-36 11.5z" />
    <glyph glyph-name="sevensuperior" unicode="&#x2077;" horiz-adv-x="385" 
d="M125 718h-88l-2 165h308v-98q-80 -175 -122 -300h-120q39 117 128 295h-101z" />
    <glyph glyph-name="eightsuperior" unicode="&#x2078;" horiz-adv-x="385" 
d="M40 783q0 57 44.5 83t107.5 26q61 0 104.5 -25t43.5 -80q0 -67 -68 -97q74 -29 74 -101q0 -58 -44.5 -85.5t-110.5 -27.5t-111.5 27.5t-45.5 84.5q0 71 77 99q-71 30 -71 96zM139 774q0 -15 8 -25t17 -14t26 -9q17 5 26 9t17 14.5t8 25.5q0 38 -50 38q-52 0 -52 -39z
M133 598q0 -42 56 -42q57 0 57 42q0 17 -9 28.5t-19 16t-29 10.5q-28 -8 -42 -19.5t-14 -35.5z" />
    <glyph glyph-name="ninesuperior" unicode="&#x2079;" horiz-adv-x="385" 
d="M37 514l54 72q26 -20 83 -20q42 0 53 17.5t11 69.5q-23 -23 -74 -23q-58 0 -93 28q-40 32 -40 99q0 71 44 105q39 30 109 30q79 0 118 -39q26 -25 35 -63.5t9 -101.5q0 -124 -45 -169q-43 -43 -129 -43q-97 0 -135 38zM181 705q29 0 41.5 12t12.5 41q0 26 -11.5 37.5
t-38.5 11.5q-28 0 -38.5 -12t-10.5 -40t10 -39t35 -11z" />
    <glyph glyph-name="parenleftsuperior" unicode="&#x207d;" horiz-adv-x="253" 
d="M153 965l61 -82q-43 -30 -54.5 -67t-11.5 -132t11 -132t55 -67l-61 -82q-65 41 -88.5 105.5t-23.5 176.5t23.5 175t88.5 105z" />
    <glyph glyph-name="parenrightsuperior" unicode="&#x207e;" horiz-adv-x="253" 
d="M94 403l-61 82q43 30 54.5 67t11.5 132t-11 132t-55 67l61 82q65 -41 88.5 -105.5t23.5 -177.5q0 -111 -23.5 -174.5t-88.5 -104.5z" />
    <glyph glyph-name="nsuperior" unicode="&#x207f;" horiz-adv-x="378" 
d="M45 782h101v-40q33 48 93 48q93 0 93 -109v-196h-108v181q0 23 -20 23t-35 -20.5t-15 -56.5v-127h-109v297z" />
    <glyph glyph-name="zeroinferior" unicode="&#x2080;" horiz-adv-x="385" 
d="M351 19q0 -119 -48 -168q-39 -42 -115 -42q-77 0 -115 43q-43 48 -43 161q0 117 47 168q40 42 115 42q76 0 115 -42q44 -50 44 -162zM237 21q0 62 -9 85t-37 23t-37.5 -25t-9.5 -94q0 -62 8.5 -84.5t36.5 -22.5q29 0 38.5 25t9.5 93z" />
    <glyph glyph-name="oneinferior" unicode="&#x2081;" horiz-adv-x="385" 
d="M53 -183v97h104v190l-75 -57l-61 76l124 92h124v-301h78v-97h-294z" />
    <glyph glyph-name="twoinferior" unicode="&#x2082;" horiz-adv-x="385" 
d="M337 -88v-95h-298v72q0 55 27 85t97 66q27 14 37 19.5t19.5 16.5t9.5 25q0 30 -49 30q-47 0 -81 -32l-67 66q53 59 156 59q68 0 110.5 -28.5t42.5 -92.5q0 -47 -24 -73t-72 -50q-54 -27 -70.5 -39.5t-16.5 -29.5z" />
    <glyph glyph-name="threeinferior" unicode="&#x2083;" horiz-adv-x="385" 
d="M98 -25v87h61q62 0 62 37q0 20 -12.5 27t-39.5 7q-57 0 -86 -23l-53 71q44 43 145 43q67 0 112 -28q46 -30 46 -81q0 -70 -70 -93q74 -21 74 -96q0 -54 -46 -86q-46 -31 -119 -31q-104 0 -144 41l53 72q30 -24 87 -24q58 0 58 40q0 21 -15 29t-50 8h-63z" />
    <glyph glyph-name="fourinferior" unicode="&#x2084;" horiz-adv-x="385" 
d="M348 -117h-53v-66h-102v66h-159v95l73 237h105l-74 -235h57v133h100v-132h53v-98z" />
    <glyph glyph-name="fiveinferior" unicode="&#x2085;" horiz-adv-x="385" 
d="M39 -150l53 73q28 -25 86 -25q24 0 36 7q18 11 18 40q0 27 -16 37q-12 8 -35 8q-32 0 -49 -16l-80 17l1 224h264v-89h-171l-2 -63q19 12 60 12q56 0 93 -27q46 -32 46 -100q0 -73 -53 -109q-44 -30 -110 -30q-39 0 -79.5 10t-61.5 31z" />
    <glyph glyph-name="sixinferior" unicode="&#x2086;" horiz-adv-x="385" 
d="M343 186l-53 -72q-26 20 -83 20q-42 0 -53.5 -18t-11.5 -69q24 23 74 23q59 0 93 -28q40 -32 40 -99q0 -71 -44 -105q-39 -30 -109 -30q-79 0 -117 38q-45 45 -45 166q0 123 45 168q44 44 130 44q96 0 134 -38zM199 -5q-28 0 -40.5 -12t-12.5 -41q0 -26 11 -37.5
t39 -11.5t38.5 12t10.5 40t-10 39t-36 11z" />
    <glyph glyph-name="seveninferior" unicode="&#x2087;" horiz-adv-x="385" 
d="M125 50h-88l-2 165h308v-98q-80 -175 -122 -300h-120q39 117 128 295h-101z" />
    <glyph glyph-name="eightinferior" unicode="&#x2088;" horiz-adv-x="385" 
d="M40 115q0 57 44.5 83t107.5 26q61 0 104.5 -25t43.5 -80q0 -67 -68 -97q74 -27 74 -100q0 -59 -44.5 -86.5t-110.5 -27.5t-111.5 27.5t-45.5 84.5q0 72 77 99q-71 30 -71 96zM139 106q0 -15 8 -25t17 -14t26 -9q17 5 26 9t17 14.5t8 25.5q0 38 -50 38q-52 0 -52 -39z
M133 -69q0 -43 56 -43q57 0 57 42q0 25 -14.5 36.5t-42.5 19.5q-27 -8 -41.5 -19.5t-14.5 -35.5z" />
    <glyph glyph-name="nineinferior" unicode="&#x2089;" horiz-adv-x="385" 
d="M37 -154l54 72q26 -20 83 -20q42 0 53 17.5t11 69.5q-23 -23 -74 -23q-58 0 -93 28q-40 32 -40 99q0 71 44 105q39 30 109 30q79 0 118 -39q26 -25 35 -63.5t9 -101.5q0 -124 -44 -168t-130 -44q-97 0 -135 38zM181 37q29 0 41.5 12t12.5 41q0 26 -11.5 37.5t-38.5 11.5
q-28 0 -38.5 -12t-10.5 -40t10 -39t35 -11z" />
    <glyph glyph-name="parenleftinferior" unicode="&#x208d;" horiz-adv-x="253" 
d="M153 297l61 -82q-43 -30 -54.5 -67t-11.5 -132t11 -132t55 -67l-61 -82q-65 41 -88.5 105.5t-23.5 176.5t23.5 175t88.5 105z" />
    <glyph glyph-name="parenrightinferior" unicode="&#x208e;" horiz-adv-x="253" 
d="M94 -265l-61 82q43 30 54.5 67t11.5 132t-11 132t-55 67l61 82q65 -41 88.5 -105.5t23.5 -177.5q0 -111 -23.5 -174t-88.5 -105z" />
    <glyph glyph-name="Euro" unicode="&#x20ac;" 
d="M440 311l-26 -105h-165q10 -45 35.5 -66t74.5 -21q81 0 165 52v-139q-75 -42 -172 -42q-143 0 -214 100q-34 46 -49 116h-87l27 105h47v63h-74l27 105h59q16 79 58 130q76 91 229 91q102 0 169 -32l-40 -126q-57 27 -134 27q-57 0 -85.5 -21.5t-38.5 -68.5h238l-27 -105
h-219l1 -63h201z" />
    <glyph glyph-name="afii61289" unicode="&#x2113;" horiz-adv-x="547" 
d="M467 204l63 -67q-77 -148 -228 -148q-164 0 -193 150q0 6 -1 9q-3 -3 -20.5 -16.5t-27.5 -19.5l-39 82q13 11 42 33t43 35v232q0 129 54.5 196.5t143.5 67.5q77 0 116 -51.5t39 -133.5t-49.5 -162.5t-147.5 -170.5v-43q2 -37 23.5 -58.5t55.5 -21.5q66 0 126 87zM262 501
v-120q97 114 97 199q0 68 -45 68q-52 0 -52 -147z" />
    <glyph glyph-name="trademark" unicode="&#x2122;" horiz-adv-x="641" 
d="M8 710h224v-80h-67v-190h-90v190h-67v80zM280 710h118l39 -136l39 136h118l17 -270h-87l-5 172l-43 -161h-80l-42 162l-6 -173h-86z" />
    <glyph glyph-name="Omega" unicode="&#x2126;" horiz-adv-x="761" 
d="M720 127v-127h-302v105q60 39 90 97.5t30 160.5q0 227 -154 227q-160 0 -160 -229q0 -188 121 -256v-105h-304v127l135 -4q-123 100 -123 268q0 159 86.5 246.5t245.5 87.5q162 0 243 -88t81 -242q0 -171 -127 -272z" />
    <glyph glyph-name="estimated" unicode="&#x212e;" horiz-adv-x="866" 
d="M831 335h-646q-5 0 -5 -4v-196q0 -13 9 -22q101 -106 244 -106q154 0 257 119h57q-54 -64 -137.5 -101.5t-177.5 -37.5q-165 0 -282 105t-117 253t117 253.5t282 105.5q166 0 282.5 -105t116.5 -254v-10zM685 360v197q0 13 -10 23q-104 102 -242 102q-141 0 -243 -105
q-10 -9 -10 -24v-193q0 -6 5 -6h495q5 0 5 6z" />
    <glyph glyph-name="onethird" unicode="&#x2153;" horiz-adv-x="954" 
d="M827 671l-612 -725l-87 72l612 726zM79 302v93h94v191l-66 -56l-57 75l108 85h121v-295h71v-93h-271zM651 154v84h59q61 0 61 38q0 19 -12 26t-39 7q-56 0 -84 -22l-51 68q43 42 141 42q64 0 108 -28q45 -29 45 -78q0 -68 -68 -91q72 -19 72 -94q0 -53 -45 -84
q-43 -30 -115 -30q-100 0 -139 40l51 69q29 -23 85 -23t56 40q0 20 -15 28t-49 8h-61z" />
    <glyph glyph-name="twothirds" unicode="&#x2154;" horiz-adv-x="954" 
d="M827 671l-612 -725l-87 72l612 726zM651 154v84h59q61 0 61 38q0 19 -12 26t-39 7q-56 0 -84 -22l-51 68q43 42 141 42q64 0 108 -28q45 -29 45 -78q0 -68 -68 -91q72 -19 72 -94q0 -53 -45 -84q-43 -30 -115 -30q-100 0 -139 40l51 69q29 -23 85 -23t56 40q0 20 -15 28
t-49 8h-61zM344 392v-90h-277v68q0 54 25 83.5t89 64.5q25 13 34.5 19t18 17t8.5 25q0 30 -44 30t-75 -31l-63 64q47 56 145 56q143 0 143 -117q0 -45 -22 -70.5t-67 -49.5q-50 -27 -65 -39.5t-15 -29.5h165z" />
    <glyph glyph-name="oneeighth" unicode="&#x215b;" horiz-adv-x="954" 
d="M827 671l-612 -725l-87 72l612 726zM79 302v93h94v191l-66 -56l-57 75l108 85h121v-295h71v-93h-271zM594 292q0 56 44 81.5t105 25.5q60 0 103 -24.5t43 -78.5q0 -65 -68 -96q74 -27 74 -100q0 -56 -44.5 -83t-108.5 -27q-65 0 -109.5 27t-44.5 82q0 71 77 98
q-71 28 -71 95zM690 284q0 -22 13 -32t38 -17q17 5 27 9.5t18 14.5t8 26q0 37 -52 37t-52 -38zM683 109q0 -42 58 -42t58 42q0 17 -9.5 28.5t-20 16.5t-29.5 11q-27 -8 -42 -20t-15 -36z" />
    <glyph glyph-name="threeeighths" unicode="&#x215c;" horiz-adv-x="954" 
d="M827 671l-612 -725l-87 72l612 726zM115 456v84h59q61 0 61 38q0 19 -12 26t-38 7q-55 0 -85 -22l-51 68q42 41 141 41q66 0 108 -27q45 -29 45 -79q0 -67 -68 -91q72 -19 72 -93q0 -53 -45 -84q-43 -30 -115 -30q-100 0 -139 40l51 69q27 -23 85 -23q56 0 56 39
q0 21 -15 29t-49 8h-61zM594 292q0 56 44 81.5t105 25.5q60 0 103 -24.5t43 -78.5q0 -65 -68 -96q74 -27 74 -100q0 -56 -44.5 -83t-108.5 -27q-65 0 -109.5 27t-44.5 82q0 71 77 98q-71 28 -71 95zM690 284q0 -22 13 -32t38 -17q17 5 27 9.5t18 14.5t8 26q0 37 -52 37
t-52 -38zM683 109q0 -42 58 -42t58 42q0 17 -9.5 28.5t-20 16.5t-29.5 11q-27 -8 -42 -20t-15 -36z" />
    <glyph glyph-name="fiveeighths" unicode="&#x215d;" horiz-adv-x="954" 
d="M827 671l-612 -725l-87 72l612 726zM594 292q0 56 44 81.5t105 25.5q60 0 103 -24.5t43 -78.5q0 -65 -68 -96q74 -27 74 -100q0 -56 -44.5 -83t-108.5 -27q-65 0 -109.5 27t-44.5 82q0 71 77 98q-71 28 -71 95zM690 284q0 -22 13 -32t38 -17q17 5 27 9.5t18 14.5t8 26
q0 37 -52 37t-52 -38zM683 109q0 -42 58 -42t58 42q0 17 -9.5 28.5t-20 16.5t-29.5 11q-27 -8 -42 -20t-15 -36zM60 334l50 69q29 -24 82 -24q22 0 34 8q17 10 17 40q0 27 -15 36q-11 8 -33 8q-30 0 -47 -16l-76 16l2 219h251v-86h-163l-2 -63q17 12 57 12q54 0 89 -26
q43 -32 43 -98q0 -72 -51 -106q-42 -29 -104 -29q-37 0 -75.5 10t-58.5 30z" />
    <glyph glyph-name="seveneighths" unicode="&#x215e;" horiz-adv-x="954" 
d="M827 671l-612 -725l-87 72l612 726zM594 292q0 56 44 81.5t105 25.5q60 0 103 -24.5t43 -78.5q0 -65 -68 -96q74 -27 74 -100q0 -56 -44.5 -83t-108.5 -27q-65 0 -109.5 27t-44.5 82q0 71 77 98q-71 28 -71 95zM690 284q0 -22 13 -32t38 -17q17 5 27 9.5t18 14.5t8 26
q0 37 -52 37t-52 -38zM683 109q0 -42 58 -42t58 42q0 17 -9.5 28.5t-20 16.5t-29.5 11q-27 -8 -42 -20t-15 -36zM141 530h-85l-2 160h293v-94q-81 -186 -116 -294h-115q36 110 122 289h-95z" />
    <glyph glyph-name="arrowleft" unicode="&#x2190;" horiz-adv-x="674" 
d="M660 275h-406l86 -104l-104 -83l-218 257l218 257l104 -81l-87 -107h407v-139z" />
    <glyph glyph-name="arrowup" unicode="&#x2191;" horiz-adv-x="847" 
d="M424 669l255 -220l-83 -105l-103 87v-410h-139v411l-105 -88l-80 105z" />
    <glyph glyph-name="arrowright" unicode="&#x2192;" horiz-adv-x="674" 
d="M14 415h407l-86 104l104 83l218 -257l-218 -257l-104 81l87 107h-408v139z" />
    <glyph glyph-name="arrowdown" unicode="&#x2193;" horiz-adv-x="847" 
d="M493 670v-413l105 88l81 -105l-255 -219l-255 219l82 105l103 -87v412h139z" />
    <glyph glyph-name="arrowboth" unicode="&#x2194;" horiz-adv-x="847" 
d="M611 602l218 -257l-218 -257l-104 81l87 106h-340l86 -104l-104 -83l-218 257l218 257l104 -81l-87 -106h340l-86 104z" />
    <glyph glyph-name="arrowupdn" unicode="&#x2195;" horiz-adv-x="847" 
d="M424 753l254 -219l-82 -105l-103 87v-343l105 88l81 -105l-255 -220l-255 220l82 105l103 -88v344l-105 -88l-81 105z" />
    <glyph glyph-name="uni2196" unicode="&#x2196;" horiz-adv-x="674" 
d="M518 78l-287 290l-12 -135l-132 16l26 336l334 26l17 -130l-136 -13l288 -291z" />
    <glyph glyph-name="uni2197" unicode="&#x2197;" horiz-adv-x="674" 
d="M562 585l26 -336l-132 -16l-12 135l-287 -290l-99 99l288 291l-136 13l17 130z" />
    <glyph glyph-name="uni2198" unicode="&#x2198;" horiz-adv-x="674" 
d="M588 441l-26 -337l-335 -26l-16 131l136 12l-289 293l98 98l288 -291l12 135z" />
    <glyph glyph-name="uni2199" unicode="&#x2199;" horiz-adv-x="674" 
d="M617 514l-290 -292l136 -13l-16 -131l-335 26l-26 337l132 15l12 -135l288 291z" />
    <glyph glyph-name="uni21AF" unicode="&#x21af;" horiz-adv-x="1049" 
d="M602 516v-286l105 88l81 -105l-255 -219l-255 219l82 105l103 -87v153l-150 -46v358h139v-227z" />
    <glyph glyph-name="partialdiff" unicode="&#x2202;" horiz-adv-x="642" 
d="M112 629l-46 111q92 63 215 63q151 0 234.5 -99t83.5 -296q0 -199 -84 -309t-234 -110q-66 0 -115 22t-75.5 59t-39 80.5t-12.5 92.5q0 119 64.5 190t170.5 71q104 0 163 -78q1 6 1 20q0 105 -43.5 167t-136.5 62q-77 0 -146 -46zM421 298q-11 34 -39.5 58.5t-72.5 24.5
q-53 0 -79.5 -37t-26.5 -103q0 -124 88 -124q56 0 88.5 49.5t41.5 131.5z" />
    <glyph glyph-name="Delta" unicode="&#x2206;" horiz-adv-x="727" 
d="M24 0v84l243 626h199l238 -624v-86h-680zM199 126h319l-160 434z" />
    <glyph glyph-name="product" unicode="&#x220f;" horiz-adv-x="829" 
d="M788 565h-109v-665h-161v665h-207v-665h-161v665h-109v145h747v-145z" />
    <glyph glyph-name="summation" unicode="&#x2211;" horiz-adv-x="630" 
d="M607 -101h-583v94l251 309l-240 301v107h549v-134h-325l204 -253l-226 -283h370v-141z" />
    <glyph glyph-name="minus" unicode="&#x2212;" horiz-adv-x="567" 
d="M509 204h-450v135h450v-135z" />
    <glyph glyph-name="radical" unicode="&#x221a;" horiz-adv-x="820" 
d="M378 40l201 816h233v-132h-125l-236 -859h-147l-151 407l-81 -33l-42 109l217 84z" />
    <glyph glyph-name="infinity" unicode="&#x221e;" horiz-adv-x="805" 
d="M765 272q0 -91 -54 -145.5t-135 -54.5q-51 0 -91 25.5t-85 82.5q-88 -109 -182 -108q-74 0 -125.5 55t-51.5 143q0 90 53.5 145t135.5 55q51 0 92.5 -25.5t84.5 -83.5q87 109 183 109q75 0 125 -55.5t50 -142.5zM228 183q31 0 55.5 18t58.5 65q-31 51 -57 72t-58 21
q-71 0 -71 -86q0 -90 72 -90zM575 359q-28 0 -50.5 -18t-59.5 -65q35 -53 59.5 -73t54.5 -20q71 0 71 87q0 89 -75 89z" />
    <glyph glyph-name="integral" unicode="&#x222b;" horiz-adv-x="437" 
d="M420 873l-18 -111q-20 9 -43 9q-45 0 -61.5 -41t-16.5 -132q0 -96 9 -247.5t9 -238.5q0 -143 -46.5 -219t-152.5 -76q-56 0 -82 14l17 110q22 -8 43 -8q46 0 62 40.5t16 131.5q0 96 -8.5 248t-8.5 238q0 143 46.5 219.5t152.5 76.5q50 0 82 -14z" />
    <glyph glyph-name="approxequal" unicode="&#x2248;" horiz-adv-x="584" 
d="M476 464l72 -82q-42 -45 -76.5 -66.5t-78.5 -21.5q-42 0 -104.5 31t-88.5 31q-35 0 -78 -47l-72 82q41 44 76 66t79 22q42 0 104 -31t88 -31q36 0 79 47zM476 233l72 -82q-42 -45 -76.5 -66.5t-78.5 -21.5q-42 0 -104.5 31t-88.5 31q-35 0 -78 -47l-72 82q41 44 76 66
t79 22q42 0 104 -31t88 -31q36 0 79 47z" />
    <glyph glyph-name="notequal" unicode="&#x2260;" horiz-adv-x="588" 
d="M505 90h-229l-61 -142l-107 54l38 88h-73v133h130l41 96h-171v133h228l62 142l107 -54l-38 -88h73v-133h-130l-42 -96h172v-133z" />
    <glyph glyph-name="lessequal" unicode="&#x2264;" horiz-adv-x="567" 
d="M441 190l-372 158v136l372 159l47 -119l-270 -107l270 -107zM476 22h-407v126h407v-126z" />
    <glyph glyph-name="greaterequal" unicode="&#x2265;" horiz-adv-x="567" 
d="M126 643l372 -159v-136l-372 -158l-46 119l270 107l-270 107zM92 148h406v-126h-406v126z" />
    <glyph glyph-name="lozenge" unicode="&#x25ca;" horiz-adv-x="664" 
d="M623 345l-221 -405h-144l-217 405l221 405h143zM463 341l-132 265l-130 -258l131 -265z" />
    <glyph glyph-name="uni2639" unicode="&#x2639;" horiz-adv-x="818" 
d="M41 345q0 154 103 262t265 108q161 0 264.5 -107.5t103.5 -262.5t-104 -262.5t-265 -107.5t-264 107.5t-103 262.5zM142 343q0 -119 73 -194.5t194 -75.5q122 0 194.5 75.5t72.5 195.5q0 121 -72 196.5t-193 75.5q-122 0 -195.5 -76.5t-73.5 -196.5zM272 142l-93 71
q60 121 229 121q170 0 231 -121l-93 -71q-31 40 -56 54t-81 14q-57 0 -82 -14t-55 -54zM302 525q36 0 59.5 -24t23.5 -61t-23.5 -61t-59.5 -24t-59.5 24t-23.5 61t23.5 61t59.5 24zM517 525q35 0 58.5 -24t23.5 -61t-23.5 -61t-58.5 -24q-36 0 -59.5 24t-23.5 61t23.5 61
t59.5 24z" />
    <glyph glyph-name="smileface" unicode="&#x263a;" horiz-adv-x="818" 
d="M546 328l93 -71q-60 -122 -229 -122q-171 0 -231 122l93 71q31 -40 56 -54t81 -14q57 0 82 14t55 54zM303 525q35 0 58.5 -24t23.5 -61t-23.5 -61t-59.5 -24t-59 24t-23 61t23 61t60 24zM517 525q36 0 59 -24t23 -61t-23 -61t-59 -24t-59.5 24t-23.5 61t23.5 61t59.5 24z
M41 345q0 154 103 262t265 108q161 0 264.5 -107.5t103.5 -262.5t-104 -262.5t-265 -107.5t-264 107.5t-103 262.5zM142 343q0 -119 73 -194.5t194 -75.5q122 0 194.5 75.5t72.5 195.5q0 121 -72 196.5t-193 75.5q-122 0 -195.5 -76.5t-73.5 -196.5z" />
    <glyph glyph-name="Abrevesmall" unicode="&#xe000;" horiz-adv-x="550" 
d="M537 0h-161l-24 86h-164l-24 -86h-156l173 541h182zM321 208l-51 179l-50 -179h101zM351 786h112q-4 -84 -56.5 -131.5t-130.5 -47.5t-131 47.5t-58 131.5h113q2 -38 21.5 -61.5t54.5 -23.5q68 0 75 85z" />
    <glyph glyph-name="Amacronsmall" unicode="&#xe001;" horiz-adv-x="550" 
d="M537 0h-161l-24 86h-164l-24 -86h-156l173 541h182zM321 208l-51 179l-50 -179h101zM437 633h-324v116h324v-116z" />
    <glyph glyph-name="Aogoneksmall" unicode="&#xe002;" horiz-adv-x="546" 
d="M535 0q-119 -44 -119 -78q0 -18 24 -18t45 23l69 -74q-48 -48 -122 -48q-62 0 -98.5 29t-36.5 73q0 56 75 99l-22 80h-164l-24 -86h-156l172 541h183zM319 208l-51 179l-50 -179h101z" />
    <glyph glyph-name="Cacutesmall" unicode="&#xe003;" horiz-adv-x="482" 
d="M373 171l91 -95q-78 -85 -200 -85q-103 0 -158 55q-65 65 -65 217q0 159 68 226q61 61 173 61q115 0 174 -58l-83 -108q-37 31 -95 31q-44 0 -60 -24q-17 -24 -17 -132q0 -90 19 -115q16 -21 51 -21q54 0 102 48zM235 586l-84 75l163 197l96 -83z" />
    <glyph glyph-name="Ccaronsmall" unicode="&#xe004;" horiz-adv-x="482" 
d="M373 171l91 -95q-78 -85 -200 -85q-103 0 -158 55q-65 65 -65 217q0 159 68 226q61 61 173 61q115 0 174 -58l-83 -108q-37 31 -95 31q-44 0 -60 -24q-17 -24 -17 -132q0 -90 19 -115q16 -21 51 -21q54 0 102 48zM429 747l-163 -164l-159 162l77 78l84 -89l86 90z" />
    <glyph glyph-name="Ccircumflexsmall" unicode="&#xe005;" horiz-adv-x="482" 
d="M373 171l91 -95q-78 -85 -200 -85q-103 0 -158 55q-65 65 -65 217q0 159 68 226q61 61 173 61q115 0 174 -58l-83 -108q-37 31 -95 31q-44 0 -60 -24q-17 -24 -17 -132q0 -90 19 -115q16 -21 51 -21q54 0 102 48zM107 668l163 164l159 -162l-77 -78l-84 89l-85 -90z" />
    <glyph glyph-name="Cdotaccentsmall" unicode="&#xe006;" horiz-adv-x="482" 
d="M373 171l91 -95q-78 -85 -200 -85q-103 0 -158 55q-65 65 -65 217q0 159 68 226q61 61 173 61q115 0 174 -58l-83 -108q-37 31 -95 31q-44 0 -60 -24q-17 -24 -17 -132q0 -90 19 -115q16 -21 51 -21q54 0 102 48zM187 704q0 35 23 59t57 24q35 0 58.5 -24t23.5 -59
t-23.5 -58t-58.5 -23q-34 0 -57 23.5t-23 57.5z" />
    <glyph glyph-name="Dcaronsmall" unicode="&#xe007;" horiz-adv-x="573" 
d="M65 541h233q112 0 169 -52q63 -58 63 -212q0 -164 -71 -226q-57 -51 -156 -51h-238v541zM220 406v-272h69q43 0 61 20q19 22 19 119q0 94 -19 116q-17 17 -60 17h-70zM437 747l-163 -164l-159 162l77 78l84 -89l86 90z" />
    <glyph glyph-name="Dcroatsmall" unicode="&#xe008;" horiz-adv-x="580" 
d="M72 541h234q114 0 170 -54q61 -59 61 -210q0 -157 -67 -222q-57 -55 -160 -55h-238v209h-42v127h42v205zM222 406v-70h67v-127h-67v-75h75q49 0 64 23q15 22 15 116q0 96 -17 115q-15 18 -61 18h-76z" />
    <glyph glyph-name="E.alt" unicode="&#xe009;" horiz-adv-x="545" 
d="M481 151l25 -128q-65 -33 -175 -33q-150 0 -222 79q-40 45 -54 109t-14 160q0 91 12 155t50 112q74 95 240 95q99 0 157 -23l-23 -131q-54 17 -133 17q-83 0 -114 -37q-23 -27 -26 -107h258v-137h-258q3 -92 28 -121q29 -34 107 -34q89 0 142 24z" />
    <glyph glyph-name="E.altsmall" unicode="&#xe00a;" horiz-adv-x="474" 
d="M409 136l23 -120q-57 -24 -148 -24q-127 0 -185 60q-34 34 -46 84t-12 126q0 75 10.5 126t42.5 89q62 72 200 72q81 0 133 -17l-21 -124q-44 11 -110 11q-63 0 -83 -23q-15 -16 -18 -58h201v-129h-201q3 -51 20 -68q19 -20 78 -20q72 0 116 15z" />
    <glyph glyph-name="Ebrevesmall" unicode="&#xe00b;" horiz-adv-x="476" 
d="M65 541h349v-126h-199v-79h181v-126h-181v-84h203v-126h-353v541zM322 786h112q-4 -84 -56.5 -131.5t-130.5 -47.5t-131 47.5t-58 131.5h113q2 -38 21.5 -61.5t54.5 -23.5q68 0 75 85z" />
    <glyph glyph-name="Ecaronsmall" unicode="&#xe00c;" horiz-adv-x="476" 
d="M65 541h349v-126h-199v-79h181v-126h-181v-84h203v-126h-353v541zM407 747l-163 -164l-159 162l77 78l84 -89l86 90z" />
    <glyph glyph-name="Edotaccentsmall" unicode="&#xe00d;" horiz-adv-x="476" 
d="M65 541h349v-126h-199v-79h181v-126h-181v-84h203v-126h-353v541zM165 704q0 35 23 59t57 24q35 0 58.5 -24t23.5 -59t-23.5 -58t-58.5 -23q-34 0 -57 23.5t-23 57.5z" />
    <glyph glyph-name="Emacronsmall" unicode="&#xe00e;" horiz-adv-x="476" 
d="M65 541h349v-126h-199v-79h181v-126h-181v-84h203v-126h-353v541zM408 633h-324v116h324v-116z" />
    <glyph glyph-name="Eogoneksmall" unicode="&#xe00f;" horiz-adv-x="476" 
d="M65 541h349v-126h-199v-79h181v-126h-181v-84h204v-126q-58 -15 -92.5 -37t-34.5 -41q0 -18 23 -18q24 0 45 23l69 -74q-47 -47 -121 -47q-62 0 -99 28.5t-37 71.5q0 55 68 94h-175v541z" />
    <glyph glyph-name="Euro.alt" unicode="&#xe010;" 
d="M529 179v-146q-76 -43 -170 -43q-144 0 -216 97q-54 70 -62 195h-87l35 138h52q10 111 55 177q74 111 243 111q105 0 171 -33l-44 -133q-57 30 -130 30q-74 0 -101 -35.5t-31 -116.5h228l-35 -138h-192q4 -83 28.5 -120t85.5 -37q87 0 170 54z" />
    <glyph glyph-name="Euro.alt.fitted" unicode="&#xe011;" horiz-adv-x="598" 
d="M545 179v-146q-78 -43 -175 -43q-144 0 -219 97q-54 69 -64 195h-89l35 138h54q10 108 57 177q76 111 247 111q108 0 175 -33l-44 -133q-58 30 -133 30q-78 0 -106.5 -35.5t-32.5 -116.5h236l-35 -138h-200q5 -83 30.5 -120t89.5 -37q89 0 174 54z" />
    <glyph glyph-name="Euro.alt.fitted.oldstyle" unicode="&#xe012;" horiz-adv-x="559" 
d="M505 165v-138q-72 -36 -157 -36q-132 0 -200 87q-48 60 -58 167h-80l34 131h47q10 92 50 149q68 100 226 100q99 0 158 -28l-42 -126q-52 25 -118 25t-90.5 -28t-28.5 -92h206l-33 -131h-173q5 -67 27 -96.5t76 -29.5q75 0 156 46z" />
    <glyph glyph-name="Euro.alt.taboldstyle" unicode="&#xe013;" horiz-adv-x="556" 
d="M495 165v-138q-72 -36 -155 -36q-130 0 -198 87q-46 59 -56 167h-78l33 131h46q10 91 49 149q67 100 224 100q96 0 155 -28l-43 -126q-50 25 -114 25t-88.5 -28.5t-27.5 -91.5h201l-33 -131h-168q5 -67 26 -96.5t74 -29.5q72 0 153 46z" />
    <glyph glyph-name="Euro.fitted" unicode="&#xe014;" 
d="M440 311l-26 -105h-166q11 -45 36.5 -66t74.5 -21q83 0 165 52v-139q-75 -42 -172 -42q-140 0 -213 100q-32 44 -50 116h-87l27 105h47v63h-74l27 105h59q18 80 59 130q76 91 229 91q101 0 169 -32l-41 -126q-57 27 -133 27q-58 0 -86.5 -21.5t-38.5 -68.5h238l-26 -105
h-220v-63h202z" />
    <glyph glyph-name="Euro.fitted.oldstyle" unicode="&#xe015;" horiz-adv-x="541" 
d="M505 165v-138q-72 -36 -157 -36q-132 0 -200 87q-48 60 -58 167h-80l34 131h47q10 92 50 149q68 100 226 100q99 0 158 -28l-42 -126q-52 25 -118 25t-90.5 -28t-28.5 -92h206l-33 -131h-173q5 -67 27 -96.5t76 -29.5q75 0 156 46z" />
    <glyph glyph-name="G.alt" unicode="&#xe016;" horiz-adv-x="647" 
d="M329 396h261v-396h-148l1 86q-20 -43 -68 -70.5t-110 -27.5q-100 0 -157 73q-67 83 -67 278t70 274q75 87 244 87q153 0 227 -71l-93 -112q-50 42 -142 42q-86 0 -111 -37q-16 -22 -20.5 -66t-4.5 -128q0 -137 19 -171q19 -35 75 -35q57 0 93 41t49 107h-118v126z" />
    <glyph glyph-name="G.altsmall" unicode="&#xe017;" horiz-adv-x="555" 
d="M281 319h220v-319h-140l1 60q-17 -30 -55 -49.5t-84 -19.5q-78 0 -124 53q-58 65 -58 222q0 149 59 213q63 70 204 70q131 0 193 -55l-89 -108q-39 29 -110 29q-60 0 -77 -23q-18 -24 -18 -133q0 -101 13 -121q14 -21 49 -21q36 0 63.5 24t39.5 61h-87v117z" />
    <glyph glyph-name="Gbrevesmall" unicode="&#xe018;" horiz-adv-x="555" 
d="M281 318h220v-288q-93 -37 -199 -37q-133 0 -195 60q-39 37 -52.5 88t-13.5 123q0 164 70 228q65 57 191 57q131 0 195 -56l-89 -108q-43 30 -114 30q-52 0 -71 -21q-20 -23 -20 -120q0 -68 5 -96t17 -42q19 -21 72 -21q37 0 66 8v73h-82v122zM373 786h112
q-4 -84 -56.5 -131.5t-130.5 -47.5t-131 47.5t-58 131.5h113q2 -38 21.5 -61.5t54.5 -23.5q68 0 75 85z" />
    <glyph glyph-name="Gcircumflexsmall" unicode="&#xe019;" horiz-adv-x="555" 
d="M281 318h220v-288q-93 -37 -199 -37q-133 0 -195 60q-39 37 -52.5 88t-13.5 123q0 164 70 228q65 57 191 57q131 0 195 -56l-89 -108q-43 30 -114 30q-52 0 -71 -21q-20 -23 -20 -120q0 -68 5 -96t17 -42q19 -21 72 -21q37 0 66 8v73h-82v122zM136 668l163 164l159 -162
l-77 -78l-84 89l-85 -90z" />
    <glyph glyph-name="Gcommaaccentsmall" unicode="&#xe01a;" horiz-adv-x="555" 
d="M281 318h220v-288q-93 -37 -199 -37q-133 0 -195 60q-39 37 -52.5 88t-13.5 123q0 164 70 228q65 57 191 57q131 0 195 -56l-89 -108q-43 30 -114 30q-52 0 -71 -21q-20 -23 -20 -120q0 -68 5 -96t17 -42q19 -21 72 -21q37 0 66 8v73h-82v122zM223 -118q0 34 23.5 57.5
t62.5 23.5t62 -23t23 -62q0 -77 -86 -202l-90 44q31 58 42 97q-37 20 -37 65z" />
    <glyph glyph-name="Gdotaccentsmall" unicode="&#xe01b;" horiz-adv-x="555" 
d="M281 318h220v-288q-93 -37 -199 -37q-133 0 -195 60q-39 37 -52.5 88t-13.5 123q0 164 70 228q65 57 191 57q131 0 195 -56l-89 -108q-43 30 -114 30q-52 0 -71 -21q-20 -23 -20 -120q0 -68 5 -96t17 -42q19 -21 72 -21q37 0 66 8v73h-82v122zM216 704q0 35 23 59t57 24
q35 0 58.5 -24t23.5 -59t-23.5 -58t-58.5 -23q-34 0 -57 23.5t-23 57.5z" />
    <glyph glyph-name="Hbarsmall" unicode="&#xe01c;" horiz-adv-x="616" 
d="M78 541h155v-65h148v65h154v-65h83v-89h-83v-387h-154v207h-148v-207h-155v387h-82v89h82v65zM233 344h148v43h-148v-43z" />
    <glyph glyph-name="Hcircumflexsmall" unicode="&#xe01d;" horiz-adv-x="589" 
d="M65 541h154v-197h148v197h154v-541h-154v207h-148v-207h-154v541zM133 668l163 164l159 -162l-77 -78l-84 89l-85 -90z" />
    <glyph glyph-name="Idotaccentsmall" unicode="&#xe01e;" horiz-adv-x="292" 
d="M65 541h154v-541h-154v541zM65 704q0 35 23 59t57 24q35 0 58.5 -24t23.5 -59t-23.5 -58t-58.5 -23q-34 0 -57 23.5t-23 57.5z" />
    <glyph glyph-name="Imacronsmall" unicode="&#xe01f;" horiz-adv-x="292" 
d="M65 541h154v-541h-154v541zM308 633h-324v116h324v-116z" />
    <glyph glyph-name="Iogoneksmall" unicode="&#xe020;" horiz-adv-x="292" 
d="M201 -73l70 -74q-49 -48 -121 -48q-65 0 -101 30t-36 76q0 51 52 94v536h154v-541q-86 -35 -86 -74q0 -21 23 -21q25 0 45 22z" />
    <glyph glyph-name="Itildesmall" unicode="&#xe021;" horiz-adv-x="292" 
d="M65 541h154v-541h-154v541zM278 794l63 -79q-35 -39 -65 -58t-69 -19q-31 0 -71.5 16.5t-58.5 16.5q-29 0 -63 -36l-63 79q36 38 66 57t69 19q30 0 71 -16.5t58 -16.5q28 0 63 37z" />
    <glyph glyph-name="J.alt" unicode="&#xe022;" horiz-adv-x="476" 
d="M246 690h161v-453q0 -245 -235 -245q-110 0 -168 59l85 112q35 -32 81 -32q25 0 41.5 8.5t23.5 26t9 33.5t2 41v450z" />
    <glyph glyph-name="J.altsmall" unicode="&#xe023;" horiz-adv-x="435" 
d="M208 541h155v-341q0 -37 -7.5 -69t-28 -65t-63.5 -52.5t-106 -19.5q-95 0 -146 50l81 107q27 -24 61 -24q24 0 36.5 12t15 25.5t2.5 37.5v339z" />
    <glyph glyph-name="Kcommaaccentsmall" unicode="&#xe024;" horiz-adv-x="587" 
d="M65 541h154v-192h48l111 192h175l-152 -262l166 -279h-183l-117 204h-48v-204h-154v541zM219 -118q0 34 23.5 57.5t62.5 23.5t62 -23t23 -62q0 -77 -86 -202l-90 44q31 58 42 97q-37 20 -37 65z" />
    <glyph glyph-name="Lacutesmall" unicode="&#xe025;" horiz-adv-x="427" 
d="M65 541h154v-404h178v-137h-332v541zM149 536l-84 75l163 197l96 -83z" />
    <glyph glyph-name="Lcaronsmall" unicode="&#xe026;" horiz-adv-x="427" 
d="M65 541h154v-404h178v-137h-332v541zM268 556q0 38 24.5 63.5t65.5 25.5t65 -25.5t24 -65.5q0 -95 -97 -241l-96 48q40 76 53 122q-39 22 -39 73z" />
    <glyph glyph-name="Lcommaaccentsmall" unicode="&#xe027;" horiz-adv-x="427" 
d="M65 541h154v-404h178v-137h-332v541zM154 -118q0 34 23.5 57.5t62.5 23.5t62 -23t23 -62q0 -77 -86 -202l-90 44q31 58 42 97q-37 20 -37 65z" />
    <glyph glyph-name="Nacutesmall" unicode="&#xe028;" horiz-adv-x="618" 
d="M65 541h194l149 -332l-5 332h147v-541h-194l-149 331l5 -331h-147v541zM295 586l-84 75l163 197l96 -83z" />
    <glyph glyph-name="Ncaronsmall" unicode="&#xe029;" horiz-adv-x="618" 
d="M65 541h194l149 -332l-5 332h147v-541h-194l-149 331l5 -331h-147v541zM489 747l-163 -164l-159 162l77 78l84 -89l86 90z" />
    <glyph glyph-name="Ncommaaccentsmall" unicode="&#xe02a;" horiz-adv-x="618" 
d="M65 541h194l149 -332l-5 332h147v-541h-194l-149 331l5 -331h-147v541zM238 -118q0 34 23.5 57.5t62.5 23.5t62 -23t23 -62q0 -77 -86 -202l-90 44q31 58 42 97q-37 20 -37 65z" />
    <glyph glyph-name="Obrevesmall" unicode="&#xe02b;" horiz-adv-x="590" 
d="M548 275q0 -162 -72 -228q-64 -59 -185 -59q-123 0 -184 59q-66 62 -66 219q0 161 72 228q62 59 185 59t185 -59q65 -64 65 -219zM384 268q0 108 -25 134q-20 20 -62 20q-46 0 -68 -25q-24 -28 -24 -126q0 -106 25 -132q20 -20 62 -20q49 0 68 25q24 28 24 124zM371 786
h112q-4 -84 -56.5 -131.5t-130.5 -47.5t-131 47.5t-58 131.5h113q2 -38 21.5 -61.5t54.5 -23.5q68 0 75 85z" />
    <glyph glyph-name="Ohungarumlautsmall" unicode="&#xe02c;" horiz-adv-x="590" 
d="M548 275q0 -162 -72 -228q-64 -59 -185 -59q-123 0 -184 59q-66 62 -66 219q0 161 72 228q62 59 185 59t185 -59q65 -64 65 -219zM384 268q0 108 -25 134q-20 20 -62 20q-46 0 -68 -25q-24 -28 -24 -126q0 -106 25 -132q20 -20 62 -20q49 0 68 25q24 28 24 124zM194 587
l-75 66l157 191l86 -73zM398 587l-75 66l158 191l85 -73z" />
    <glyph glyph-name="Omacronsmall" unicode="&#xe02d;" horiz-adv-x="590" 
d="M548 275q0 -162 -72 -228q-64 -59 -185 -59q-123 0 -184 59q-66 62 -66 219q0 161 72 228q62 59 185 59t185 -59q65 -64 65 -219zM384 268q0 108 -25 134q-20 20 -62 20q-46 0 -68 -25q-24 -28 -24 -126q0 -106 25 -132q20 -20 62 -20q49 0 68 25q24 28 24 124zM457 633
h-324v116h324v-116z" />
    <glyph glyph-name="Oslash.alt" unicode="&#xe02e;" horiz-adv-x="687" 
d="M676 691l-76 -105q46 -79 46 -234q0 -207 -88 -292q-77 -75 -219 -75q-81 0 -138 23l-63 -98l-128 91l76 104q-44 76 -44 232q0 201 79 286q77 82 228 82q78 0 136 -22l63 99zM473 345q0 146 -32 186q-28 36 -94 36q-76 0 -106 -47q-27 -43 -27 -176q0 -143 31 -184
q28 -38 95 -38q78 0 107 50q26 42 26 173z" />
    <glyph glyph-name="Oslash.altsmall" unicode="&#xe02f;" horiz-adv-x="591" 
d="M574 533l-60 -80q34 -62 34 -178q0 -165 -75 -231q-64 -56 -182 -56q-60 0 -105 14l-51 -79l-120 86l60 80q-33 61 -33 176q0 158 66 225q66 63 191 63q59 0 104 -14l51 80zM384 268q0 106 -23 131q-20 23 -63 23q-51 0 -73 -29q-20 -30 -20 -122q0 -103 23 -130
q19 -22 64 -22q54 0 74 30q18 28 18 119z" />
    <glyph glyph-name="Racutesmall" unicode="&#xe030;" horiz-adv-x="569" 
d="M65 541h246q90 0 139 -30q64 -41 64 -134q0 -119 -102 -148q51 -7 72.5 -56.5t30.5 -172.5h-161q-12 104 -24 134t-43 30h-68v-164h-154v541zM219 409v-116h54q44 0 62.5 13.5t18.5 55.5q0 28 -13 39q-11 8 -40 8h-82zM252 586l-84 75l163 197l96 -83z" />
    <glyph glyph-name="Rcaronsmall" unicode="&#xe031;" horiz-adv-x="569" 
d="M65 541h246q90 0 139 -30q64 -41 64 -134q0 -119 -102 -148q51 -7 72.5 -56.5t30.5 -172.5h-161q-12 104 -24 134t-43 30h-68v-164h-154v541zM219 409v-116h54q44 0 62.5 13.5t18.5 55.5q0 28 -13 39q-11 8 -40 8h-82zM446 747l-163 -164l-159 162l77 78l84 -89l86 90z
" />
    <glyph glyph-name="Rcommaaccentsmall" unicode="&#xe032;" horiz-adv-x="569" 
d="M65 541h246q90 0 139 -30q64 -41 64 -134q0 -119 -102 -148q51 -7 72.5 -56.5t30.5 -172.5h-161q-12 104 -24 134t-43 30h-68v-164h-154v541zM219 409v-116h54q44 0 62.5 13.5t18.5 55.5q0 28 -13 39q-11 8 -40 8h-82zM208 -118q0 34 23.5 57.5t62.5 23.5t62 -23t23 -62
q0 -77 -86 -202l-90 44q31 58 42 97q-37 20 -37 65z" />
    <glyph glyph-name="Sacutesmall" unicode="&#xe033;" horiz-adv-x="475" 
d="M431 502l-72 -111q-45 29 -120 29q-52 0 -52 -38q0 -14 19 -24t47 -15t61 -16.5t61 -27.5t47 -49.5t19 -80.5q0 -90 -74 -139q-62 -40 -153 -40q-132 0 -194 54l75 114q52 -38 133 -38q56 0 56 41q0 15 -14 25t-36.5 16t-49 13t-53.5 18t-49.5 28t-36.5 47t-14 70
q0 81 65 127q61 45 156 45q118 0 179 -48zM206 586l-84 75l163 197l96 -83z" />
    <glyph glyph-name="Scedillasmall" unicode="&#xe034;" horiz-adv-x="475" 
d="M431 502l-72 -111q-45 29 -120 29q-52 0 -52 -38q0 -14 19 -24t47 -15t61 -16.5t61 -27.5t47 -49.5t19 -80.5q0 -90 -74 -139q-43 -28 -96 -35l-2 -29q63 -29 63 -89q0 -49 -33.5 -82.5t-92.5 -33.5q-75 0 -119 57l60 63q24 -31 51 -31q31 0 31 27q0 32 -59 48l7 67
q-106 8 -157 52l75 114q52 -38 133 -38q56 0 56 41q0 15 -14 25t-36.5 16t-49 13t-53.5 18t-49.5 28t-36.5 47t-14 70q0 81 65 127q61 45 156 45q118 0 179 -48z" />
    <glyph glyph-name="Scircumflexsmall" unicode="&#xe035;" horiz-adv-x="475" 
d="M431 502l-72 -111q-45 29 -120 29q-52 0 -52 -38q0 -14 19 -24t47 -15t61 -16.5t61 -27.5t47 -49.5t19 -80.5q0 -90 -74 -139q-62 -40 -153 -40q-132 0 -194 54l75 114q52 -38 133 -38q56 0 56 41q0 15 -14 25t-36.5 16t-49 13t-53.5 18t-49.5 28t-36.5 47t-14 70
q0 81 65 127q61 45 156 45q118 0 179 -48zM78 668l163 164l159 -162l-77 -78l-84 89l-85 -90z" />
    <glyph glyph-name="Scommaaccentsmall" unicode="&#xe036;" horiz-adv-x="475" 
d="M431 502l-72 -111q-45 29 -120 29q-52 0 -52 -38q0 -14 19 -24t47 -15t61 -16.5t61 -27.5t47 -49.5t19 -80.5q0 -90 -74 -139q-62 -40 -153 -40q-132 0 -194 54l75 114q52 -38 133 -38q56 0 56 41q0 15 -14 25t-36.5 16t-49 13t-53.5 18t-49.5 28t-36.5 47t-14 70
q0 81 65 127q61 45 156 45q118 0 179 -48zM158 -118q0 34 23.5 57.5t62.5 23.5t62 -23t23 -62q0 -77 -86 -202l-90 44q31 58 42 97q-37 20 -37 65z" />
    <glyph glyph-name="Tcaronsmall" unicode="&#xe037;" horiz-adv-x="454" 
d="M18 541h421v-138h-133v-403h-155v403h-133v138zM388 747l-163 -164l-159 162l77 78l84 -89l86 90z" />
    <glyph glyph-name="Tcommaaccentsmall" unicode="&#xe038;" horiz-adv-x="454" 
d="M18 541h421v-138h-133v-403h-155v403h-133v138zM146 -118q0 34 23.5 57.5t62.5 23.5t62 -23t23 -62q0 -77 -86 -202l-90 44q31 58 42 97q-37 20 -37 65z" />
    <glyph glyph-name="U.alt" unicode="&#xe039;" horiz-adv-x="670" 
d="M601 0h-144v104q-50 -118 -183 -118q-103 0 -154 64t-51 173v467h161v-447q0 -59 16.5 -86t66.5 -27q64 0 95.5 48.5t31.5 153.5v358h161v-690z" />
    <glyph glyph-name="U.altsmall" unicode="&#xe03a;" horiz-adv-x="578" 
d="M512 0h-135v73q-44 -84 -144 -84q-84 0 -126 52t-42 139v361h153v-345q0 -37 10.5 -53.5t44.5 -16.5q43 0 64 30.5t21 97.5v287h154v-541z" />
    <glyph glyph-name="Ubrevesmall" unicode="&#xe03b;" horiz-adv-x="585" 
d="M65 541h155v-347q0 -38 12.5 -53.5t60.5 -15.5q45 0 58 15t13 53v348h154v-346q0 -89 -37 -134q-57 -71 -194 -71q-127 0 -182 62q-40 46 -40 139v350zM368 786h112q-4 -84 -56.5 -131.5t-130.5 -47.5t-131 47.5t-58 131.5h113q2 -38 21.5 -61.5t54.5 -23.5q68 0 75 85z
" />
    <glyph glyph-name="Uhungarumlautsmall" unicode="&#xe03c;" horiz-adv-x="585" 
d="M65 541h155v-347q0 -38 12.5 -53.5t60.5 -15.5q45 0 58 15t13 53v348h154v-346q0 -89 -37 -134q-57 -71 -194 -71q-127 0 -182 62q-40 46 -40 139v350zM191 587l-75 66l157 191l86 -73zM395 587l-75 66l158 191l85 -73z" />
    <glyph glyph-name="Umacronsmall" unicode="&#xe03d;" horiz-adv-x="585" 
d="M65 541h155v-347q0 -38 12.5 -53.5t60.5 -15.5q45 0 58 15t13 53v348h154v-346q0 -89 -37 -134q-57 -71 -194 -71q-127 0 -182 62q-40 46 -40 139v350zM454 633h-324v116h324v-116z" />
    <glyph glyph-name="Uogoneksmall" unicode="&#xe03e;" horiz-adv-x="585" 
d="M65 541h155v-347q0 -38 12.5 -53.5t60.5 -15.5q45 0 58 15t13 53v348h155v-346q0 -87 -38 -134q-27 -34 -75 -52q-98 -50 -98 -86q0 -18 24 -18q25 0 45 22l70 -74q-49 -48 -122 -48q-63 0 -100 29t-37 72q0 47 45 88q-87 11 -127 58q-41 47 -41 139v350z" />
    <glyph glyph-name="Uringsmall" unicode="&#xe03f;" horiz-adv-x="585" 
d="M65 541h155v-347q0 -38 12.5 -53.5t60.5 -15.5q45 0 58 15t13 53v348h154v-346q0 -89 -37 -134q-57 -71 -194 -71q-127 0 -182 62q-40 46 -40 139v350zM431 731q0 -56 -39 -91t-100 -35t-100 35t-39 91q0 57 38.5 91.5t100.5 34.5q61 0 100 -34.5t39 -91.5zM334 732
q0 43 -41 43q-43 0 -43 -45q0 -44 42 -44t42 46z" />
    <glyph glyph-name="Utildesmall" unicode="&#xe040;" horiz-adv-x="585" 
d="M65 541h155v-347q0 -38 12.5 -53.5t60.5 -15.5q45 0 58 15t13 53v348h154v-346q0 -89 -37 -134q-57 -71 -194 -71q-127 0 -182 62q-40 46 -40 139v350zM424 794l63 -79q-35 -39 -65 -58t-69 -19q-31 0 -71.5 16.5t-58.5 16.5q-29 0 -63 -36l-63 79q36 38 66 57t69 19
q30 0 71 -16.5t58 -16.5q28 0 63 37z" />
    <glyph glyph-name="Wcircumflexsmall" unicode="&#xe041;" horiz-adv-x="766" 
d="M18 541h154l58 -360l77 346h153l77 -346l58 360h153l-118 -541h-173l-76 338l-76 -338h-174zM222 668l163 164l159 -162l-77 -78l-84 89l-85 -90z" />
    <glyph glyph-name="Y.alt" unicode="&#xe042;" horiz-adv-x="623" 
d="M621 690l-206 -657q-44 -140 -108.5 -203.5t-158.5 -63.5q-75 0 -115 28l50 130q28 -16 64 -16q45 0 71.5 25.5t42.5 81.5h-42l-216 675h174l141 -506l133 506h170z" />
    <glyph glyph-name="Y.altsmall" unicode="&#xe043;" horiz-adv-x="549" 
d="M533 541l-162 -498q-36 -111 -91.5 -167.5t-138.5 -56.5q-65 0 -103 25l47 121q23 -13 53 -13q65 0 84 67h-40l-170 522l165 -1l99 -365l95 366h162z" />
    <glyph glyph-name="Ycircumflexsmall" unicode="&#xe044;" horiz-adv-x="510" 
d="M1 541h176l73 -189l76 189h176l-176 -345v-196h-155v196zM94 668l163 164l159 -162l-77 -78l-84 89l-85 -90z" />
    <glyph glyph-name="Zacutesmall" unicode="&#xe045;" horiz-adv-x="470" 
d="M424 539v-127l-202 -277h206v-135h-393v127l201 277h-190v135h378zM204 586l-84 75l163 197l96 -83z" />
    <glyph glyph-name="Zdotaccentsmall" unicode="&#xe046;" horiz-adv-x="470" 
d="M424 539v-127l-202 -277h206v-135h-393v127l201 277h-190v135h378zM156 704q0 35 23 59t57 24q35 0 58.5 -24t23.5 -59t-23.5 -58t-58.5 -23q-34 0 -57 23.5t-23 57.5z" />
    <glyph glyph-name="a.alt" unicode="&#xe047;" horiz-adv-x="578" 
d="M383 510h132v-510h-149l-2 67q-52 -80 -147 -80q-67 0 -110 42q-65 62 -65 218t65 222q50 52 132 52q90 0 142 -67zM260 120q35 0 64 36q40 48 40 122q0 54 -25 83q-25 28 -64 28q-43 0 -56 -31.5t-13 -104.5q0 -71 10.5 -102t43.5 -31z" />
    <glyph glyph-name="approxequal.cap" unicode="&#xe048;" horiz-adv-x="584" 
d="M476 538l72 -82q-42 -45 -76.5 -66.5t-78.5 -21.5q-42 0 -104.5 31t-88.5 31q-35 0 -78 -47l-72 82q41 44 76 66t79 22q42 0 104 -31t88 -31q36 0 79 47zM476 307l72 -82q-42 -45 -76.5 -66.5t-78.5 -21.5q-42 0 -104.5 31t-88.5 31q-35 0 -78 -47l-72 82q41 44 76 66
t79 22q42 0 104 -31t88 -31q36 0 79 47z" />
    <glyph glyph-name="asciitilde.cap" unicode="&#xe049;" horiz-adv-x="567" 
d="M449 433l84 -93q-46 -48 -82 -70.5t-80 -22.5q-39 0 -98.5 27t-81.5 27q-28 0 -73 -45l-83 94q45 47 81 69.5t80 22.5q39 0 98.5 -26.5t81.5 -26.5q31 0 73 44z" />
    <glyph glyph-name="atsmall" unicode="&#xe04a;" horiz-adv-x="714" 
d="M532 198q15 0 24.5 24t9.5 67q0 198 -204 198q-217 0 -217 -215q0 -109 58 -161t184 -52q146 0 229 74l59 -65q-106 -103 -295 -103q-165 0 -252 82.5t-87 222.5q0 145 88 230.5t236 85.5q143 0 225 -78t82 -198q0 -86 -42 -140.5t-118 -54.5q-68 0 -87 47
q-43 -49 -108 -49q-50 0 -81.5 27.5t-31.5 74.5q0 103 164 103h28v5q0 23 -40 23q-54 0 -81 -23l-54 71q47 42 139 42q75 0 111 -31.5t36 -98.5v-50q0 -58 25 -58zM397 245h-31q-15 0 -23 -1t-14.5 -7t-6.5 -17q0 -19 16 -19q15 0 35 14.5t24 29.5z" />
    <glyph glyph-name="cent.fitted" unicode="&#xe04b;" horiz-adv-x="536" 
d="M373 765l-1 -109q84 -14 130 -64l-93 -110q-38 37 -100 37q-60 0 -78.5 -36t-18.5 -126q0 -93 17 -130.5t67 -37.5q66 0 116 60l100 -104q-57 -65 -140 -86l1 -114h-167l1 116q-58 17 -98 60q-67 75 -67 230q0 158 69 234q36 40 96 61l-1 119h167z" />
    <glyph glyph-name="cent.fitted.oldstyle" unicode="&#xe04c;" horiz-adv-x="509" 
d="M355 677l-1 -96q74 -13 115 -56l-89 -105q-34 30 -86 30t-67.5 -29.5t-15.5 -104.5q0 -77 14 -108t57 -31q55 0 101 49l95 -99q-51 -55 -124 -75l1 -100h-160l2 102q-50 15 -85 50q-62 63 -62 206q0 144 63 210q34 36 84 51l-2 106h160z" />
    <glyph glyph-name="colon.cap" unicode="&#xe04d;" horiz-adv-x="286" 
d="M48 182q0 40 27 66.5t67 26.5t67 -26.5t27 -66.5t-27 -67t-67 -27t-67 27t-27 67zM48 508q0 40 27 67t67 27t67 -27t27 -67t-27 -67t-67 -27t-67 27t-27 67z" />
    <glyph glyph-name="colonsmall" unicode="&#xe04e;" horiz-adv-x="287" 
d="M49 150q0 37 25 62t63 25t63 -25t25 -62q0 -38 -25.5 -63t-62.5 -25t-62.5 25t-25.5 63zM49 391q0 37 25.5 62.5t62.5 25.5t62.5 -25.5t25.5 -62.5q0 -38 -25 -63t-63 -25t-63 25t-25 63z" />
    <glyph glyph-name="divide.cap" unicode="&#xe04f;" horiz-adv-x="567" 
d="M211 169q0 30 21.5 51t51.5 21q31 0 51.5 -20.5t20.5 -51.5t-20.5 -52t-51.5 -21q-30 0 -51.5 21.5t-21.5 51.5zM211 521q0 30 21 51.5t52 21.5t52 -21t21 -52q0 -30 -21 -51t-52 -21t-52 21t-21 51zM507 283h-446v123h446v-123z" />
    <glyph glyph-name="dollar.fitted" unicode="&#xe050;" horiz-adv-x="520" 
d="M345 765l-1 -85q89 -15 136 -52l-77 -117q-53 37 -138 37q-35 0 -53 -11.5t-18 -41.5q0 -21 22 -35.5t55 -22.5t72 -22.5t72 -33.5t55 -58t22 -94q0 -97 -72 -152q-35 -25 -76 -37l1 -95h-168l1 84q-106 13 -163 61l81 120q62 -48 157 -48q73 0 73 57q0 24 -22 40.5
t-55 24.5t-72 22.5t-72 33t-55 57t-22 92.5q0 90 66 142q36 27 84 41l-1 93h168z" />
    <glyph glyph-name="dollar.fitted.oldstyle" unicode="&#xe051;" horiz-adv-x="505" 
d="M331 677l-1 -75q79 -13 122 -47l-73 -111q-47 31 -125 31q-29 0 -44 -8.5t-15 -31.5q0 -17 20 -28.5t49.5 -17.5t64.5 -18.5t64.5 -29t49.5 -51.5t20 -84q0 -89 -66 -137q-29 -20 -67 -33l1 -84h-161l1 74q-96 11 -146 54l77 114q57 -41 142 -41q60 0 60 44q0 19 -20 32
t-49.5 19.5t-64 19t-64 28.5t-49.5 50.5t-20 82.5q0 83 60 128q31 25 75 37l-2 83h161z" />
    <glyph glyph-name="eightsmall" unicode="&#xe052;" horiz-adv-x="511" 
d="M52 404q0 41 18 71t48 46.5t64.5 24t72.5 7.5q82 0 140.5 -34.5t58.5 -108.5q0 -91 -89 -131q96 -38 96 -137q0 -79 -59 -116.5t-148 -37.5q-56 0 -101.5 14.5t-77 50t-31.5 88.5q0 95 101 134q-93 38 -93 129zM189 392q0 -29 15.5 -41.5t47.5 -21.5q33 9 49 22t16 42
t-16.5 39.5t-46.5 10.5q-65 0 -65 -51zM180 155q0 -56 72 -56t72 56q0 32 -18.5 47t-54.5 26q-35 -11 -53 -26t-18 -47z" />
    <glyph glyph-name="equal.cap" unicode="&#xe053;" horiz-adv-x="567" 
d="M497 168h-426v130h426v-130zM497 391h-426v131h426v-131z" />
    <glyph glyph-name="equal.denominator" unicode="&#xe054;" horiz-adv-x="364" 
d="M316 85h-262v86h262v-86zM316 217h-262v86h262v-86z" />
    <glyph glyph-name="equal.numerator" unicode="&#xe055;" horiz-adv-x="364" 
d="M316 386h-262v87h262v-87zM316 518h-262v87h262v-87z" />
    <glyph glyph-name="equalinferior" unicode="&#xe056;" horiz-adv-x="362" 
d="M316 -97h-265v90h265v-90zM316 39h-265v90h265v-90z" />
    <glyph glyph-name="equalsuperior" unicode="&#xe057;" horiz-adv-x="362" 
d="M316 571h-265v90h265v-90zM316 707h-265v90h265v-90z" />
    <glyph glyph-name="f.alt" unicode="&#xe058;" horiz-adv-x="399" 
d="M396 731l-22 -129q-18 6 -42 6q-45 0 -57 -19.5t-12 -66.5v-24h98v-137h-98v-361h-157v361h-76v137h76v26q0 218 214 218q44 0 76 -11z" />
    <glyph glyph-name="ff.alt" unicode="&#xe059;" horiz-adv-x="708" 
d="M705 731l-22 -129q-18 6 -45 6q-42 0 -54 -20t-12 -66v-31h98v-129h-98v-362h-152v362h-163v-362h-151v362h-76v129h76v24q0 218 207 218q41 0 77 -12l-21 -128q-19 6 -45 6q-42 0 -54.5 -20t-12.5 -66v-22h163v33q0 218 207 218q45 0 78 -11z" />
    <glyph glyph-name="fivesmall" unicode="&#xe05a;" horiz-adv-x="511" 
d="M50 45l73 100q18 -16 51 -24.5t62 -8.5q30 0 45 10q23 13 23 52q0 35 -20 49q-16 10 -44 10q-38 0 -62 -21l-110 23l2 306h353v-123h-226l-2 -83q24 16 77 16q74 0 124 -37q61 -44 61 -136q0 -100 -71 -148q-59 -41 -147 -41q-51 0 -105.5 14t-83.5 42z" />
    <glyph glyph-name="four.alt" unicode="&#xe05c;" 
d="M467 690v-426h79v-118h-79v-146h-145v146h-287v156l228 388h204zM322 263v287l-153 -287h153z" />
    <glyph glyph-name="four.alt.fitted" unicode="&#xe05d;" horiz-adv-x="572" 
d="M464 690v-426h78v-118h-78v-146h-145v146h-285v156l226 388h204zM319 263v287l-152 -287h152z" />
    <glyph glyph-name="foursmall" unicode="&#xe05e;" horiz-adv-x="511" 
d="M463 89h-68v-89h-141v89h-209v131l92 321h144l-92 -319h69v181h137v-179h68v-135z" />
    <glyph glyph-name="g.alt" unicode="&#xe05f;" horiz-adv-x="560" 
d="M518 -56q0 -84 -69 -135q-68 -49 -173 -49q-99 0 -164 39q-32 19 -53.5 50.5t-21.5 69.5q0 37 20 71t52 54q-63 25 -63 87q0 53 52 91q-39 42 -39 116q0 93 66 142q57 43 152 43q74 0 122 -25l143 4v-137h-59q1 -5 1 -17q0 -96 -72 -145q-56 -37 -143 -37q-37 0 -65 5
q-19 -13 -19 -29q0 -29 98 -31q109 -3 168 -42q67 -45 67 -125zM371 -60q0 33 -20 46.5t-64 13.5q-98 0 -98 -65q0 -32 21.5 -46t66.5 -14q51 0 72.5 16t21.5 49zM337 344q0 34 -12.5 49.5t-50.5 15.5q-40 0 -53.5 -16.5t-13.5 -51.5q0 -34 12.5 -48.5t50.5 -14.5
q41 0 54 15.5t13 50.5z" />
    <glyph glyph-name="greater.cap" unicode="&#xe060;" horiz-adv-x="568" 
d="M119 597l403 -176v-152l-403 -176l-47 133l300 119l-300 119z" />
    <glyph glyph-name="infinity.cap" unicode="&#xe061;" horiz-adv-x="805" 
d="M765 346q0 -91 -54.5 -146t-134.5 -55q-50 0 -90.5 26t-85.5 83q-87 -109 -182 -109q-74 1 -125.5 56t-51.5 143q0 90 53.5 145t135.5 55q51 0 92.5 -25.5t84.5 -83.5q87 109 183 109q75 0 125 -55.5t50 -142.5zM228 257q31 0 55.5 18t58.5 65q-31 51 -57 72t-58 21
q-71 0 -71 -86q0 -90 72 -90zM575 433q-29 0 -51 -18t-59 -66q35 -53 59.5 -72.5t54.5 -19.5q71 0 71 87q0 89 -75 89z" />
    <glyph glyph-name="jsuperior" unicode="&#xe062;" horiz-adv-x="210" 
d="M50 782h108v-298q0 -131 -141 -131q-20 0 -42 5l13 93q16 -2 27 -2q21 0 28 7t7 24v302zM42 879q0 27 17.5 45.5t44.5 18.5t45 -18.5t18 -45.5t-18 -45t-45 -18t-44.5 18t-17.5 45z" />
    <glyph glyph-name="k.alt" unicode="&#xe063;" horiz-adv-x="567" 
d="M234 264v3l130 243h181l-151 -237l170 -273h-195zM63 765h157v-765h-157v765z" />
    <glyph glyph-name="l.alt" unicode="&#xe064;" horiz-adv-x="335" 
d="M315 135l11 -131q-40 -10 -82 -10q-101 0 -141 50.5t-40 150.5v570h157v-566q0 -41 10 -55.5t40 -14.5q24 0 45 6z" />
    <glyph glyph-name="less.cap" unicode="&#xe065;" horiz-adv-x="568" 
d="M449 93l-403 176v152l403 176l48 -133l-301 -119l301 -119z" />
    <glyph glyph-name="logicalnot.cap" unicode="&#xe066;" horiz-adv-x="568" 
d="M495 463v-327h-151v192h-283v135h434z" />
    <glyph glyph-name="minus.cap" unicode="&#xe067;" horiz-adv-x="567" 
d="M509 277h-450v136h450v-136z" />
    <glyph glyph-name="minus.denominator" unicode="&#xe068;" horiz-adv-x="364" 
d="M323 149h-277v90h277v-90z" />
    <glyph glyph-name="minus.numerator" unicode="&#xe069;" horiz-adv-x="364" 
d="M323 451h-277v89h277v-89z" />
    <glyph glyph-name="minusinferior" unicode="&#xe06a;" horiz-adv-x="362" 
d="M323 -30h-279v92h279v-92z" />
    <glyph glyph-name="minussuperior" unicode="&#xe06b;" horiz-adv-x="362" 
d="M323 637h-279v93h279v-93z" />
    <glyph glyph-name="multiply.cap" unicode="&#xe06c;" horiz-adv-x="567" 
d="M418 114l-134 137l-135 -137l-96 96l136 135l-136 135l97 96l134 -136l134 136l96 -96l-135 -135l135 -135z" />
    <glyph glyph-name="ninesmall" unicode="&#xe06d;" horiz-adv-x="511" 
d="M48 40l73 99q36 -27 109 -27q54 0 68 23t15 91q-31 -30 -96 -30q-76 0 -123 38q-54 45 -54 135q0 97 59 143q51 40 145 40q105 0 157 -52q34 -34 47.5 -87t13.5 -138q0 -82 -12.5 -137t-48.5 -91q-57 -59 -173 -59q-129 0 -180 52zM242 300q36 0 51 16t15 55q0 35 -14 50
t-48 15q-35 0 -48.5 -16t-13.5 -53t13 -52t45 -15z" />
    <glyph glyph-name="notequal.cap" unicode="&#xe06e;" horiz-adv-x="588" 
d="M505 164h-229l-61 -142l-107 53l38 89h-73v132h130l42 97h-172v133h229l61 141l107 -53l-38 -88h73v-133h-130l-42 -97h172v-132z" />
    <glyph glyph-name="numbersign.fitted" unicode="&#xe06f;" horiz-adv-x="640" 
d="M429 690h135l-27 -164h68v-123h-89l-19 -117h72v-123h-93l-26 -163h-136l27 163h-116l-27 -163h-136l28 163h-67v123h88l19 117h-72v123h92l27 164h136l-27 -164h116zM265 403l-19 -117h116l19 117h-116z" />
    <glyph glyph-name="numbersign.fitted.oldstyle" unicode="&#xe070;" horiz-adv-x="613" 
d="M400 611h130l-25 -142h58v-117h-78l-17 -94h62v-117h-81l-24 -141h-130l24 141h-99l-24 -141h-130l25 141h-57v117h77l16 94h-62v117h82l24 142h130l-25 -142h100zM256 352l-16 -94h99l17 94h-100z" />
    <glyph glyph-name="onesmall" unicode="&#xe071;" horiz-adv-x="511" 
d="M69 0v134h137v253l-97 -77l-84 106l164 125h171v-407h103v-134h-394z" />
    <glyph glyph-name="oslash.alt" unicode="&#xe072;" horiz-adv-x="566" 
d="M539 523l-61 -84q46 -63 46 -177q0 -140 -71 -211q-64 -64 -175 -64q-42 0 -76 9l-58 -90l-117 81l60 84q-45 62 -45 175q0 141 71 212q63 65 175 65q42 0 76 -9l57 90zM360 264q0 88 -27 113q-15 14 -46 14q-38 0 -55 -21q-26 -29 -26 -123q0 -83 22 -109q16 -19 52 -19
q41 0 58 26q22 29 22 119z" />
    <glyph glyph-name="plus.cap" unicode="&#xe073;" horiz-adv-x="567" 
d="M522 278h-162v-187h-152v187h-162v134h162v187h152v-187h162v-134z" />
    <glyph glyph-name="plus.denominator" unicode="&#xe074;" horiz-adv-x="364" 
d="M332 150h-97v-101h-100v101h-97v88h97v101h100v-101h97v-88z" />
    <glyph glyph-name="plus.numerator" unicode="&#xe075;" horiz-adv-x="364" 
d="M332 451h-97v-100h-100v100h-97v89h97v101h100v-101h97v-89z" />
    <glyph glyph-name="plusinferior" unicode="&#xe076;" horiz-adv-x="362" 
d="M332 -30h-96v-103h-105v103h-96v92h96v103h105v-103h96v-92z" />
    <glyph glyph-name="plussuperior" unicode="&#xe077;" horiz-adv-x="362" 
d="M332 638h-96v-103h-105v103h-96v92h96v103h105v-103h96v-92z" />
    <glyph glyph-name="r.alt" unicode="&#xe078;" horiz-adv-x="378" 
d="M63 510h148l-1 -80q42 91 120 91q16 0 30 -3l-12 -152q-18 2 -26 2q-102 0 -102 -197v-171h-157v510z" />
    <glyph glyph-name="sevensmall" unicode="&#xe079;" horiz-adv-x="511" 
d="M171 314h-122l-2 227h410v-136q-105 -234 -160 -405h-166q48 147 168 398h-125z" />
    <glyph glyph-name="sixsmall" unicode="&#xe07a;" horiz-adv-x="511" 
d="M458 501l-73 -100q-34 27 -109 27q-54 0 -68 -23t-15 -90q32 29 96 29q79 0 124 -38q53 -44 53 -134q0 -97 -59 -143q-51 -40 -145 -40q-105 0 -157 52q-34 34 -47.5 87t-13.5 137q0 167 61 229q57 59 173 59q129 0 180 -52zM264 241q-35 0 -50.5 -16t-15.5 -55
q0 -35 14 -50.5t48 -15.5q36 0 49 16t13 54t-12.5 52.5t-45.5 14.5z" />
    <glyph glyph-name="slashsmall" unicode="&#xe07b;" horiz-adv-x="436" 
d="M417 633l-275 -791l-134 49l274 791z" />
    <glyph glyph-name="sterling.fitted" unicode="&#xe07c;" horiz-adv-x="589" 
d="M433 409v-135h-150v-139h275v-135h-505v135h67v139h-67v135h67v38q0 37 7 71.5t25.5 68t46 58t71.5 39.5t100 15q119 0 177 -59l-91 -108q-36 31 -88 31q-53 0 -69 -29t-16 -91v-34h150z" />
    <glyph glyph-name="sterling.fitted.oldstyle" unicode="&#xe07d;" horiz-adv-x="565" 
d="M410 366v-129h-134v-109h244v-128h-459v128h59v109h-59v129h59v29q0 92 54.5 158t175.5 66q109 0 162 -53l-88 -103q-31 26 -76 26t-58.5 -23.5t-13.5 -73.5v-26h134z" />
    <glyph glyph-name="three.alt.taboldstyle" unicode="&#xe07e;" horiz-adv-x="532" 
d="M138 175v96l144 141h-241v129h411v-138l-142 -132q87 -4 129.5 -48.5t42.5 -116.5q0 -55 -24 -96.5t-64.5 -65t-88.5 -34.5t-102 -11q-124 0 -180 48l60 110q39 -28 116 -28q121 0 121 77q0 34 -28 51.5t-93 17.5h-61z" />
    <glyph glyph-name="three.altoldstyle" unicode="&#xe07f;" horiz-adv-x="485" 
d="M120 175v96l132 141h-225v129h394v-138l-131 -132q81 -4 120.5 -48.5t39.5 -116.5q0 -55 -23 -96.5t-62 -65t-84.5 -34.5t-97.5 -11q-119 0 -174 48l60 110q36 -28 110 -28q110 0 110 77q0 34 -25 51.5t-84 17.5h-60z" />
    <glyph glyph-name="threequartersemdash.cap" unicode="&#xe080;" horiz-adv-x="750" 
d="M736 273h-722v144h722v-144z" />
    <glyph glyph-name="threesmall" unicode="&#xe081;" horiz-adv-x="511" 
d="M129 213v120h83q77 0 77 50q0 25 -16 34.5t-49 9.5q-74 0 -112 -30l-74 98q58 58 194 58q92 0 151 -39q61 -40 61 -110q0 -44 -23.5 -77.5t-68.5 -48.5q97 -29 97 -130q0 -74 -61 -117q-58 -42 -160 -42q-140 0 -192 56l73 100q38 -33 114 -33q36 0 54 11.5t18 41.5
q0 27 -19 37.5t-62 10.5h-85z" />
    <glyph glyph-name="twosmall" unicode="&#xe082;" horiz-adv-x="511" 
d="M448 131v-131h-397v99q0 75 35.5 116t127.5 89q36 19 49 26.5t25 22t12 33.5q0 38 -62 38q-63 0 -105 -42l-93 90q69 81 209 81q91 0 148 -38.5t57 -125.5q0 -64 -31.5 -99.5t-95.5 -68.5q-69 -36 -90.5 -52.5t-21.5 -38.5z" />
    <glyph glyph-name="u.alt" unicode="&#xe083;" horiz-adv-x="574" 
d="M63 510h155v-323q0 -17 1.5 -26t8.5 -18t22 -13t40 -4q42 0 54 13t12 47v324h156v-325q0 -89 -47 -137q-56 -56 -181 -56q-126 0 -179 57q-42 45 -42 132v329z" />
    <glyph glyph-name="wsuperior" unicode="&#xe084;" horiz-adv-x="504" 
d="M15 782h109l32 -176l39 171h110l39 -170l32 175h107l-77 -297h-118l-40 171l-40 -171h-118z" />
    <glyph glyph-name="xsuperior" unicode="&#xe085;" horiz-adv-x="368" 
d="M23 782h122l38 -74l36 74h121l-84 -144l90 -153h-123l-43 79l-43 -79h-122l95 153z" />
    <glyph glyph-name="yen.alt" unicode="&#xe086;" 
d="M510 336v-134h-145v-202h-160v202h-133v134h102l-186 354h185l114 -268l121 268h181l-192 -354h113z" />
    <glyph glyph-name="yen.alt.fitted" unicode="&#xe087;" horiz-adv-x="586" 
d="M516 336v-134h-146v-202h-161v202h-135v134h104l-188 354h185l117 -268l123 268h181l-194 -354h114z" />
    <glyph glyph-name="yen.alt.fitted.oldstyle" unicode="&#xe088;" horiz-adv-x="569" 
d="M483 301v-128h-129v-173h-153v173h-120v128h90l-168 310h176l100 -228l106 228h173l-173 -310h98z" />
    <glyph glyph-name="yen.alt.taboldstyle" unicode="&#xe089;" horiz-adv-x="556" 
d="M476 301v-128h-127v-173h-153v173h-117v128h87l-165 310h176l97 -228l103 228h173l-171 -310h97z" />
    <glyph glyph-name="yen.fitted" unicode="&#xe08a;" horiz-adv-x="586" 
d="M545 242v-135h-175v-107h-161v107h-163v135h163v35l-9 19h-154v134h82l-138 260h185l117 -268l123 268h181l-142 -260h91v-134h-165l-10 -19v-35h175z" />
    <glyph glyph-name="yen.fitted.oldstyle" unicode="&#xe08b;" horiz-adv-x="569" 
d="M511 215v-129h-157v-86h-153v86h-146v129h146v31l-8 14h-138v128h68l-120 223h176l100 -228l106 228h173l-124 -223h77v-128h-149l-8 -14v-31h157z" />
    <glyph glyph-name="ysuperior" unicode="&#xe08c;" horiz-adv-x="363" 
d="M343 782l-84 -282q-45 -148 -158 -148q-43 0 -69 15l33 87q13 -7 32 -7q40 0 56 53h-48l-91 282h115l53 -210l48 210h113z" />
    <glyph glyph-name="zerosmall" unicode="&#xe08d;" horiz-adv-x="511" 
d="M468 275q0 -160 -64 -229q-54 -57 -154 -57q-101 0 -154 58q-58 67 -58 219q0 160 64 228q55 58 153 58q102 0 155 -58q58 -67 58 -219zM310 277q0 84 -10.5 114t-45.5 30q-36 0 -47 -33t-11 -125q0 -83 10.5 -113t45.5 -30q36 0 47 33t11 124z" />
    <glyph glyph-name="uniEFF3" unicode="&#xeff3;" horiz-adv-x="200" 
d="M237 679q0 -55 -38.5 -87t-98.5 -32t-98.5 32.5t-38.5 86.5q0 55 38.5 87t98.5 32t98.5 -32.5t38.5 -86.5zM142 679q0 40 -41 40q-43 0 -43 -41q0 -40 42 -40t42 41z" />
    <glyph glyph-name="uniEFF7" unicode="&#xeff7;" horiz-adv-x="200" 
d="M-71 646l173 121l169 -119l-57 -91l-114 71l-115 -72z" />
    <glyph glyph-name="uniF628" unicode="&#xf628;" horiz-adv-x="1261" 
d="M767 592l-554 -641l-82 67l554 642zM834 175q0 -100 -42 -144q-36 -38 -104 -38t-103 37q-40 41 -40 141q0 103 41 145q35 38 105 38q66 0 102 -36q41 -42 41 -143zM731 175q0 56 -7.5 75t-33.5 19q-27 0 -35 -21t-8 -78q0 -55 8 -74t33 -19q27 0 35 20.5t8 77.5z
M348 439q0 -101 -43 -145q-38 -38 -104 -38q-65 0 -103 38q-40 41 -40 141q0 102 42 145q36 38 105 38q65 0 102 -37q41 -42 41 -142zM245 439q0 56 -7.5 74.5t-33.5 18.5q-27 0 -35 -20t-8 -79q0 -55 7.5 -73.5t33.5 -18.5q27 0 35 20.5t8 77.5zM1182 175q0 -98 -43 -144
q-36 -38 -104 -38t-103 37q-40 43 -40 141q0 102 42 145q35 38 105 38q66 0 102 -36q41 -43 41 -143zM1079 175q0 56 -7.5 75t-33.5 19q-27 0 -35 -20.5t-8 -78.5q0 -55 7.5 -74t33.5 -19q27 0 35 20.5t8 77.5z" />
    <glyph glyph-name="uniF629" unicode="&#xf629;" horiz-adv-x="387" 
d="M261 430l-1 -60q52 -8 84 -36l-63 -73q-27 18 -63 18q-38 0 -50 -17t-12 -61q0 -45 10.5 -63t42.5 -18q42 0 74 29l67 -69q-38 -36 -90 -48l1 -63h-112l1 64q-37 9 -62 30q-45 40 -45 134q0 93 46 135q23 22 61 32l-1 66h112z" />
    <glyph glyph-name="uniF62A" unicode="&#xf62a;" horiz-adv-x="387" 
d="M247 430l-1 -47q60 -9 91 -31l-52 -77q-36 20 -91 20q-47 0 -47 -21q0 -11 20.5 -17t49.5 -12t58 -15.5t49.5 -34t20.5 -61.5q0 -57 -48 -90q-25 -15 -51 -22l1 -53h-112l1 47q-73 7 -108 35l54 79q42 -26 104 -26q48 0 48 23q0 15 -31 24t-68 15t-68 32.5t-31 71.5
q0 52 44 83q20 15 56 25l-1 52h112z" />
    <glyph glyph-name="uniF62B" unicode="&#xf62b;" horiz-adv-x="214" 
d="M198 146h-178v96h178v-96z" />
    <glyph glyph-name="uniF62C" unicode="&#xf62c;" horiz-adv-x="255" 
d="M153 467l59 -78q-43 -30 -54 -65.5t-11 -129.5t10.5 -130t54.5 -65l-59 -78q-64 40 -86.5 102.5t-22.5 171.5t23 170.5t86 101.5z" />
    <glyph glyph-name="uniF62D" unicode="&#xf62d;" horiz-adv-x="255" 
d="M95 -79l-59 79q43 30 54 65t11 129t-10.5 130t-54.5 65l59 78q64 -39 87 -102t23 -172q0 -108 -23 -170t-87 -102z" />
    <glyph glyph-name="uniF62E" unicode="&#xf62e;" horiz-adv-x="387" 
d="M261 732l-1 -61q51 -6 84 -35l-63 -73q-26 17 -63 17q-38 0 -50 -17t-12 -61q0 -45 10.5 -63t42.5 -18q42 0 74 29l67 -69q-36 -35 -90 -47l1 -64h-112l1 64q-40 11 -62 31q-45 40 -45 134q0 93 46 135q23 22 61 32l-1 66h112z" />
    <glyph glyph-name="uniF62F" unicode="&#xf62f;" horiz-adv-x="387" 
d="M247 732l-1 -48q56 -7 91 -30l-52 -77q-36 20 -91 20q-47 0 -47 -21q0 -13 31 -21t68 -14.5t68 -33t31 -72.5q0 -58 -48 -89q-21 -14 -51 -22l1 -54h-112l1 47q-71 7 -108 36l54 79q40 -26 104 -26q48 0 48 23q0 12 -20.5 19.5t-49.5 13t-58 15.5t-49.5 34t-20.5 61
q0 52 44 83q22 16 56 24l-1 53h112z" />
    <glyph glyph-name="uniF630" unicode="&#xf630;" horiz-adv-x="214" 
d="M198 448h-178v95h178v-95z" />
    <glyph glyph-name="uniF631" unicode="&#xf631;" horiz-adv-x="255" 
d="M153 769l59 -79q-43 -30 -54 -65t-11 -129t10.5 -130t54.5 -65l-59 -78q-64 39 -86.5 102t-22.5 172q0 108 23 170t86 102z" />
    <glyph glyph-name="uniF632" unicode="&#xf632;" horiz-adv-x="255" 
d="M95 222l-59 79q43 30 54 65.5t11 129.5q0 93 -10.5 129t-54.5 66l59 78q64 -40 87 -103t23 -172q0 -108 -23.5 -170t-86.5 -102z" />
    <glyph glyph-name="uniF633" unicode="&#xf633;" horiz-adv-x="851" 
d="M638 241q22 0 36 34.5t14 95.5q0 262 -257 262q-273 0 -273 -286q0 -143 72.5 -212.5t229.5 -69.5q180 0 280 93l67 -74q-58 -58 -149 -92.5t-205 -34.5q-201 0 -306.5 105t-105.5 283q0 184 107 292.5t286 108.5q173 0 272.5 -99.5t99.5 -252.5q0 -109 -50.5 -179
t-139.5 -70q-83 0 -106 67q-49 -69 -134 -69q-60 0 -98 34.5t-38 93.5q0 130 200 130h38v10q0 25 -12 34.5t-44 9.5q-67 0 -101 -30l-61 81q56 52 166 52q90 0 133.5 -39.5t43.5 -123.5v-72q0 -82 35 -82zM479 317h-41q-22 0 -34 -2t-22 -11.5t-10 -27.5q0 -32 27 -32
q24 0 50 22.5t30 50.5z" />
    <glyph glyph-name="uniF639" unicode="&#xf639;" horiz-adv-x="593" 
d="M552 352q0 -208 -77 -294q-64 -72 -183 -72t-181 72q-70 81 -70 280q0 208 77 294q64 72 182 72q121 0 182 -71q70 -84 70 -281zM387 354q0 119 -17.5 165.5t-70.5 46.5q-55 0 -74 -51t-19 -180q0 -117 18 -164t70 -47q55 0 74 51t19 179z" />
    <glyph glyph-name="uniF63A" unicode="&#xf63a;" horiz-adv-x="526" 
d="M483 138v-138h-446v104q0 66 21.5 112.5t57.5 78.5t110 79q57 36 79.5 61t22.5 66q0 38 -20.5 52.5t-58.5 14.5q-75 0 -124 -55l-97 96q77 94 232 94q101 0 165 -46.5t64 -152.5q0 -78 -35 -123t-111 -94q-84 -55 -110 -82.5t-26 -67.5z" />
    <glyph glyph-name="uniF63B" unicode="&#xf63b;" horiz-adv-x="515" 
d="M121 286v129h89q48 0 72 19.5t24 64.5q0 41 -19.5 56t-59.5 15q-86 0 -129 -44l-77 105q34 38 93 55.5t120 17.5q101 0 164 -44q69 -48 69 -141q0 -123 -104 -162q111 -33 111 -169q0 -100 -70 -153q-65 -48 -174 -48q-65 0 -123.5 17.5t-88.5 53.5l77 107
q44 -47 132 -47q43 0 65 19t22 67q0 47 -23 64.5t-78 17.5h-92z" />
    <glyph glyph-name="uniF63C" unicode="&#xf63c;" horiz-adv-x="557" 
d="M525 124h-90v-124h-148v124h-253v139l128 427h152l-127 -425h103v244h145v-243h90v-142z" />
    <glyph glyph-name="uniF63D" unicode="&#xf63d;" horiz-adv-x="544" 
d="M43 56l77 108q23 -23 61.5 -34.5t73.5 -11.5q40 0 58 15q31 22 31 90q0 60 -27 81q-19 16 -56 16q-50 0 -83 -36l-115 28l2 378h400v-133h-266l-3 -138q34 28 98 28q85 0 143 -48q68 -56 68 -172q0 -129 -83 -191q-68 -49 -167 -49q-57 0 -118 17.5t-94 51.5z" />
    <glyph glyph-name="uniF63E" unicode="&#xf63e;" horiz-adv-x="567" 
d="M521 639l-78 -106q-43 39 -134 39q-31 0 -51 -7t-32 -19t-18 -38.5t-8 -53t-3 -74.5q39 53 129 53q87 0 142 -48q63 -55 63 -169q0 -117 -68 -176q-61 -53 -170 -53q-126 0 -188 75q-38 45 -51 111.5t-13 166.5q0 104 14.5 174t55.5 115q67 75 202 75q147 0 208 -65z
M298 321q-49 0 -71.5 -26t-22.5 -84q0 -52 20 -76t68 -24q49 0 67.5 25.5t18.5 81.5q0 57 -17.5 80t-62.5 23z" />
    <glyph glyph-name="uniF63F" unicode="&#xf63f;" horiz-adv-x="517" 
d="M159 432h-128l-2 258h458v-142q-118 -300 -185 -548h-173q65 238 194 540h-161z" />
    <glyph glyph-name="uniF640" unicode="&#xf640;" horiz-adv-x="563" 
d="M49 519q0 96 70 141.5t166 45.5q59 0 108.5 -16t85.5 -58t36 -106q0 -116 -111 -170q120 -50 120 -177q0 -98 -69.5 -146t-171.5 -48q-65 0 -117.5 18.5t-89 63t-36.5 110.5q0 121 124 174q-115 51 -115 168zM195 507q0 -24 6 -40.5t20.5 -27.5t26 -16t33.5 -13
q30 10 46 18t29.5 28.5t13.5 51.5q0 79 -87 79q-88 0 -88 -80zM184 191q0 -86 97 -86t97 86q0 26 -7.5 44.5t-23.5 30.5t-29.5 19t-37.5 15q-22 -8 -36.5 -15t-29.5 -19t-22.5 -31t-7.5 -44z" />
    <glyph glyph-name="uniF641" unicode="&#xf641;" horiz-adv-x="567" 
d="M46 51l78 106q43 -39 134 -39q31 0 51 7t32 19t18 38.5t8 53t2 74.5q-38 -53 -129 -53q-84 0 -141 48q-63 55 -63 169q0 117 68 176q61 53 170 53q125 0 187 -74q38 -46 51.5 -111.5t13.5 -165.5q0 -106 -14.5 -175.5t-55.5 -115.5q-67 -75 -202 -75q-147 0 -208 65z
M269 369q48 0 71 26.5t23 83.5q0 52 -20 76t-68 24q-49 0 -67.5 -25.5t-18.5 -81.5q0 -57 17.5 -80t62.5 -23z" />
    <glyph glyph-name="uniF642" unicode="&#xf642;" horiz-adv-x="908" 
d="M767 592l-554 -641l-82 67l554 642zM834 175q0 -100 -42 -144q-36 -38 -104 -38t-103 37q-40 41 -40 141q0 103 41 145q35 38 105 38q66 0 102 -36q41 -42 41 -143zM731 175q0 56 -7.5 75t-33.5 19q-27 0 -35 -21t-8 -78q0 -55 8 -74t33 -19q27 0 35 20.5t8 77.5z
M348 439q0 -101 -43 -145q-38 -38 -104 -38q-65 0 -103 38q-40 41 -40 141q0 102 42 145q36 38 105 38q65 0 102 -37q41 -42 41 -142zM245 439q0 56 -7.5 74.5t-33.5 18.5q-27 0 -35 -20t-8 -79q0 -55 7.5 -73.5t33.5 -18.5q27 0 35 20.5t8 77.5z" />
    <glyph glyph-name="uniF643" unicode="&#xf643;" horiz-adv-x="532" 
d="M509 275q0 -164 -72 -231q-63 -56 -175 -56q-118 0 -177 59q-62 63 -62 218q0 158 64 225q61 63 183 63q114 0 173 -57q66 -62 66 -221zM346 268q0 105 -21 131q-18 23 -57 23q-46 0 -65 -29q-17 -26 -17 -122q0 -104 20 -130q16 -22 57 -22q49 0 67 30q16 29 16 119z
" />
    <glyph glyph-name="uniF644" unicode="&#xf644;" horiz-adv-x="532" 
d="M64 0v134h158v258l-118 -79l-84 109l181 119h175v-407h122v-134h-434z" />
    <glyph glyph-name="uniF645" unicode="&#xf645;" horiz-adv-x="532" 
d="M477 131v-131h-442v99q0 76 40.5 116.5t147.5 88.5q75 33 91 49q13 13 13 30q0 42 -81 42q-44 0 -72.5 -12.5t-53.5 -40.5l-93 91q75 90 225 90q103 0 166 -39t63 -125q0 -64 -36 -100.5t-109 -67.5q-86 -37 -112.5 -53t-26.5 -38z" />
    <glyph glyph-name="uniF646" unicode="&#xf646;" horiz-adv-x="532" 
d="M124 171v131h87q52 0 76.5 14t24.5 50q0 32 -20 45t-64 13q-76 0 -118 -46l-91 91q41 46 93.5 65t125.5 19q104 0 164 -36q73 -44 73 -128q0 -111 -108 -146q118 -22 118 -140q0 -93 -81 -151q-75 -52 -194 -52q-116 0 -173 45l60 110q39 -26 113 -26q56 0 84 18t28 60
q0 39 -24.5 51.5t-86.5 12.5h-87z" />
    <glyph glyph-name="uniF647" unicode="&#xf647;" horiz-adv-x="532" 
d="M508 7h-71v-108h-147v108h-256v148l129 396l150 -29l-128 -382h109v196h143v-193h71v-136z" />
    <glyph glyph-name="uniF648" unicode="&#xf648;" horiz-adv-x="532" 
d="M40 -60l52 115q46 -26 115 -26q61 0 85 19q28 20 28 70q0 40 -16 57q-19 17 -53 17q-46 0 -91 -33l-102 51l6 331h378v-135h-248l-2 -108q37 23 100 23q75 0 125 -40q64 -51 64 -151q0 -124 -95 -185q-70 -45 -183 -45q-107 0 -163 40z" />
    <glyph glyph-name="uniF649" unicode="&#xf649;" horiz-adv-x="532" 
d="M489 605l-57 -113q-42 29 -110 29q-70 0 -99 -34t-30 -125q33 40 104 40q88 0 140 -49q59 -54 59 -152q0 -106 -65 -163q-58 -52 -158 -52q-103 0 -165 57q-73 71 -73 254q0 56 3.5 96t21 92.5t50.5 87.5q73 78 214 78q109 0 165 -46zM274 288q-42 0 -59.5 -21t-17.5 -66
q0 -46 17 -68.5t58 -22.5t56 22.5t15 72.5q0 45 -14.5 64t-54.5 19z" />
    <glyph glyph-name="uniF64A" unicode="&#xf64a;" horiz-adv-x="532" 
d="M173 298h-131l-2 243h454v-156l-212 -503l-151 53l204 461h-157z" />
    <glyph glyph-name="uniF64B" unicode="&#xf64b;" horiz-adv-x="532" 
d="M40 479q0 47 20 82t54 54.5t72.5 28.5t81.5 9q42 0 80 -9t71.5 -27.5t53 -52.5t19.5 -79q0 -109 -105 -156q114 -47 114 -164q0 -91 -67.5 -135t-167.5 -44q-99 0 -167 44t-68 133q0 114 118 161q-109 46 -109 155zM186 466q0 -38 19.5 -54.5t59.5 -29.5q27 9 41.5 16
t27 25t12.5 45q0 66 -78 66q-39 0 -60.5 -14.5t-21.5 -53.5zM176 178q0 -74 89 -74t89 74q0 30 -14 49.5t-30.5 28t-45.5 17.5q-43 -14 -65.5 -34t-22.5 -61z" />
    <glyph glyph-name="uniF64C" unicode="&#xf64c;" horiz-adv-x="532" 
d="M43 -55l56 112q43 -28 110 -28q71 0 100 33t30 119q-34 -40 -105 -40q-87 0 -139 49q-59 53 -59 151q0 106 65 163q57 52 157 52q106 0 165 -56q74 -70 74 -254q0 -187 -76 -270q-72 -77 -214 -77q-108 0 -164 46zM258 254q42 0 59.5 21t17.5 66q0 47 -17 69t-58 22
q-42 0 -56.5 -22.5t-14.5 -72.5q0 -45 14 -64t55 -19z" />
    <glyph glyph-name="uniF64E" unicode="&#xf64e;" horiz-adv-x="556" 
d="M495 165v-138q-72 -36 -155 -36q-130 0 -198 87q-46 59 -56 167h-78l33 131h46q10 91 49 149q67 100 224 100q96 0 155 -28l-43 -126q-50 25 -114 25t-88.5 -28.5t-27.5 -91.5h201l-33 -131h-168q5 -67 26 -96.5t74 -29.5q72 0 153 46z" />
    <glyph glyph-name="uniF64F" unicode="&#xf64f;" horiz-adv-x="556" 
d="M106 326v136h75v23q0 90 45 142t160 52q49 0 97 -8l-4 -129q-32 8 -75 8t-57 -15.5t-14 -54.5v-18h116v-136h-116v-329q0 -95 -45 -144.5t-149 -49.5q-47 0 -77 5l7 131q51 -3 53 -3q38 0 48.5 14t10.5 50v326h-75z" />
    <glyph glyph-name="uniF650" unicode="&#xf650;" horiz-adv-x="556" 
d="M362 611h129l-23 -142h49v-117h-69l-15 -94h54v-117h-73l-23 -141h-128l23 141h-87l-23 -141h-128l23 141h-49v117h69l14 94h-53v117h73l22 142h129l-23 -142h87zM233 352l-14 -94h87l14 94h-87z" />
    <glyph glyph-name="uniF651" unicode="&#xf651;" horiz-adv-x="556" 
d="M404 366v-129h-132v-109h240v-128h-454v128h58v109h-58v129h58v29q0 92 54 158t173 66q108 0 160 -53l-87 -103q-29 26 -74 26q-43 0 -56.5 -23.5t-13.5 -73.5v-26h132z" />
    <glyph glyph-name="uniF652" unicode="&#xf652;" horiz-adv-x="556" 
d="M476 301v-128h-127v-173h-153v173h-117v128h87l-165 310h176l97 -228l103 228h173l-171 -310h97z" />
    <glyph glyph-name="uniF653" unicode="&#xf653;" horiz-adv-x="556" 
d="M356 677l-1 -75q88 -13 133 -47l-74 -111q-50 31 -134 31q-35 0 -52.5 -8.5t-17.5 -31.5q0 -17 21.5 -28.5t54 -17.5t70 -18.5t70 -29t54 -51.5t21.5 -84q0 -89 -70 -137q-31 -21 -76 -34l1 -83h-161l1 73q-104 11 -159 55l78 114q62 -41 153 -41q73 0 73 44
q0 19 -21.5 32t-54 19.5t-70 19t-70 28.5t-54 50.5t-21.5 82.5q0 82 64 128q35 26 82 38l-1 82h161z" />
    <glyph glyph-name="uniF654" unicode="&#xf654;" horiz-adv-x="556" 
d="M376 677l-1 -96q79 -12 123 -56l-89 -105q-39 30 -94 30q-57 0 -74.5 -30t-17.5 -104q0 -77 15.5 -108t63.5 -31q61 0 110 49l96 -99q-53 -56 -133 -76l1 -99h-161l2 101q-54 13 -93 51q-64 64 -64 206q0 144 66 210q37 37 91 52l-2 105h161z" />
    <glyph glyph-name="uniF655" unicode="&#xf655;" horiz-adv-x="387" 
d="M349 197q0 -115 -48 -164q-39 -41 -113 -41q-75 0 -112 42q-44 48 -44 157q0 115 48 164q39 41 112 41q75 0 113 -41q44 -49 44 -158zM239 199q0 61 -9.5 83.5t-37.5 22.5q-30 0 -40 -25t-10 -91q0 -61 9.5 -83.5t37.5 -22.5q30 0 40 25t10 91z" />
    <glyph glyph-name="uniF656" unicode="&#xf656;" horiz-adv-x="387" 
d="M56 0v93h103v189l-76 -56l-59 73l124 89h118v-295h79v-93h-289z" />
    <glyph glyph-name="uniF657" unicode="&#xf657;" horiz-adv-x="387" 
d="M335 91v-91h-293v69q0 54 27 83.5t96 64.5q28 14 37.5 19.5t19.5 16.5t10 25q0 29 -51 29q-49 0 -81 -30l-65 63q50 56 153 56q151 0 151 -116q0 -46 -23.5 -71.5t-72.5 -49.5q-54 -26 -71 -39t-17 -30z" />
    <glyph glyph-name="uniF658" unicode="&#xf658;" horiz-adv-x="387" 
d="M100 154v84h59q64 0 64 38q0 19 -13 26t-40 7q-56 0 -86 -22l-51 68q43 42 142 42q67 0 110 -28q45 -27 45 -78q0 -69 -69 -91q74 -20 74 -94q0 -52 -46 -84q-43 -30 -117 -30q-101 0 -141 40l52 69q29 -23 86 -23q59 0 59 40q0 20 -15.5 28t-51.5 8h-61z" />
    <glyph glyph-name="uniF659" unicode="&#xf659;" horiz-adv-x="387" 
d="M346 65h-54v-65h-98v65h-158v91l75 232h101l-75 -230h60v131h95v-130h54v-94z" />
    <glyph glyph-name="uniF65A" unicode="&#xf65a;" horiz-adv-x="387" 
d="M42 32l51 70q28 -24 86 -24q24 0 37 7q18 10 18 40q0 26 -16 37q-12 8 -36 8q-29 0 -51 -16l-76 16l1 218h260v-85h-171l-2 -64q22 13 61 13q55 0 92 -26q45 -31 45 -98q0 -71 -53 -107q-44 -29 -108 -29q-95 0 -138 40z" />
    <glyph glyph-name="uniF65B" unicode="&#xf65b;" horiz-adv-x="387" 
d="M341 359l-51 -69q-28 20 -83 20q-43 0 -54.5 -18t-11.5 -69q23 23 75 23q58 0 92 -27q39 -31 39 -96q0 -69 -43 -103q-39 -28 -108 -28q-79 0 -116 37q-25 24 -34 62t-9 99q0 121 44 164q45 43 128 43q94 0 132 -38zM199 174q-29 0 -42 -12t-13 -40q0 -27 12 -38.5
t40 -11.5q29 0 39.5 12t10.5 40t-10.5 39t-36.5 11z" />
    <glyph glyph-name="uniF65C" unicode="&#xf65c;" horiz-adv-x="387" 
d="M124 229h-85l-2 159h305v-94q-77 -160 -123 -294h-115q38 112 128 290h-106z" />
    <glyph glyph-name="uniF65D" unicode="&#xf65d;" horiz-adv-x="387" 
d="M43 290q0 56 44 81.5t105 25.5q60 0 103 -24.5t43 -78.5q0 -63 -68 -94q74 -27 74 -98q0 -57 -44 -83.5t-109 -26.5t-109.5 26.5t-44.5 82.5q0 69 77 96q-71 28 -71 93zM139 282q0 -15 8 -25t16.5 -13.5t26.5 -8.5q18 5 27 9t17.5 14t8.5 25q0 37 -52 37t-52 -38z
M132 110q0 -41 58 -41t58 41q0 24 -15 35.5t-44 19.5q-28 -8 -42.5 -19.5t-14.5 -35.5z" />
    <glyph glyph-name="uniF65E" unicode="&#xf65e;" horiz-adv-x="387" 
d="M40 29l52 69q26 -20 83 -20q42 0 53.5 18t11.5 69q-23 -23 -75 -23q-58 0 -92 27q-39 31 -39 96q0 69 44 103q37 28 107 28q79 0 116 -37q25 -24 34 -62t9 -99q0 -121 -44 -164q-42 -42 -127 -42q-96 0 -133 37zM182 214q29 0 42 12.5t13 40.5q0 26 -12 37.5t-40 11.5
q-29 0 -39.5 -12t-10.5 -40t10.5 -39t36.5 -11z" />
    <glyph glyph-name="uniF65F" unicode="&#xf65f;" horiz-adv-x="214" 
d="M40 56q0 26 17 43.5t45 17.5t44.5 -17t16.5 -45q0 -58 -65 -153l-66 33q25 44 33 74q-25 16 -25 47z" />
    <glyph glyph-name="uniF660" unicode="&#xf660;" horiz-adv-x="214" 
d="M40 55q0 27 17.5 44.5t44.5 17.5q26 0 44 -17.5t18 -44.5q0 -26 -18 -43.5t-44 -17.5q-27 0 -44.5 17.5t-17.5 43.5z" />
    <glyph glyph-name="uniF661" unicode="&#xf661;" horiz-adv-x="387" 
d="M349 499q0 -114 -48 -165q-40 -40 -113 -40q-76 0 -112 41q-44 49 -44 158q0 115 48 164q39 41 112 41q76 0 113 -42q44 -48 44 -157zM239 501q0 61 -9.5 83.5t-37.5 22.5q-30 0 -40 -25t-10 -92q0 -60 9.5 -83t37.5 -23q30 0 40 25t10 92z" />
    <glyph glyph-name="uniF662" unicode="&#xf662;" horiz-adv-x="387" 
d="M56 302v93h103v188l-76 -55l-59 73l124 89h118v-295h79v-93h-289z" />
    <glyph glyph-name="uniF663" unicode="&#xf663;" horiz-adv-x="387" 
d="M335 392v-90h-293v68q0 55 26.5 84t96.5 64q28 14 37.5 19.5t19.5 16.5t10 25q0 30 -51 30q-48 0 -81 -31l-65 63q51 57 153 57q151 0 151 -117q0 -45 -23.5 -70.5t-72.5 -49.5q-55 -27 -71.5 -39.5t-16.5 -29.5h180z" />
    <glyph glyph-name="uniF664" unicode="&#xf664;" horiz-adv-x="387" 
d="M100 456v84h59q64 0 64 38q0 19 -13 26t-40 7q-56 0 -86 -22l-51 68q42 41 142 41q67 0 110 -27q45 -29 45 -79q0 -67 -69 -91q74 -20 74 -93q0 -52 -46 -84q-43 -30 -117 -30q-101 0 -141 40l52 69q27 -23 86 -23t59 39q0 21 -15.5 29t-51.5 8h-61z" />
    <glyph glyph-name="uniF665" unicode="&#xf665;" horiz-adv-x="387" 
d="M346 367h-54v-66h-98v66h-158v91l75 232h101l-75 -231h60v131h95v-130h54v-93z" />
    <glyph glyph-name="uniF666" unicode="&#xf666;" horiz-adv-x="387" 
d="M42 334l51 69q30 -24 86 -24q22 0 37 8q18 10 18 40q0 26 -16 36q-12 8 -36 8q-31 0 -51 -16l-76 16l1 219h260v-86h-171l-2 -63q20 12 61 12q57 0 92 -26q45 -31 45 -98q0 -72 -53 -106q-44 -29 -108 -29q-95 0 -138 40z" />
    <glyph glyph-name="uniF667" unicode="&#xf667;" horiz-adv-x="387" 
d="M341 661l-51 -69q-28 20 -83 20q-43 0 -54.5 -18t-11.5 -69q23 23 75 23q58 0 92 -27q39 -33 39 -97q0 -68 -43 -102q-40 -29 -108 -29q-78 0 -116 38q-25 24 -34 62t-9 99q0 120 44 164q44 42 128 42q94 0 132 -37zM199 476q-29 0 -42 -12.5t-13 -40.5q0 -26 12 -37.5
t40 -11.5q29 0 39.5 12t10.5 40t-10.5 39t-36.5 11z" />
    <glyph glyph-name="uniF668" unicode="&#xf668;" horiz-adv-x="387" 
d="M124 530h-85l-2 160h305v-94q-79 -166 -123 -294h-115q39 115 128 289h-106z" />
    <glyph glyph-name="uniF669" unicode="&#xf669;" horiz-adv-x="387" 
d="M43 592q0 56 44 81.5t105 25.5q60 0 103 -24.5t43 -78.5q0 -65 -68 -94q74 -29 74 -99q0 -56 -44 -83t-109 -27t-109.5 27t-44.5 82q0 69 77 97q-71 28 -71 93zM139 584q0 -15 8 -25t17 -14t26 -9q18 5 27 9t17.5 14.5t8.5 25.5q0 37 -52 37t-52 -38zM132 412
q0 -42 58 -42t58 42q0 17 -9.5 28.5t-19.5 15.5t-30 11q-19 -6 -29 -11t-19 -16.5t-9 -27.5z" />
    <glyph glyph-name="uniF66A" unicode="&#xf66a;" horiz-adv-x="387" 
d="M40 330l52 69q26 -20 83 -20q42 0 53.5 18t11.5 69q-24 -23 -75 -23q-58 0 -92 28q-39 31 -39 96q0 70 44 102q37 29 107 29q78 0 116 -38q25 -24 34 -62t9 -99q0 -120 -44 -164q-44 -42 -127 -42q-95 0 -133 37zM182 516q29 0 42 12t13 40q0 26 -12 37.5t-40 11.5
q-29 0 -39.5 -12t-10.5 -40q0 -27 10.5 -38t36.5 -11z" />
    <glyph glyph-name="uniF66B" unicode="&#xf66b;" horiz-adv-x="214" 
d="M40 358q0 26 17 43.5t45 17.5t44.5 -17.5t16.5 -45.5q0 -58 -65 -153l-66 33q26 48 33 75q-25 16 -25 47z" />
    <glyph glyph-name="uniF66C" unicode="&#xf66c;" horiz-adv-x="214" 
d="M40 357q0 27 17.5 44.5t44.5 17.5q26 0 44 -17.5t18 -44.5q0 -26 -18 -44t-44 -18q-27 0 -44.5 18t-17.5 44z" />
    <glyph glyph-name="uniF6AE" unicode="&#xf6ae;" horiz-adv-x="359" 
d="M226 822l90 -117q-70 -54 -87.5 -122t-17.5 -240q0 -168 18 -237t87 -122l-90 -116q-100 71 -135.5 180.5t-35.5 298.5q0 188 35.5 295.5t135.5 179.5z" />
    <glyph glyph-name="uniF6AF" unicode="&#xf6af;" horiz-adv-x="359" 
d="M134 -132l-90 117q69 54 87 122t18 238q0 169 -18 238t-87 123l90 116q100 -71 135.5 -180.5t35.5 -298.5q0 -188 -35.5 -295.5t-135.5 -179.5z" />
    <glyph glyph-name="uniF6B0" unicode="&#xf6b0;" horiz-adv-x="365" 
d="M69 785h253v-128h-104v-624h104v-128h-253v880z" />
    <glyph glyph-name="uniF6B1" unicode="&#xf6b1;" horiz-adv-x="365" 
d="M296 -95h-252v128h104v624h-104v128h252v-880z" />
    <glyph glyph-name="uniF6B2" unicode="&#xf6b2;" horiz-adv-x="378" 
d="M335 -94h-76q-76 0 -120 41.5t-44 119.5v114q0 58 -19 76t-73 20v135q54 2 73 20t19 77v110q0 78 43.5 122t120.5 44h76v-138h-35q-37 0 -47.5 -14.5t-10.5 -51.5v-89q0 -120 -96 -147q96 -28 96 -147v-91q0 -37 10.5 -51.5t47.5 -14.5h35v-135z" />
    <glyph glyph-name="uniF6B3" unicode="&#xf6b3;" horiz-adv-x="378" 
d="M44 784h76q76 0 119.5 -41.5t43.5 -119.5v-114q0 -58 19 -76t73 -20v-135q-53 -2 -72.5 -20t-19.5 -77v-110q0 -78 -43.5 -122t-119.5 -44h-76v138h34q37 0 48 14.5t11 51.5v89q0 121 95 147q-95 28 -95 147v91q0 36 -11 51t-48 15h-34v135z" />
    <glyph glyph-name="uniF6B4" unicode="&#xf6b4;" horiz-adv-x="333" 
d="M60 0l9 449h151l9 -449h-169zM236 608q0 -40 -26 -66t-66 -26q-39 0 -65 26t-26 66q0 39 26 65t65 26q40 0 66 -26t26 -65z" />
    <glyph glyph-name="uniF6B5" unicode="&#xf6b5;" horiz-adv-x="475" 
d="M339 159l79 -102q-77 -65 -192 -65q-83 0 -140 35q-70 42 -70 125q0 43 18 77t43 53.5t50.5 34.5t43.5 31t18 33q0 16 -15 39l112 50q44 -54 44 -103q0 -34 -17.5 -62t-42 -45t-49 -32t-42 -32t-17.5 -35q0 -45 60 -45q65 0 117 43zM293 607q0 -39 -26 -65t-65 -26
q-40 0 -66 25.5t-26 65.5t26 66t66 26q39 0 65 -26t26 -66z" />
    <glyph glyph-name="uniF6B6" unicode="&#xf6b6;" horiz-adv-x="573" 
d="M195 119l-177 226l177 226l94 -73l-114 -153l114 -151zM445 119l-177 226l177 226l95 -73l-115 -153l115 -151z" />
    <glyph glyph-name="uniF6B7" unicode="&#xf6b7;" horiz-adv-x="573" 
d="M378 571l178 -226l-178 -226l-94 73l115 153l-115 151zM128 571l177 -226l-177 -226l-94 73l114 153l-114 151z" />
    <glyph glyph-name="uniF6B8" unicode="&#xf6b8;" horiz-adv-x="359" 
d="M221 106l-203 239l203 239l105 -81l-130 -158l130 -157z" />
    <glyph glyph-name="uniF6B9" unicode="&#xf6b9;" horiz-adv-x="359" 
d="M138 584l204 -239l-204 -239l-104 81l129 158l-129 157z" />
    <glyph glyph-name="uniF6BA" unicode="&#xf6ba;" horiz-adv-x="319" 
d="M305 273h-291v144h291v-144z" />
    <glyph glyph-name="uniF6BB" unicode="&#xf6bb;" horiz-adv-x="500" 
d="M486 273h-472v144h472v-144z" />
    <glyph glyph-name="uniF6BC" unicode="&#xf6bc;" horiz-adv-x="1000" 
d="M986 273h-972v144h972v-144z" />
    <glyph glyph-name="uniF6BD" unicode="&#xf6bd;" horiz-adv-x="283" 
d="M47 345q0 41 27 68t67 27q41 0 68 -27t27 -68t-27 -68t-68 -27q-40 0 -67 27.5t-27 67.5z" />
    <glyph glyph-name="commaaccent" unicode="&#xf6c3;" horiz-adv-x="200" 
d="M22 -118q0 34 23.5 57.5t62.5 23.5t62 -23t23 -62q0 -77 -86 -202l-90 44q31 58 42 97q-37 20 -37 65z" />
    <glyph glyph-name="Acute" unicode="&#xf6c9;" horiz-adv-x="200" 
d="M37 554l-58 90l215 153l71 -106z" />
    <glyph glyph-name="Caron" unicode="&#xf6ca;" horiz-adv-x="200" 
d="M271 669l-173 -120l-169 118l58 91l114 -71l114 72z" />
    <glyph glyph-name="Grave" unicode="&#xf6ce;" horiz-adv-x="200" 
d="M207 644l-58 -90l-228 137l71 106z" />
    <glyph glyph-name="Hungarumlaut" unicode="&#xf6cf;" horiz-adv-x="200" 
d="M-15 554l-65 70l178 168l76 -79zM199 554l-65 70l179 168l76 -79z" />
    <glyph glyph-name="uniF6DC" unicode="&#xf6dc;" horiz-adv-x="497" 
d="M51 0v141h150v388l-110 -102l-87 112l180 151h177v-549h114v-141h-424z" />
    <glyph glyph-name="threequartersemdash" unicode="&#xf6de;" horiz-adv-x="750" 
d="M736 199h-722v144h722v-144z" />
    <glyph glyph-name="centinferior" unicode="&#xf6df;" horiz-adv-x="385" 
d="M263 259v-63q53 -9 83 -36l-65 -76q-24 17 -62 17t-49 -17t-11 -61q0 -46 10 -64t41 -18q41 0 73 30l69 -72q-37 -36 -89 -48v-66h-116l1 66q-39 11 -61 31q-46 40 -46 137q0 96 47 139q22 22 60 32l-1 69h116z" />
    <glyph glyph-name="centsuperior" unicode="&#xf6e0;" horiz-adv-x="385" 
d="M263 927v-63q53 -9 83 -36l-65 -76q-24 17 -62 17t-49 -17t-11 -61q0 -46 10 -64t41 -18q41 0 73 29l69 -72q-37 -36 -89 -48v-65h-116l1 66q-37 9 -61 31q-46 42 -46 137q0 96 47 139q22 22 60 32l-1 69h116z" />
    <glyph glyph-name="commainferior" unicode="&#xf6e1;" horiz-adv-x="212" 
d="M37 -124q0 27 17.5 45t47.5 18q29 0 46 -18t17 -47q0 -61 -67 -159l-68 35q28 56 33 77q-26 16 -26 49z" />
    <glyph glyph-name="commasuperior" unicode="&#xf6e2;" horiz-adv-x="212" 
d="M37 543q0 27 17.5 45.5t47.5 18.5q29 0 46 -18t17 -47q0 -61 -67 -159l-68 35q28 56 33 77q-26 16 -26 48z" />
    <glyph glyph-name="dollarinferior" unicode="&#xf6e3;" horiz-adv-x="385" 
d="M249 259l-1 -50q59 -7 91 -31l-53 -80q-36 20 -92 20q-45 0 -45 -20q0 -13 31 -21t68 -14.5t68 -33.5t31 -74q0 -59 -48 -92q-24 -16 -51 -23l1 -55h-117l1 48q-72 9 -108 37l56 82q40 -26 104 -26q47 0 47 22q0 15 -31 24t-68.5 15t-68.5 33t-31 73q0 52 44 86
q22 15 56 25l-1 55h117z" />
    <glyph glyph-name="dollarsuperior" unicode="&#xf6e4;" horiz-adv-x="385" 
d="M249 927l-1 -50q59 -7 91 -31l-53 -80q-36 20 -92 20q-45 0 -45 -20q0 -11 20.5 -17.5t49.5 -12t58 -15.5t49.5 -35.5t20.5 -63.5q0 -59 -48 -92q-21 -14 -51 -22l1 -55h-117l1 48q-71 7 -108 36l56 83q41 -27 104 -27q47 0 47 23q0 15 -31 23.5t-68.5 15t-68.5 33
t-31 73.5q0 52 44 86q22 15 56 25l-1 55h117z" />
    <glyph glyph-name="hypheninferior" unicode="&#xf6e5;" horiz-adv-x="211" 
d="M197 -33h-180v99h180v-99z" />
    <glyph glyph-name="hyphensuperior" unicode="&#xf6e6;" horiz-adv-x="211" 
d="M197 634h-180v100h180v-100z" />
    <glyph glyph-name="periodinferior" unicode="&#xf6e7;" horiz-adv-x="212" 
d="M37 -125q0 28 18 46t46 18t46.5 -18t18.5 -46t-18.5 -46t-46.5 -18q-27 0 -45.5 18t-18.5 46z" />
    <glyph glyph-name="periodsuperior" unicode="&#xf6e8;" horiz-adv-x="212" 
d="M37 542q0 28 18 46.5t46 18.5t46.5 -18.5t18.5 -46.5t-18.5 -46t-46.5 -18q-27 0 -45.5 18t-18.5 46z" />
    <glyph glyph-name="asuperior" unicode="&#xf6e9;" horiz-adv-x="350" 
d="M90 686l-52 60q43 43 130 43q71 0 103 -26.5t32 -91.5v-186h-90l-1 33q-33 -42 -90 -42q-43 0 -70 24q-29 24 -29 71q0 51 39 78q37 24 112 24h31v5q0 19 -9.5 26t-33.5 7q-43 0 -72 -25zM207 609h-36q-26 0 -37 -6.5t-11 -28.5q0 -21 19 -21q17 0 39 17.5t26 38.5z" />
    <glyph glyph-name="bsuperior" unicode="&#xf6ea;" horiz-adv-x="379" 
d="M45 927h109v-169q31 32 80 32q34 0 56.5 -12.5t34 -35.5t15.5 -47t4 -56q0 -34 -5 -60t-17 -50.5t-37 -37.5t-62 -13q-55 0 -85 34l-2 -27h-91v442zM233 634q0 36 -6 49.5t-23 13.5q-20 0 -34 -19q-20 -25 -20 -58q0 -25 14 -39q13 -15 34 -15q22 0 28.5 15t6.5 53z" />
    <glyph glyph-name="dsuperior" unicode="&#xf6eb;" horiz-adv-x="382" 
d="M226 927h108v-442h-101l-2 34q-31 -42 -89 -42q-45 0 -72 28q-37 38 -37 127q0 93 43 129q33 28 87 28q37 0 63 -15v153zM173 568q16 0 34 22q23 28 23 65q0 24 -14 35q-11 10 -32 10q-24 0 -30.5 -14.5t-6.5 -55.5q0 -38 5 -50t21 -12z" />
    <glyph glyph-name="esuperior" unicode="&#xf6ec;" horiz-adv-x="359" 
d="M266 588l53 -60q-52 -51 -138 -51q-66 0 -103 29q-45 36 -45 122t43 126q38 36 110 36q138 0 138 -145q0 -17 -3 -40l-184 -2q1 -24 10 -34.5t38 -10.5q46 0 81 30zM139 670h83q-1 24 -8.5 34.5t-31.5 10.5q-25 0 -34 -11.5t-9 -33.5z" />
    <glyph glyph-name="isuperior" unicode="&#xf6ed;" horiz-adv-x="204" 
d="M45 782h109v-297h-109v297zM37 879q0 27 18 45.5t44 18.5q27 0 45 -18.5t18 -45.5t-18 -45t-45 -18q-26 0 -44 18t-18 45z" />
    <glyph glyph-name="lsuperior" unicode="&#xf6ee;" horiz-adv-x="204" 
d="M45 927h108v-442h-108v442z" />
    <glyph glyph-name="msuperior" unicode="&#xf6ef;" horiz-adv-x="549" 
d="M45 782h101v-40q31 48 91 48q63 0 82 -49q33 49 94 49q91 0 91 -109v-196h-108v180q0 13 -3.5 18.5t-15.5 5.5q-20 0 -34.5 -20t-14.5 -57v-127h-108v181q0 23 -18 23q-20 0 -34.5 -20t-14.5 -57v-127h-108v297z" />
    <glyph glyph-name="osuperior" unicode="&#xf6f0;" horiz-adv-x="369" 
d="M335 636q0 -90 -46 -129q-39 -33 -108 -33q-67 0 -104 30q-44 36 -44 125q0 93 45 130q39 33 109 33q68 0 104 -30q44 -36 44 -126zM224 635q0 47 -13 59q-7 8 -26 8q-18 0 -28 -8q-13 -13 -13 -63q0 -48 12 -60q9 -7 26 -7q20 0 28 9q14 13 14 62z" />
    <glyph glyph-name="rsuperior" unicode="&#xf6f1;" horiz-adv-x="283" 
d="M45 782h103l-1 -45q27 53 84 53q17 0 29 -3l-10 -104q-14 2 -22 2q-75 0 -75 -109v-91h-108v297z" />
    <glyph glyph-name="ssuperior" unicode="&#xf6f2;" horiz-adv-x="303" 
d="M270 753l-48 -64q-29 21 -67 21q-29 0 -29 -14q0 -8 23.5 -15.5t51 -14.5t51 -30t23.5 -59q0 -51 -39.5 -75.5t-97.5 -24.5q-80 0 -118 39l49 65q30 -25 75 -25q33 0 33 16q0 10 -23.5 17.5t-51.5 14t-51.5 29.5t-23.5 59q0 47 38.5 72t95.5 25q74 0 109 -36z" />
    <glyph glyph-name="tsuperior" unicode="&#xf6f3;" horiz-adv-x="294" 
d="M249 579l6 -91q-35 -7 -67 -7q-66 0 -92.5 29.5t-26.5 89.5v83h-43v94h43v80l109 9v-89h74v-94h-74v-75q0 -20 5 -26t26 -6q22 0 40 3z" />
    <glyph glyph-name="Lslashsmall" unicode="&#xf6f9;" horiz-adv-x="441" 
d="M77 541h154v-128l36 19l63 -119l-99 -52v-124h178v-137h-332v180l-25 -14l-62 119l87 46v210z" />
    <glyph glyph-name="OEsmall" unicode="&#xf6fa;" horiz-adv-x="830" 
d="M767 541v-129h-232q11 -27 15 -74h201v-129h-201q-2 -50 -15 -81h237v-128h-335q-33 0 -73 -3.5t-66 -3.5q-122 0 -188 59q-69 63 -69 221q0 151 67 214q65 60 190 60q28 0 74 -3t70 -3h325zM392 268q0 37 -1 55t-5.5 39.5t-14.5 30t-27 15t-44 6.5q-24 0 -40.5 -3
t-27 -13t-16 -18t-8 -28.5t-3 -33.5t-0.5 -43q0 -39 1 -57t5.5 -40.5t14 -31t27 -15t44.5 -6.5q24 0 40.5 3.5t27 13.5t16 18.5t8 29.5t3 34t0.5 44z" />
    <glyph glyph-name="Scaronsmall" unicode="&#xf6fd;" horiz-adv-x="475" 
d="M431 502l-72 -111q-45 29 -120 29q-52 0 -52 -38q0 -14 19 -24t47 -15t61 -16.5t61 -27.5t47 -49.5t19 -80.5q0 -90 -74 -139q-62 -40 -153 -40q-132 0 -194 54l75 114q52 -38 133 -38q56 0 56 41q0 15 -14 25t-36.5 16t-49 13t-53.5 18t-49.5 28t-36.5 47t-14 70
q0 81 65 127q61 45 156 45q118 0 179 -48zM400 747l-163 -164l-159 162l77 78l84 -89l86 90z" />
    <glyph glyph-name="Zcaronsmall" unicode="&#xf6ff;" horiz-adv-x="470" 
d="M424 539v-127l-202 -277h206v-135h-393v127l201 277h-190v135h378zM398 747l-163 -164l-159 162l77 78l84 -89l86 90z" />
    <glyph glyph-name="exclamsmall" unicode="&#xf721;" horiz-adv-x="308" 
d="M253 541l-8 -335h-145l-8 335h161zM87 77q0 36 24 60.5t61 24.5t61.5 -24t24.5 -61t-24.5 -61t-61.5 -24q-36 0 -60.5 24t-24.5 61z" />
    <glyph glyph-name="ampersandsmall" unicode="&#xf726;" horiz-adv-x="581" 
d="M373 289h126q0 -85 -54 -164l117 -125h-166l-32 33q-54 -44 -133 -44q-87 0 -137 39q-51 38 -51 111q0 88 79 152q-39 51 -39 103q0 67 48 110q49 44 136 44q83 0 128 -41l-78 -94q-25 17 -53 17q-42 0 -42 -32q0 -23 18 -48t70 -81l49 -52q12 30 14 72zM232 101
q30 0 53 16l-81 84q-29 -22 -29 -56q0 -44 57 -44z" />
    <glyph glyph-name="zerooldstyle" unicode="&#xf730;" horiz-adv-x="588" 
d="M548 274q0 -164 -75 -230q-64 -56 -184 -56q-121 0 -183 60q-65 64 -65 217q0 158 67 225q65 63 191 63q119 0 181 -57q68 -64 68 -222zM384 265q0 106 -23 134q-20 23 -65 23q-49 0 -71 -29q-20 -27 -20 -119q0 -107 22 -133q17 -22 64 -22q54 0 74 30q19 28 19 116z
" />
    <glyph glyph-name="oneoldstyle" unicode="&#xf731;" horiz-adv-x="471" 
d="M45 0v134h146v258l-106 -79l-83 109l167 119h175v-407h111v-134h-410z" />
    <glyph glyph-name="twooldstyle" unicode="&#xf732;" horiz-adv-x="499" 
d="M455 131v-131h-430v99q0 76 39.5 116.5t142.5 88.5q40 18 55 26t29.5 22t14.5 31q0 42 -76 42q-42 0 -68.5 -12.5t-51.5 -40.5l-92 91q72 90 218 90q100 0 162 -39t62 -125q0 -64 -35 -100.5t-106 -67.5q-80 -35 -105.5 -52t-25.5 -39z" />
    <glyph glyph-name="threeoldstyle" unicode="&#xf733;" horiz-adv-x="490" 
d="M109 171v131h85q47 0 69 14t22 50q0 32 -18 45t-58 13q-72 0 -111 -46l-91 91q40 46 90.5 65t121.5 19q99 0 158 -36q70 -43 70 -128q0 -54 -26.5 -91.5t-74.5 -54.5q110 -23 110 -140q0 -93 -77 -151q-72 -52 -187 -52q-113 0 -168 45l60 110q38 -26 107 -26
q52 0 77.5 18t25.5 60q0 39 -21.5 51.5t-78.5 12.5h-85z" />
    <glyph glyph-name="fouroldstyle" unicode="&#xf734;" horiz-adv-x="524" 
d="M503 7h-70v-108h-147v108h-254v148l127 396l150 -29l-126 -382h106v196h144v-193h70v-136z" />
    <glyph glyph-name="fiveoldstyle" unicode="&#xf735;" horiz-adv-x="508" 
d="M33 -60l51 115q46 -26 112 -26q58 0 82 19q26 20 26 70q0 41 -15 57q-17 17 -50 17q-45 0 -87 -33l-102 51l6 331h370v-135h-241l-1 -108q35 23 96 23q74 0 122 -40q63 -51 63 -151q0 -123 -93 -185q-70 -45 -180 -45q-104 0 -159 40z" />
    <glyph glyph-name="sixoldstyle" unicode="&#xf736;" horiz-adv-x="550" 
d="M501 605l-56 -113q-44 29 -112 29q-73 0 -103 -34t-31 -125q35 40 108 40q88 0 142 -49q59 -54 59 -152q0 -106 -65 -163q-58 -52 -160 -52q-105 0 -167 57q-43 40 -59 102.5t-16 151.5q0 195 77 276q73 78 217 78q110 0 166 -46zM284 288q-43 0 -62 -21t-19 -66
q0 -46 18 -68.5t60 -22.5q43 0 58.5 22.5t15.5 72.5q0 45 -14.5 64t-56.5 19z" />
    <glyph glyph-name="sevenoldstyle" unicode="&#xf737;" horiz-adv-x="486" 
d="M159 298h-131l-2 243h436v-156l-200 -503l-150 53l192 461h-141z" />
    <glyph glyph-name="eightoldstyle" unicode="&#xf738;" horiz-adv-x="561" 
d="M50 479q0 47 20.5 82t55.5 54.5t74 28.5t83 9q43 0 82 -9t73 -27.5t54 -52.5t20 -79q0 -109 -109 -156q118 -47 118 -164q0 -91 -69 -135t-171 -44q-64 0 -116.5 17t-88 58t-35.5 102q0 114 122 161q-113 46 -113 155zM196 466q0 -38 20.5 -54.5t63.5 -29.5
q21 6 33.5 11.5t26 15t20 24.5t6.5 35q0 66 -84 66q-86 0 -86 -68zM186 178q0 -74 94 -74t94 74q0 23 -7 39t-22.5 27t-29 16.5t-36.5 12.5q-45 -14 -69 -34t-24 -61z" />
    <glyph glyph-name="nineoldstyle" unicode="&#xf739;" horiz-adv-x="550" 
d="M49 -55l57 112q43 -28 112 -28q73 0 103 33t31 119q-35 -40 -108 -40q-88 0 -142 48q-60 55 -60 152q0 106 66 163q58 52 160 52q106 0 167 -56q75 -71 75 -254q0 -187 -78 -270q-72 -77 -216 -77q-111 0 -167 46zM267 254q43 0 62 21t19 66q0 47 -18 69t-61 22
t-58 -22.5t-15 -72.5q0 -45 14.5 -64t56.5 -19z" />
    <glyph glyph-name="questionsmall" unicode="&#xf73f;" horiz-adv-x="411" 
d="M131 398l-74 96q64 53 161 53q72 0 122 -30q57 -36 57 -101q0 -42 -22 -73t-48 -44t-48 -28t-22 -29q0 -8 9 -22l-106 -43q-35 45 -35 81q0 33 21.5 58t46.5 37t46.5 26.5t21.5 28.5q0 23 -40 23q-49 0 -90 -33zM156 77q0 37 24.5 61t61.5 24t61.5 -24t24.5 -61t-25 -61
t-61 -24q-37 0 -61.5 24t-24.5 61z" />
    <glyph glyph-name="Asmall" unicode="&#xf761;" horiz-adv-x="550" 
d="M537 0h-161l-24 86h-164l-24 -86h-156l173 541h182zM321 208l-51 179l-50 -179h101z" />
    <glyph glyph-name="Bsmall" unicode="&#xf762;" horiz-adv-x="548" 
d="M65 541h251q82 0 126 -30q47 -32 47 -102q0 -47 -22 -80t-67 -45q100 -19 100 -121q0 -80 -56 -124q-50 -39 -140 -39h-239v541zM213 215v-95h70q29 0 43 10q14 12 14 42q0 24 -12.5 33.5t-38.5 9.5h-76zM213 421v-95h54q31 0 47 11.5t16 43.5q0 24 -11 33q-10 7 -32 7
h-74z" />
    <glyph glyph-name="Csmall" unicode="&#xf763;" horiz-adv-x="482" 
d="M373 171l91 -95q-78 -85 -200 -85q-103 0 -158 55q-65 65 -65 217q0 159 68 226q61 61 173 61q115 0 174 -58l-83 -108q-37 31 -95 31q-44 0 -60 -24q-17 -24 -17 -132q0 -90 19 -115q16 -21 51 -21q54 0 102 48z" />
    <glyph glyph-name="Dsmall" unicode="&#xf764;" horiz-adv-x="573" 
d="M65 541h233q112 0 169 -52q63 -58 63 -212q0 -164 -71 -226q-57 -51 -156 -51h-238v541zM220 406v-272h69q43 0 61 20q19 22 19 119q0 94 -19 116q-17 17 -60 17h-70z" />
    <glyph glyph-name="Esmall" unicode="&#xf765;" horiz-adv-x="476" 
d="M65 541h349v-126h-199v-79h181v-126h-181v-84h203v-126h-353v541z" />
    <glyph glyph-name="Fsmall" unicode="&#xf766;" horiz-adv-x="459" 
d="M65 541h352v-137h-197v-83h179v-136h-179v-185h-155v541z" />
    <glyph glyph-name="Gsmall" unicode="&#xf767;" horiz-adv-x="555" 
d="M281 318h220v-288q-93 -37 -199 -37q-133 0 -195 60q-39 37 -52.5 88t-13.5 123q0 164 70 228q65 57 191 57q131 0 195 -56l-89 -108q-43 30 -114 30q-52 0 -71 -21q-20 -23 -20 -120q0 -68 5 -96t17 -42q19 -21 72 -21q37 0 66 8v73h-82v122z" />
    <glyph glyph-name="Hsmall" unicode="&#xf768;" horiz-adv-x="589" 
d="M65 541h154v-197h148v197h154v-541h-154v207h-148v-207h-154v541z" />
    <glyph glyph-name="Ismall" unicode="&#xf769;" horiz-adv-x="292" 
d="M65 541h154v-541h-154v541z" />
    <glyph glyph-name="Jsmall" unicode="&#xf76a;" horiz-adv-x="313" 
d="M85 541h154v-496q0 -220 -216 -220q-43 0 -70 9l20 129q20 -5 44 -5q41 0 54.5 17.5t13.5 59.5v506z" />
    <glyph glyph-name="Ksmall" unicode="&#xf76b;" horiz-adv-x="587" 
d="M65 541h154v-192h48l111 192h175l-152 -262l166 -279h-183l-117 204h-48v-204h-154v541z" />
    <glyph glyph-name="Lsmall" unicode="&#xf76c;" horiz-adv-x="427" 
d="M65 541h154v-404h178v-137h-332v541z" />
    <glyph glyph-name="Msmall" unicode="&#xf76d;" horiz-adv-x="743" 
d="M82 541h205l83 -306l86 306h202l32 -541h-150l-11 371l-91 -349h-138l-90 350l-12 -372h-149z" />
    <glyph glyph-name="Nsmall" unicode="&#xf76e;" horiz-adv-x="618" 
d="M65 541h194l149 -332l-5 332h147v-541h-194l-149 331l5 -331h-147v541z" />
    <glyph glyph-name="Osmall" unicode="&#xf76f;" horiz-adv-x="590" 
d="M548 275q0 -162 -72 -228q-64 -59 -185 -59q-123 0 -184 59q-66 62 -66 219q0 161 72 228q62 59 185 59t185 -59q65 -64 65 -219zM384 268q0 108 -25 134q-20 20 -62 20q-46 0 -68 -25q-24 -28 -24 -126q0 -106 25 -132q20 -20 62 -20q49 0 68 25q24 28 24 124z" />
    <glyph glyph-name="Psmall" unicode="&#xf770;" horiz-adv-x="540" 
d="M65 541h226q93 0 144 -39q63 -48 63 -157q0 -112 -62 -160q-49 -38 -149 -38h-68v-147h-154v541zM219 409v-131h63q32 0 43 11q14 13 14 54q0 44 -16 57q-11 9 -44 9h-60z" />
    <glyph glyph-name="Qsmall" unicode="&#xf771;" horiz-adv-x="590" 
d="M548 275q0 -141 -51 -206l63 -68l-120 -110l-93 101q-34 -4 -56 -4q-123 0 -184 59q-66 62 -66 219q0 161 72 228q62 59 185 59t185 -59q65 -64 65 -219zM384 268q0 108 -25 134q-20 20 -62 20q-46 0 -68 -25q-24 -28 -24 -126q0 -106 25 -132q20 -20 62 -20q49 0 68 25
q24 28 24 124z" />
    <glyph glyph-name="Rsmall" unicode="&#xf772;" horiz-adv-x="569" 
d="M65 541h246q90 0 139 -30q64 -41 64 -134q0 -119 -102 -148q51 -7 72.5 -56.5t30.5 -172.5h-161q-12 104 -24 134t-43 30h-68v-164h-154v541zM219 409v-116h54q44 0 62.5 13.5t18.5 55.5q0 28 -13 39q-11 8 -40 8h-82z" />
    <glyph glyph-name="Ssmall" unicode="&#xf773;" horiz-adv-x="475" 
d="M431 502l-72 -111q-45 29 -120 29q-52 0 -52 -38q0 -14 19 -24t47 -15t61 -16.5t61 -27.5t47 -49.5t19 -80.5q0 -90 -74 -139q-62 -40 -153 -40q-132 0 -194 54l75 114q52 -38 133 -38q56 0 56 41q0 15 -14 25t-36.5 16t-49 13t-53.5 18t-49.5 28t-36.5 47t-14 70
q0 81 65 127q61 45 156 45q118 0 179 -48z" />
    <glyph glyph-name="Tsmall" unicode="&#xf774;" horiz-adv-x="454" 
d="M18 541h421v-138h-133v-403h-155v403h-133v138z" />
    <glyph glyph-name="Usmall" unicode="&#xf775;" horiz-adv-x="585" 
d="M65 541h155v-347q0 -38 12.5 -53.5t60.5 -15.5q45 0 58 15t13 53v348h154v-346q0 -89 -37 -134q-57 -71 -194 -71q-127 0 -182 62q-40 46 -40 139v350z" />
    <glyph glyph-name="Vsmall" unicode="&#xf776;" horiz-adv-x="542" 
d="M12 541h164l96 -366l93 366h162l-173 -541h-171z" />
    <glyph glyph-name="Wsmall" unicode="&#xf777;" horiz-adv-x="766" 
d="M18 541h154l58 -360l77 346h153l77 -346l58 360h153l-118 -541h-173l-76 338l-76 -338h-174z" />
    <glyph glyph-name="Xsmall" unicode="&#xf778;" horiz-adv-x="568" 
d="M24 541h180l78 -159l76 159h177l-155 -262l167 -279h-180l-88 173l-89 -173h-178l169 280z" />
    <glyph glyph-name="Ysmall" unicode="&#xf779;" horiz-adv-x="510" 
d="M1 541h176l73 -189l76 189h176l-176 -345v-196h-155v196z" />
    <glyph glyph-name="Zsmall" unicode="&#xf77a;" horiz-adv-x="470" 
d="M424 539v-127l-202 -277h206v-135h-393v127l201 277h-190v135h378z" />
    <glyph glyph-name="exclamdownsmall" unicode="&#xf7a1;" horiz-adv-x="308" 
d="M51 0l8 335h146l8 -335h-162zM218 464q0 -37 -24.5 -61.5t-61.5 -24.5t-61.5 24.5t-24.5 61.5t24.5 61t61.5 24t61.5 -24t24.5 -61z" />
    <glyph glyph-name="questiondownsmall" unicode="&#xf7bf;" horiz-adv-x="411" 
d="M282 142l75 -96q-66 -52 -162 -52q-72 0 -122 30q-57 36 -57 101q0 35 14.5 61t35 41t41 26.5t35 22t14.5 22.5q0 9 -9 23l106 43q35 -45 35 -81q0 -33 -21 -58t-47 -37.5t-47 -27t-21 -27.5q0 -23 40 -23q48 0 90 32zM257 464q0 -37 -24.5 -61.5t-61.5 -24.5t-61.5 24.5
t-24.5 61.5t24.5 61t61.5 24t61.5 -24t24.5 -61z" />
    <glyph glyph-name="Agravesmall" unicode="&#xf7e0;" horiz-adv-x="550" 
d="M537 0h-161l-24 86h-164l-24 -86h-156l173 541h182zM321 208l-51 179l-50 -179h101zM385 661l-84 -75l-176 189l97 83z" />
    <glyph glyph-name="Aacutesmall" unicode="&#xf7e1;" horiz-adv-x="550" 
d="M537 0h-161l-24 86h-164l-24 -86h-156l173 541h182zM321 208l-51 179l-50 -179h101zM242 586l-84 75l163 197l96 -83z" />
    <glyph glyph-name="Acircumflexsmall" unicode="&#xf7e2;" horiz-adv-x="550" 
d="M537 0h-161l-24 86h-164l-24 -86h-156l173 541h182zM321 208l-51 179l-50 -179h101zM114 668l163 164l159 -162l-77 -78l-84 89l-85 -90z" />
    <glyph glyph-name="Atildesmall" unicode="&#xf7e3;" horiz-adv-x="550" 
d="M537 0h-161l-24 86h-164l-24 -86h-156l173 541h182zM321 208l-51 179l-50 -179h101zM407 794l63 -79q-35 -39 -65 -58t-69 -19q-31 0 -71.5 16.5t-58.5 16.5q-29 0 -63 -36l-63 79q36 38 66 57t69 19q30 0 71 -16.5t58 -16.5q28 0 63 37z" />
    <glyph glyph-name="Adieresissmall" unicode="&#xf7e4;" horiz-adv-x="550" 
d="M537 0h-161l-24 86h-164l-24 -86h-156l173 541h182zM321 208l-51 179l-50 -179h101zM377 778q33 0 55 -22t22 -56q0 -32 -22.5 -53.5t-54.5 -21.5t-53.5 21.5t-21.5 53.5q0 34 21.5 56t53.5 22zM171 778q33 0 55 -22t22 -56q0 -32 -22.5 -53.5t-54.5 -21.5
q-31 0 -53 21.5t-22 53.5q0 34 21.5 56t53.5 22z" />
    <glyph glyph-name="Aringsmall" unicode="&#xf7e5;" horiz-adv-x="550" 
d="M537 0h-161l-24 86h-164l-24 -86h-156l173 541h182zM321 208l-51 179l-50 -179h101zM414 731q0 -56 -39 -91t-100 -35t-100 35t-39 91q0 57 38.5 91.5t100.5 34.5q61 0 100 -34.5t39 -91.5zM317 732q0 43 -41 43q-43 0 -43 -45q0 -44 42 -44t42 46z" />
    <glyph glyph-name="AEsmall" unicode="&#xf7e6;" horiz-adv-x="780" 
d="M371 92h-169l-41 -92h-171l260 541h463v-129h-189v-74h174v-129h-174v-81h194v-128h-347v92zM343 412l-90 -201h118v201h-28z" />
    <glyph glyph-name="Ccedillasmall" unicode="&#xf7e7;" horiz-adv-x="482" 
d="M373 171l91 -95q-69 -75 -170 -84l-2 -26q63 -29 63 -89q0 -49 -33 -82.5t-93 -33.5q-73 0 -119 57l60 63q24 -31 51 -31q31 0 31 27q0 32 -59 48l8 72q-59 13 -95 49q-65 65 -65 217q0 159 68 226q61 61 173 61q115 0 174 -58l-83 -108q-37 31 -95 31q-44 0 -60 -24
q-17 -24 -17 -132q0 -90 19 -115q16 -21 51 -21q54 0 102 48z" />
    <glyph glyph-name="Egravesmall" unicode="&#xf7e8;" horiz-adv-x="476" 
d="M65 541h349v-126h-199v-79h181v-126h-181v-84h203v-126h-353v541zM356 661l-84 -75l-176 189l97 83z" />
    <glyph glyph-name="Eacutesmall" unicode="&#xf7e9;" horiz-adv-x="476" 
d="M65 541h349v-126h-199v-79h181v-126h-181v-84h203v-126h-353v541zM213 586l-84 75l163 197l96 -83z" />
    <glyph glyph-name="Ecircumflexsmall" unicode="&#xf7ea;" horiz-adv-x="476" 
d="M65 541h349v-126h-199v-79h181v-126h-181v-84h203v-126h-353v541zM85 668l163 164l159 -162l-77 -78l-84 89l-85 -90z" />
    <glyph glyph-name="Edieresissmall" unicode="&#xf7eb;" horiz-adv-x="476" 
d="M65 541h349v-126h-199v-79h181v-126h-181v-84h203v-126h-353v541zM348 778q32 0 54.5 -22t22.5 -56q0 -32 -22.5 -53.5t-54.5 -21.5t-53.5 21.5t-21.5 53.5q0 34 21.5 56t53.5 22zM142 778q32 0 54.5 -22t22.5 -56q0 -32 -22.5 -53.5t-54.5 -21.5t-53.5 21.5t-21.5 53.5
q0 34 21.5 56t53.5 22z" />
    <glyph glyph-name="Igravesmall" unicode="&#xf7ec;" horiz-adv-x="292" 
d="M65 541h154v-541h-154v541zM256 661l-84 -75l-176 189l97 83z" />
    <glyph glyph-name="Iacutesmall" unicode="&#xf7ed;" horiz-adv-x="292" 
d="M65 541h154v-541h-154v541zM113 586l-84 75l163 197l96 -83z" />
    <glyph glyph-name="Icircumflexsmall" unicode="&#xf7ee;" horiz-adv-x="292" 
d="M65 541h154v-541h-154v541zM-15 668l163 164l159 -162l-77 -78l-84 89l-85 -90z" />
    <glyph glyph-name="Idieresissmall" unicode="&#xf7ef;" horiz-adv-x="292" 
d="M65 541h154v-541h-154v541zM248 778q32 0 54.5 -22t22.5 -56q0 -32 -22.5 -53.5t-54.5 -21.5t-53.5 21.5t-21.5 53.5q0 34 21.5 56t53.5 22zM42 778q32 0 54.5 -22t22.5 -56q0 -32 -22.5 -53.5t-54.5 -21.5t-53.5 21.5t-21.5 53.5q0 34 21.5 56t53.5 22z" />
    <glyph glyph-name="Ethsmall" unicode="&#xf7f0;" horiz-adv-x="580" 
d="M72 541h234q114 0 170 -54q61 -59 61 -210q0 -157 -67 -222q-57 -55 -160 -55h-238v209h-42v127h42v205zM222 406v-70h67v-127h-67v-75h75q49 0 64 23q15 22 15 116q0 96 -17 115q-15 18 -61 18h-76z" />
    <glyph glyph-name="Ntildesmall" unicode="&#xf7f1;" horiz-adv-x="618" 
d="M65 541h194l149 -332l-5 332h147v-541h-194l-149 331l5 -331h-147v541zM460 794l63 -79q-35 -39 -65 -58t-69 -19q-31 0 -71.5 16.5t-58.5 16.5q-29 0 -63 -36l-63 79q36 38 66 57t69 19q30 0 71 -16.5t58 -16.5q28 0 63 37z" />
    <glyph glyph-name="Ogravesmall" unicode="&#xf7f2;" horiz-adv-x="590" 
d="M548 275q0 -162 -72 -228q-64 -59 -185 -59q-123 0 -184 59q-66 62 -66 219q0 161 72 228q62 59 185 59t185 -59q65 -64 65 -219zM384 268q0 108 -25 134q-20 20 -62 20q-46 0 -68 -25q-24 -28 -24 -126q0 -106 25 -132q20 -20 62 -20q49 0 68 25q24 28 24 124zM405 661
l-84 -75l-176 189l97 83z" />
    <glyph glyph-name="Oacutesmall" unicode="&#xf7f3;" horiz-adv-x="590" 
d="M548 275q0 -162 -72 -228q-64 -59 -185 -59q-123 0 -184 59q-66 62 -66 219q0 161 72 228q62 59 185 59t185 -59q65 -64 65 -219zM384 268q0 108 -25 134q-20 20 -62 20q-46 0 -68 -25q-24 -28 -24 -126q0 -106 25 -132q20 -20 62 -20q49 0 68 25q24 28 24 124zM262 586
l-84 75l163 197l96 -83z" />
    <glyph glyph-name="Ocircumflexsmall" unicode="&#xf7f4;" horiz-adv-x="590" 
d="M548 275q0 -162 -72 -228q-64 -59 -185 -59q-123 0 -184 59q-66 62 -66 219q0 161 72 228q62 59 185 59t185 -59q65 -64 65 -219zM384 268q0 108 -25 134q-20 20 -62 20q-46 0 -68 -25q-24 -28 -24 -126q0 -106 25 -132q20 -20 62 -20q49 0 68 25q24 28 24 124zM134 668
l163 164l159 -162l-77 -78l-84 89l-85 -90z" />
    <glyph glyph-name="Otildesmall" unicode="&#xf7f5;" horiz-adv-x="590" 
d="M548 275q0 -162 -72 -228q-64 -59 -185 -59q-123 0 -184 59q-66 62 -66 219q0 161 72 228q62 59 185 59t185 -59q65 -64 65 -219zM384 268q0 108 -25 134q-20 20 -62 20q-46 0 -68 -25q-24 -28 -24 -126q0 -106 25 -132q20 -20 62 -20q49 0 68 25q24 28 24 124zM427 794
l63 -79q-35 -39 -65 -58t-69 -19q-31 0 -71.5 16.5t-58.5 16.5q-29 0 -63 -36l-63 79q36 38 66 57t69 19q30 0 71 -16.5t58 -16.5q28 0 63 37z" />
    <glyph glyph-name="Odieresissmall" unicode="&#xf7f6;" horiz-adv-x="590" 
d="M548 275q0 -162 -72 -228q-64 -59 -185 -59q-123 0 -184 59q-66 62 -66 219q0 161 72 228q62 59 185 59t185 -59q65 -64 65 -219zM384 268q0 108 -25 134q-20 20 -62 20q-46 0 -68 -25q-24 -28 -24 -126q0 -106 25 -132q20 -20 62 -20q49 0 68 25q24 28 24 124zM397 778
q33 0 55 -22t22 -56q0 -32 -22.5 -53.5t-54.5 -21.5t-53.5 21.5t-21.5 53.5q0 34 21.5 56t53.5 22zM191 778q33 0 55 -22t22 -56q0 -32 -22.5 -53.5t-54.5 -21.5q-31 0 -53 21.5t-22 53.5q0 34 21.5 56t53.5 22z" />
    <glyph glyph-name="Oslashsmall" unicode="&#xf7f8;" horiz-adv-x="591" 
d="M574 533l-60 -80q34 -62 34 -178q0 -165 -75 -231q-64 -56 -182 -56q-60 0 -105 14l-51 -79l-120 86l60 80q-33 61 -33 176q0 158 66 225q66 63 191 63q59 0 104 -14l51 80zM384 268q0 106 -23 131q-20 23 -63 23q-51 0 -73 -29q-20 -30 -20 -122q0 -103 23 -130
q19 -22 64 -22q54 0 74 30q18 28 18 119z" />
    <glyph glyph-name="Ugravesmall" unicode="&#xf7f9;" horiz-adv-x="585" 
d="M65 541h155v-347q0 -38 12.5 -53.5t60.5 -15.5q45 0 58 15t13 53v348h154v-346q0 -89 -37 -134q-57 -71 -194 -71q-127 0 -182 62q-40 46 -40 139v350zM402 661l-84 -75l-176 189l97 83z" />
    <glyph glyph-name="Uacutesmall" unicode="&#xf7fa;" horiz-adv-x="585" 
d="M65 541h155v-347q0 -38 12.5 -53.5t60.5 -15.5q45 0 58 15t13 53v348h154v-346q0 -89 -37 -134q-57 -71 -194 -71q-127 0 -182 62q-40 46 -40 139v350zM259 586l-84 75l163 197l96 -83z" />
    <glyph glyph-name="Ucircumflexsmall" unicode="&#xf7fb;" horiz-adv-x="585" 
d="M65 541h155v-347q0 -38 12.5 -53.5t60.5 -15.5q45 0 58 15t13 53v348h154v-346q0 -89 -37 -134q-57 -71 -194 -71q-127 0 -182 62q-40 46 -40 139v350zM131 668l163 164l159 -162l-77 -78l-84 89l-85 -90z" />
    <glyph glyph-name="Udieresissmall" unicode="&#xf7fc;" horiz-adv-x="585" 
d="M65 541h155v-347q0 -38 12.5 -53.5t60.5 -15.5q45 0 58 15t13 53v348h154v-346q0 -89 -37 -134q-57 -71 -194 -71q-127 0 -182 62q-40 46 -40 139v350zM394 778q32 0 54.5 -22t22.5 -56q0 -32 -22.5 -53.5t-54.5 -21.5t-53.5 21.5t-21.5 53.5q0 34 21.5 56t53.5 22z
M188 778q32 0 54.5 -22t22.5 -56q0 -32 -22.5 -53.5t-54.5 -21.5t-53.5 21.5t-21.5 53.5q0 34 21.5 56t53.5 22z" />
    <glyph glyph-name="Yacutesmall" unicode="&#xf7fd;" horiz-adv-x="510" 
d="M1 541h176l73 -189l76 189h176l-176 -345v-196h-155v196zM222 586l-84 75l163 197l96 -83z" />
    <glyph glyph-name="Thornsmall" unicode="&#xf7fe;" horiz-adv-x="545" 
d="M219 463h71q90 0 141 -36q66 -49 66 -159q0 -115 -67 -163q-49 -36 -144 -36h-67v-69h-154v541h154v-78zM219 332v-131h62q32 0 43 11q13 11 13 54q0 47 -16 57q-11 9 -43 9h-59z" />
    <glyph glyph-name="Ydieresissmall" unicode="&#xf7ff;" horiz-adv-x="510" 
d="M1 541h176l73 -189l76 189h176l-176 -345v-196h-155v196zM357 778q33 0 55 -22t22 -56q0 -32 -22.5 -53.5t-54.5 -21.5t-53.5 21.5t-21.5 53.5q0 34 21.5 56t53.5 22zM151 778q33 0 55 -22t22 -56q0 -32 -22.5 -53.5t-54.5 -21.5q-31 0 -53 21.5t-22 53.5q0 34 21.5 56
t53.5 22z" />
    <glyph glyph-name="fl" unicode="&#xfb02;" horiz-adv-x="681" 
d="M461 765h157v-765h-157v765zM396 731l-22 -129q-18 6 -45 6q-42 0 -54 -20t-12 -66v-24h98v-137h-98v-361h-157v361h-76v137h76v26q0 218 212 218q45 0 78 -11z" />
    </font>
</defs>
</svg>
